osu file format v14

[General]
AudioFilename: audio.mp3
AudioLeadIn: 0
PreviewTime: 95443
Countdown: 0
SampleSet: Soft
StackLeniency: 0.4
Mode: 0
LetterboxInBreaks: 0
EpilepsyWarning: 1
WidescreenStoryboard: 1

[Editor]
Bookmarks: 24943,36943
DistanceSpacing: 1.6
BeatDivisor: 4
GridSize: 32
TimelineZoom: 1.6

[Metadata]
Title:Fractures (ft. Nevve)
TitleUnicode:Fractures (ft. Nevve)
Artist:Illenium
ArtistUnicode:Illenium
Creator:zhu
Version:Peter's Hard
Source:
Tags:log off now peter starset hb24 cut version Dance & EDM
BeatmapID:1575510
BeatmapSetID:747671

[Difficulty]
HPDrainRate:5
CircleSize:3.5
OverallDifficulty:6.5
ApproachRate:7.5
SliderMultiplier:1.4
SliderTickRate:1

[Events]
//Background and Video events
0,0,"BG.jpg",0,0
//Break Periods
//Storyboard Layer 0 (Background)
//Storyboard Layer 1 (Fail)
//Storyboard Layer 2 (Pass)
//Storyboard Layer 3 (Foreground)
//Storyboard Sound Samples

[TimingPoints]
943,375,4,2,1,60,1,0
25318,-125,4,2,0,40,0,0
36943,-111.111111111111,4,2,1,60,0,0
48943,-111.111111111111,4,2,0,30,0,0
72943,-111.111111111111,4,2,1,35,0,0
84943,-111.111111111111,4,2,1,40,0,0
95443,-111.111111111111,4,2,1,5,0,0
96943,-90.9090909090909,4,2,1,60,0,1
120193,-100,4,2,1,60,0,0
120943,-100,4,2,0,20,0,0

[Colours]
Combo1 : 235,67,125
Combo2 : 210,40,40
SliderBorder : 255,255,255
SliderTrackOverride : 0,0,0

[HitObjects]
0,242,12568,5,0,0:0:0:0:
67,170,12755,1,0,0:0:0:0:
162,193,12943,6,0,L|155:97,1,70,2|0,0:0|0:0,0:0:0:0:
249,91,13318,2,0,L|242:187,1,70,2|0,0:0|0:0,0:0:0:0:
290,252,13693,2,0,P|340:239|431:295,1,140,8|0,0:0|0:0,0:0:0:0:
346,343,14255,1,8,0:0:0:0:
346,343,14443,5,0,0:0:0:0:
249,327,14630,2,0,L|166:332,1,70,2|2,0:0|0:0,0:0:0:0:
88,293,15005,1,0,0:0:0:0:
132,205,15193,2,0,L|215:210,1,70,8|0,0:0|0:0,0:0:0:0:
285,157,15568,1,0,0:0:0:0:
371,205,15755,1,2,0:0:0:0:
456,156,15943,6,0,B|433:89|479:89|454:33,1,105,2|0,0:0|0:0,0:0:0:0:
451,5,16318,1,2,0:0:0:0:
369,58,16505,1,0,0:0:0:0:
273,33,16693,2,0,L|187:28,1,70,8|0,0:0|0:0,0:0:0:0:
223,125,17068,2,0,L|309:120,1,70,0|8,0:0|0:0,0:0:0:0:
369,58,17443,5,0,0:0:0:0:
405,148,17630,2,0,P|413:206|402:245,1,70,2|2,0:0|0:0,0:0:0:0:
368,305,18005,1,0,0:0:0:0:
272,282,18193,2,0,B|207:264|207:308|119:276,1,140,8|0,0:0|0:0,0:0:0:0:
43,244,18755,1,2,0:0:0:0:
92,159,18943,6,0,L|80:32,1,105,2|0,0:0|0:0,0:0:0:0:
78,7,19318,1,2,0:0:0:0:
168,44,19505,1,0,0:0:0:0:
264,16,19693,2,0,L|357:24,1,70,8|0,0:0|0:0,0:0:0:0:
390,102,20068,2,0,L|483:94,1,70,0|8,0:0|0:0,0:0:0:0:
509,180,20443,5,0,0:0:0:0:
459,264,20631,2,0,P|454:314|475:359,1,70,2|2,0:0|0:0,0:0:0:0:
369,371,21005,1,0,0:0:0:0:
279,329,21193,2,0,B|237:326|237:326|195:349|195:349|122:341,1,140,8|0,0:0|0:0,0:0:0:0:
51,316,21755,1,2,0:0:0:0:
108,236,21943,6,0,P|123:178|106:108,1,105,2|0,0:0|0:0,0:0:0:0:
100,87,22318,1,2,0:0:0:0:
180,32,22505,1,0,0:0:0:0:
267,75,22693,2,0,P|299:77|342:70,1,70,8|0,0:0|0:0,0:0:0:0:
428,39,23068,2,0,P|460:37|503:44,1,70,0|8,0:0|0:0,0:0:0:0:
461,134,23443,5,0,0:0:0:0:
507,240,23630,2,0,L|504:330,1,70,2|2,0:0|0:0,0:0:0:0:
424,366,24005,1,0,0:0:0:0:
345,306,24193,2,0,L|333:140,2,140,8|0|2,0:0|0:0|0:0,0:0:0:0:
154,258,25318,6,0,P|100:251|39:296,1,112,2|0,0:0|0:0,0:0:0:0:
120,335,25880,2,0,B|181:353|182:321|251:335,1,112,2|2,0:0|0:0,0:0:0:0:
318,349,26443,2,0,P|339:278|312:229,1,112,2|2,0:0|0:0,0:0:0:0:
259,185,27005,2,0,L|267:72,1,112,2|0,0:0|0:0,0:0:0:0:
352,47,27568,2,0,L|344:160,1,112,2|2,0:0|0:0,0:0:0:0:
216,285,28318,6,0,B|177:286|177:286|144:273|144:273|89:274,1,112,2|2,0:0|0:3,0:0:0:0:
280,221,29068,2,0,P|309:283|287:344,1,112,2|0,2:0|2:0,2:2:0:0:
216,285,29630,1,4,0:3:0:0:
194,197,29818,2,0,L|196:71,1,112,4|2,0:3|0:3,0:0:0:0:
300,323,30755,1,4,0:3:0:0:
219,363,30943,6,0,P|158:361|104:313,1,112,2|2,0:0|0:0,0:0:0:0:
175,264,31505,2,0,L|165:131,1,112,2|0,0:0|0:0,0:0:0:0:
229,87,32068,2,0,B|291:71|291:103|351:84,1,112,2|0,0:0|0:0,0:0:0:0:
426,66,32630,5,4,0:3:0:0:
426,66,32818,1,4,0:3:0:0:
504,227,33193,2,0,L|498:359,1,112,2|0,0:0|0:0,0:0:0:0:
420,381,33755,1,4,0:3:0:0:
420,381,33943,5,4,0:3:0:0:
254,313,34318,2,0,P|210:306|174:307,1,56,2|0,0:0|0:0,0:0:0:0:
129,248,34693,2,0,P|85:255|49:254,1,56,2|0,0:0|0:0,0:0:0:0:
221,154,35255,2,0,P|265:156|300:164,1,56,2|0,0:0|0:0,0:0:0:0:
334,226,35630,2,0,P|378:228|413:236,1,56,2|0,0:0|0:0,0:0:0:0:
260,355,36193,2,0,L|152:344,1,84,2|0,0:3|0:0,0:0:0:0:
131,343,36568,1,2,0:0:0:0:
131,343,36755,1,2,0:0:0:0:
132,241,36943,6,0,L|122:135,1,94.499997116089,2|0,0:0|0:0,0:0:0:0:
117,96,37318,2,0,P|175:108|258:71,1,125.999996154785,2|8,0:0|0:0,0:0:0:0:
325,37,37880,2,0,P|383:25|466:62,1,125.999996154785,0|8,0:0|0:0,0:0:0:0:
510,122,38443,5,0,0:0:0:0:
444,198,38630,2,0,L|445:282,1,62.9999980773926,2|2,0:0|0:0,0:0:0:0:
510,337,39005,1,0,0:0:0:0:
413,362,39193,2,0,P|366:344|273:361,1,125.999996154785,8|0,0:0|0:0,0:0:0:0:
195,381,39755,1,2,0:0:0:0:
195,381,39943,6,0,L|109:375,1,62.9999980773926,2|0,0:0|0:0,0:0:0:0:
74,293,40318,2,0,L|160:287,1,62.9999980773926,2|0,0:0|0:0,0:0:0:0:
193,204,40693,2,0,L|57:194,1,125.999996154785,8|0,0:0|0:0,0:0:0:0:
10,112,41255,1,8,0:0:0:0:
10,112,41443,5,0,0:0:0:0:
103,75,41630,2,0,P|140:82|171:77,1,62.9999980773926,2|2,0:0|0:0,0:0:0:0:
263,57,42005,1,0,0:0:0:0:
340,122,42193,2,0,P|356:186|321:260,1,125.999996154785,8|0,0:0|0:0,0:0:0:0:
276,322,42755,1,2,0:0:0:0:
183,280,42943,6,0,L|43:287,1,125.999996154785,2|2,0:0|0:0,0:0:0:0:
1,202,43505,1,0,0:0:0:0:
83,143,43693,2,0,P|100:77|65:14,1,125.999996154785,8|0,0:0|0:0,0:0:0:0:
1,91,44255,1,8,0:0:0:0:
1,91,44443,5,0,0:0:0:0:
83,143,44630,2,0,L|169:139,1,62.9999980773926,2|2,0:0|0:0,0:0:0:0:
233,89,45005,1,0,0:0:0:0:
295,168,45193,2,0,L|287:315,1,125.999996154785,8|0,0:0|0:0,0:0:0:0:
359,365,45755,1,2,0:0:0:0:
359,365,45943,5,2,0:0:0:0:
500,221,46318,2,0,L|494:145,1,62.9999980773926,2|0,0:0|0:0,0:0:0:0:
408,106,46693,2,0,L|414:30,1,62.9999980773926,8|0,0:0|0:0,0:0:0:0:
318,6,47068,1,0,0:0:0:0:
318,6,47256,1,8,0:0:0:0:
163,135,47630,6,0,L|84:127,1,62.9999980773926,2|2,0:0|0:0,0:0:0:0:
252,261,48193,2,0,L|381:247,1,125.999996154785,8|0,0:0|0:0,0:0:0:0:
377,247,48943,5,2,0:0:0:0:
84,90,49693,2,0,L|93:173,1,62.9999980773926,2|2,0:0|0:0,0:0:0:0:
163,222,50068,2,0,L|154:305,1,62.9999980773926,2|0,0:0|0:0,0:0:0:0:
226,357,50443,6,0,P|300:336|357:351,1,125.999996154785,2|2,0:0|0:0,0:0:0:0:
156,284,51193,2,0,P|82:305|25:290,1,125.999996154785,2|2,0:0|0:0,0:0:0:0:
247,244,51943,6,0,L|231:118,1,125.999996154785,2|0,0:0|0:0,0:0:0:0:
340,257,52693,2,0,P|243:341|148:258,2,251.999992309571,2|2|2,0:0|0:0|0:0,0:0:0:0:
340,257,54943,5,2,0:0:0:0:
168,22,55693,2,0,L|178:101,1,62.9999980773926,2|2,0:0|0:0,0:0:0:0:
91,141,56068,2,0,L|79:271,2,125.999996154785,2|2|2,0:0|0:0|0:0,0:0:0:0:
139,337,57193,2,0,P|69:356|-3:322,1,125.999996154785,2|2,0:0|0:0,0:0:0:0:
172,251,57943,5,2,0:0:0:0:
64,82,59443,6,0,L|79:236,1,125.999996154785,2|2,0:0|0:0,0:0:0:0:
241,323,60193,2,0,L|256:169,1,125.999996154785,2|2,0:0|0:0,0:0:0:0:
392,51,60943,2,0,L|421:306,2,251.999992309571,2|2|2,0:0|0:0|0:0,0:0:0:0:
392,51,63193,1,2,0:0:0:0:
13,181,64318,6,0,P|77:164|94:167,1,62.9999980773926,2|2,0:0|0:0,0:0:0:0:
171,141,64693,2,0,P|235:158|308:145,1,125.999996154785,2|2,0:0|0:0,0:0:0:0:
104,79,65443,1,2,0:0:0:0:
116,356,66193,6,0,B|128:203,1,125.999996154785,2|2,0:0|0:0,0:0:0:0:
250,54,66943,2,0,B|372:14|369:79|517:49,2,251.999992309571,2|2|2,0:0|0:0|0:0,0:0:0:0:
250,54,69193,1,2,0:0:0:0:
290,263,70318,6,0,L|204:253,1,62.9999980773926,2|2,0:0|0:0,0:0:0:0:
154,186,70693,2,0,P|121:253|149:310,1,125.999996154785,2|2,0:0|0:0,0:0:0:0:
250,164,71443,1,2,0:0:0:0:
424,45,72943,5,8,0:0:0:0:
363,125,73130,2,0,L|279:117,1,62.9999980773926
212,68,73505,2,0,L|80:80,1,125.999996154785,8|0,0:0|0:0,0:0:0:0:
7,17,74068,1,8,0:0:0:0:
253,217,74630,6,0,P|264:159|261:133,1,62.9999980773926,0|8,0:0|0:0,0:0:0:0:
212,68,75005,2,0,P|255:53|339:94,1,125.999996154785,8|0,0:0|0:0,0:0:0:0:
378,167,75568,2,0,P|435:172|469:167,1,62.9999980773926,8|2,0:0|0:0,0:0:0:0:
511,100,75943,5,8,0:0:0:0:
380,253,76318,2,0,P|323:248|289:253,1,62.9999980773926,0|8,0:0|0:0,0:0:0:0:
225,291,76693,2,0,B|157:269|159:308|75:282,1,125.999996154785,0|8,0:0|0:0,0:0:0:0:
120,87,77443,6,0,L|132:178,1,62.9999980773926,0|8,0:0|0:0,0:0:0:0:
224,117,77818,2,0,L|236:26,1,62.9999980773926,8|8,0:0|0:0,0:0:0:0:
327,26,78193,2,0,P|382:52|470:45,1,125.999996154785,0|8,0:0|0:0,0:0:0:0:
351,230,78943,5,8,0:0:0:0:
273,294,79130,2,0,L|182:279,1,62.9999980773926,0|0,0:0|0:0,0:0:0:0:
125,337,79505,2,0,P|108:260|139:211,1,125.999996154785,8|0,0:0|0:0,0:0:0:0:
220,179,80068,1,8,0:0:0:0:
479,23,80630,6,0,L|487:107,1,62.9999980773926,0|8,0:0|0:0,0:0:0:0:
415,159,81005,2,0,B|356:144|356:180|286:162,1,125.999996154785,8|0,0:0|0:0,0:0:0:0:
206,106,81568,2,0,L|116:116,1,62.9999980773926,8|2,0:0|0:0,0:0:0:0:
53,67,81943,5,8,0:0:0:0:
21,266,82318,2,0,L|35:348,1,62.9999980773926,0|8,0:0|0:0,0:0:0:0:
126,362,82693,2,0,P|175:339|264:348,1,125.999996154785,0|8,0:0|0:0,0:0:0:0:
376,187,83443,6,0,L|388:278,1,62.9999980773926,0|0,0:0|0:0,0:0:0:0:
471,199,83818,2,0,L|483:108,1,62.9999980773926,8|8,0:0|0:0,0:0:0:0:
392,84,84193,2,0,P|334:58|258:87,1,125.999996154785,2|8,0:0|0:0,0:0:0:0:
80,125,84943,6,0,P|137:150|213:121,1,125.999996154785,8|8,0:0|0:0,0:0:0:0:
275,72,85505,1,0,0:0:0:0:
329,166,85693,2,0,L|317:300,1,125.999996154785,8|8,0:0|0:0,0:0:0:0:
120,207,86443,6,0,B|67:207|67:207|39:224|39:224|-23:225,1,125.999996154785,8|8,0:0|0:0,0:0:0:0:
180,337,87193,2,0,L|252:337,1,62.9999980773926,8|0,0:0|0:0,0:0:0:0:
343,373,87568,1,8,0:0:0:0:
502,229,87943,5,8,0:0:0:0:
445,138,88130,2,0,L|445:59,1,62.9999980773926,0|8,0:0|0:0,0:0:0:0:
347,29,88505,2,0,P|302:48|207:38,1,125.999996154785,8|0,0:0|0:0,0:0:0:0:
122,18,89068,1,8,0:0:0:0:
1,195,89443,5,8,0:0:0:0:
72,274,89630,2,0,L|67:366,1,62.9999980773926,0|8,0:0|0:0,0:0:0:0:
165,383,90005,1,8,0:0:0:0:
260,334,90193,2,0,P|312:317|394:337,1,125.999996154785,8|8,0:0|0:0,0:0:0:0:
476,376,90755,1,8,0:0:0:0:
508,273,90943,6,0,L|496:129,1,125.999996154785,8|8,0:0|0:0,0:0:0:0:
321,24,91693,2,0,L|309:168,1,125.999996154785,8|8,0:0|0:0,0:0:0:0:
298,255,92255,1,0,0:0:0:0:
213,188,92443,6,0,P|149:171|77:193,1,125.999996154785,8|8,0:0|0:0,0:0:0:0:
299,254,93193,2,0,P|363:271|435:249,1,125.999996154785,8|8,0:0|0:0,0:0:0:0:
256,192,93943,12,0,95443,0:0:0:0:
82,77,96943,6,0,B|166:51|164:106|258:71,1,154.000004699707,2|0,0:0|0:0,0:0:0:0:
331,34,97505,1,2,0:0:0:0:
418,96,97693,2,0,L|414:196,1,77.0000023498536,8|0,0:0|0:0,0:0:0:0:
495,245,98068,2,0,L|499:345,1,77.0000023498536,2|0,0:0|0:0,0:0:0:0:
395,354,98443,6,0,P|346:341|292:348,1,77.0000023498536,0|0,0:0|0:0,0:0:0:0:
212,352,98818,1,2,0:0:0:0:
125,288,99005,2,0,L|127:198,1,77.0000023498536,0|8,0:0|0:0,0:0:0:0:
197,128,99380,2,0,P|274:145|323:119,1,115.50000352478,0|0,0:0|0:0,0:0:0:0:
352,105,99755,1,2,0:0:0:0:
439,168,99943,6,0,B|428:352,1,154.000004699707,2|0,0:0|0:0,0:0:0:0:
330,364,100505,1,2,0:0:0:0:
231,320,100693,2,0,P|175:310|137:317,1,77.0000023498536,8|0,0:0|0:0,0:0:0:0:
74,240,101068,2,0,P|18:250|-20:243,1,77.0000023498536,2|0,0:0|0:0,0:0:0:0:
33,145,101443,6,0,P|95:135|159:182,1,115.50000352478,0|0,0:0|0:0,0:0:0:0:
184,189,101818,2,0,L|270:181,1,77.0000023498536,2|0,0:0|0:0,0:0:0:0:
338,106,102193,2,0,L|424:114,1,77.0000023498536,8|0,0:0|0:0,0:0:0:0:
487,193,102568,1,0,0:0:0:0:
430,284,102755,1,2,0:0:0:0:
330,242,102943,6,0,B|255:216|255:271|157:239,1,154.000004699707,2|0,0:0|0:0,0:0:0:0:
80,202,103505,1,2,0:0:0:0:
134,108,103693,2,0,B|128:21,1,77.0000023498536,8|0,0:0|0:0,0:0:0:0:
238,83,104068,2,0,B|244:170,1,77.0000023498536,2|0,0:0|0:0,0:0:0:0:
178,245,104443,6,0,P|150:239|82:249,1,77.0000023498536,0|0,0:0|0:0,0:0:0:0:
141,343,104818,1,2,0:0:0:0:
246,321,105005,2,0,B|328:332,1,77.0000023498536,0|8,0:0|0:0,0:0:0:0:
408,266,105380,2,0,P|387:214|410:132,1,115.50000352478,0|0,0:0|0:0,0:0:0:0:
415,106,105755,1,2,0:0:0:0:
342,26,105943,6,0,L|241:23,1,77.0000023498536,2|0,0:0|0:0,0:0:0:0:
171,78,106318,1,0,0:0:0:0:
171,78,106505,1,2,0:0:0:0:
76,24,106693,2,0,P|60:79|91:147,1,115.50000352478,8|0,0:0|0:0,0:0:0:0:
112,174,107068,1,2,0:0:0:0:
61,269,107255,1,0,0:0:0:0:
148,332,107443,6,0,L|241:322,1,77.0000023498536,0|0,0:0|0:0,0:0:0:0:
323,366,107818,2,0,L|416:376,1,77.0000023498536,2|0,0:0|0:0,0:0:0:0:
460,284,108193,2,0,P|429:213|451:125,1,154.000004699707,8|0,0:0|0:0,0:0:0:0:
386,47,108755,1,2,0:0:0:0:
294,104,108943,6,0,B|221:135|218:82|119:115,1,154.000004699707,2|0,0:0|0:0,0:0:0:0:
45,60,109505,1,2,0:0:0:0:
0,154,109693,2,0,B|10:246,1,77.0000023498536,8|0,0:0|0:0,0:0:0:0:
104,279,110068,2,0,B|94:371,1,77.0000023498536,2|0,0:0|0:0,0:0:0:0:
201,375,110443,6,0,P|246:366|296:377,1,77.0000023498536,0|0,0:0|0:0,0:0:0:0:
371,318,110818,1,2,0:0:0:0:
296,240,111005,2,0,L|300:152,1,77.0000023498536,0|8,0:0|0:0,0:0:0:0:
369,80,111380,2,0,P|296:52|232:77,1,115.50000352478,0|0,0:0|0:0,0:0:0:0:
213,83,111755,1,2,0:0:0:0:
122,142,111943,6,0,B|128:315,1,154.000004699707,2|0,0:0|0:0,0:0:0:0:
210,365,112505,1,2,0:0:0:0:
290,292,112693,2,0,P|327:287|387:287,1,77.0000023498536,8|0,0:0|0:0,0:0:0:0:
408,186,113068,2,0,P|371:181|311:181,1,77.0000023498536,2|0,0:0|0:0,0:0:0:0:
225,203,113443,1,0,0:0:0:0:
143,133,113630,6,0,L|138:44,1,77.0000023498536,0|2,0:0|0:0,0:0:0:0:
235,7,114005,1,0,0:0:0:0:
320,72,114193,2,0,P|364:78|414:70,1,77.0000023498536,8|0,0:0|0:0,0:0:0:0:
497,37,114568,1,0,0:0:0:0:
497,37,114755,1,2,0:0:0:0:
502,144,114943,6,0,L|495:299,1,154.000004699707,2|0,0:0|0:0,0:0:0:0:
396,341,115505,1,2,0:0:0:0:
295,301,115693,2,0,P|235:291|189:303,1,77.0000023498536,8|0,0:0|0:0,0:0:0:0:
119,334,116068,2,0,P|59:344|13:332,1,77.0000023498536,2|0,0:0|0:0,0:0:0:0:
74,238,116443,6,0,L|72:148,1,77.0000023498536
23,65,116818,1,2,0:0:0:0:
124,31,117005,2,0,P|158:46|226:35,1,77.0000023498536,0|8,0:0|0:0,0:0:0:0:
266,130,117380,2,0,P|340:108|401:127,1,115.50000352478,0|0,0:0|0:0,0:0:0:0:
425,137,117755,1,2,0:0:0:0:
366,228,117943,6,0,L|382:339,1,77.0000023498536,2|0,0:0|0:0,0:0:0:0:
278,345,118318,2,0,P|225:326|192:329,1,77.0000023498536,0|2,0:0|0:0,0:0:0:0:
113,268,118693,2,0,P|60:287|27:284,1,77.0000023498536,8|0,0:0|0:0,0:0:0:0:
55,179,119068,1,2,0:0:0:0:
55,179,119255,1,0,0:0:0:0:
163,174,119443,6,0,L|259:184,1,77.0000023498536,0|0,0:0|0:0,0:0:0:0:
318,256,119818,2,0,L|414:246,1,77.0000023498536,2|0,0:0|0:0,0:0:0:0:
472,307,120193,2,0,B|495:259|483:214|483:214|441:173|436:121|436:121|454:78|448:31,1,280,8|2,0:0|0:0,0:0:0:0:
