osu file format v14

[General]
AudioFilename: audio.mp3
AudioLeadIn: 0
PreviewTime: 95443
Countdown: 0
SampleSet: Soft
StackLeniency: 0.7
Mode: 0
LetterboxInBreaks: 0
EpilepsyWarning: 1
WidescreenStoryboard: 1

[Editor]
Bookmarks: 12568,25318,36943,49693,72943,97693
DistanceSpacing: 2
BeatDivisor: 4
GridSize: 32
TimelineZoom: 1

[Metadata]
Title:Fractures (ft. Nevve)
TitleUnicode:Fractures (ft. Nevve)
Artist:Illenium
ArtistUnicode:Illenium
Creator:zhu
Version:Normal
Source:
Tags:log off now peter starset hb24 cut version Dance & EDM
BeatmapID:1575366
BeatmapSetID:747671

[Difficulty]
HPDrainRate:4
CircleSize:2.5
OverallDifficulty:4
ApproachRate:5
SliderMultiplier:1
SliderTickRate:1

[Events]
//Background and Video events
0,0,"BG.jpg",0,0
//Break Periods
//Storyboard Layer 0 (Background)
//Storyboard Layer 1 (Fail)
//Storyboard Layer 2 (Pass)
//Storyboard Layer 3 (Foreground)
//Storyboard Sound Samples

[TimingPoints]
943,375,4,2,1,60,1,0
12568,-117.647058823529,4,2,1,60,0,0
24943,-117.647058823529,4,2,2,40,0,0
36943,-117.647058823529,4,2,1,60,0,0
48943,-117.647058823529,4,2,1,30,0,0
49693,-117.647058823529,4,2,3,30,0,0
50724,-117.647058823529,4,2,3,5,0,0
50818,-117.647058823529,4,2,3,30,0,0
51099,-117.647058823529,4,2,3,5,0,0
51193,-117.647058823529,4,2,3,30,0,0
53349,-117.647058823529,4,2,3,5,0,0
53443,-117.647058823529,4,2,3,30,0,0
54099,-117.647058823529,4,2,3,5,0,0
54193,-117.647058823529,4,2,3,30,0,0
54849,-117.647058823529,4,2,3,5,0,0
54943,-117.647058823529,4,2,3,30,0,0
56724,-117.647058823529,4,2,3,5,0,0
56818,-117.647058823529,4,2,3,30,0,0
57099,-117.647058823529,4,2,3,5,0,0
57193,-117.647058823529,4,2,3,30,0,0
59724,-117.647058823529,4,2,3,5,0,0
59818,-117.647058823529,4,2,3,35,0,0
60099,-117.647058823529,4,2,3,5,0,0
60193,-117.647058823529,4,2,3,40,0,0
60474,-117.647058823529,4,2,3,5,0,0
60568,-117.647058823529,4,2,3,30,0,0
60849,-117.647058823529,4,2,3,5,0,0
60943,-117.647058823529,4,2,3,40,0,0
66474,-117.647058823529,4,2,3,5,0,0
66568,-117.647058823529,4,2,3,40,0,0
66849,-117.647058823529,4,2,3,5,0,0
66943,-117.647058823529,4,2,3,40,0,0
72943,-117.647058823529,4,2,1,35,0,0
77630,-117.647058823529,4,2,1,20,0,0
77818,-117.647058823529,4,2,1,30,0,0
78568,-117.647058823529,4,2,1,20,0,0
78756,-117.647058823529,4,2,1,30,0,0
80818,-117.647058823529,4,2,1,20,0,0
81006,-117.647058823529,4,2,1,30,0,0
84568,-117.647058823529,4,2,1,20,0,0
84756,-117.647058823529,4,2,1,30,0,0
84943,-117.647058823529,4,2,1,40,0,0
95349,-117.647058823529,4,2,1,40,0,0
96943,-117.647058823529,4,2,1,70,0,1
120193,-117.647058823529,4,2,1,60,0,0
120943,-117.647058823529,4,2,1,20,0,0

[Colours]
Combo1 : 235,67,125
Combo2 : 210,40,40
SliderBorder : 255,255,255
SliderTrackOverride : 0,0,0

[HitObjects]
238,8,12568,37,0,0:0:0:0:
238,8,12755,1,0,0:0:0:0:
283,79,12943,6,0,P|244:92|202:86,2,85.0000016212464,2|2|8,0:0|0:0|0:0,0:0:0:0:
347,23,13880,1,0,0:0:0:0:
385,188,14255,1,8,0:0:0:0:
405,272,14443,2,0,L|415:313,2,42.5000008106232,0|2|2,0:0|0:0|0:0,0:0:0:0:
321,285,15005,2,0,L|236:294,1,85.0000016212464
151,307,15568,1,0,0:0:0:0:
96,146,15943,6,0,P|82:105|89:64,1,85.0000016212464,2|2,0:0|0:0,0:0:0:0:
160,19,16505,2,0,L|205:16,1,42.5000008106232,0|8,0:0|0:0,0:0:0:0:
276,58,16880,2,0,P|290:99|283:140,1,85.0000016212464,0|8,0:0|0:0,0:0:0:0:
212,189,17443,2,0,L|169:191,2,42.5000008106232,0|2|2,0:0|0:0|0:0,0:0:0:0:
289,225,18005,2,0,P|302:264|296:306,1,85.0000016212464
229,359,18568,1,0,0:0:0:0:
77,282,18943,6,0,L|87:239,1,42.5000008106232,2|0,0:0|0:0,0:0:0:0:
100,156,19318,2,0,P|109:114|99:73,1,85.0000016212464,2|8,0:0|0:0,0:0:0:0:
172,28,19880,2,0,P|214:36|255:26,1,85.0000016212464,0|8,0:0|0:0,0:0:0:0:
340,26,20443,2,0,L|373:-2,2,42.5000008106232,0|2|2,0:0|0:0|0:0,0:0:0:0:
402,82,21005,2,0,P|410:124|400:165,1,85.0000016212464
377,246,21568,1,0,0:0:0:0:
253,279,21943,6,0,L|211:284,1,42.5000008106232,2|0,0:0|0:0,0:0:0:0:
194,200,22318,2,0,L|188:157,1,42.5000008106232,2|0,0:0|0:0,0:0:0:0:
248,91,22693,2,0,P|287:78|329:86,1,85.0000016212464,8|0,0:0|0:0,0:0:0:0:
408,115,23255,1,8,0:0:0:0:
445,38,23443,2,0,L|463:-1,2,42.5000008106232,0|2|2,0:0|0:0|0:0,0:0:0:0:
369,190,24193,2,0,B|304:219|265:165|202:196,1,170.000003242493,8|2,0:0|0:0,0:0:0:0:
50,271,25318,6,0,P|60:229|56:187,1,85.0000016212464,2|8,0:0|0:0,0:0:0:0:
41,103,25880,2,0,L|125:110,1,85.0000016212464,0|2,0:0|0:0,0:0:0:0:
207,118,26443,2,0,P|202:76|175:44,2,85.0000016212464,0|2|8,0:0|0:0|0:0,0:0:0:0:
86,238,27568,2,0,L|98:286,1,42.5000008106232,0|2,0:0|0:0,0:0:0:0:
120,360,27943,5,2,0:0:0:0:
272,283,28318,2,0,B|306:259|306:259|331:222,1,85.0000016212464,2|8,0:0|0:0,0:0:0:0:
269,163,28880,2,0,B|244:199|244:199|211:223,1,85.0000016212464,0|2,0:0|0:0,0:0:0:0:
127,235,29443,1,0,0:0:0:0:
127,235,29630,2,0,L|82:234,1,42.5000008106232,2|2,0:0|0:0,0:0:0:0:
86,63,30193,1,8,0:0:0:0:
424,32,30943,6,0,P|404:68|405:110,1,85.0000016212464,10|2,0:0|0:0,0:0:0:0:
447,184,31505,1,0,0:0:0:0:
485,260,31693,2,0,L|471:311,1,42.5000008106232,8|0,0:0|0:0,0:0:0:0:
400,343,32068,2,8,L|315:353,2,85.0000016212464,2|2|2,0:0|0:0|0:0,0:0:0:0:
447,184,33193,2,8,L|362:194,1,85.0000016212464,8|2,0:0|0:0,0:0:0:0:
278,206,33755,1,2,0:0:0:0:
122,3,34318,6,0,L|76:10,1,42.5000008106232,2|0,0:0|0:0,0:0:0:0:
43,88,34693,2,0,B|73:139|33:178|55:213,1,127.50000243187,8|2,0:0|0:0,0:0:0:0:
87,290,35443,1,0,0:0:0:0:
163,325,35630,2,0,L|211:331,1,42.5000008106232,2|2,0:0|0:0,0:0:0:0:
374,348,36193,1,8,0:0:0:0:
400,180,36568,2,0,L|357:174,1,42.5000008106232
274,158,36943,5,2,0:0:0:0:
107,122,37318,2,0,P|93:161|62:190,1,85.0000016212464,2|8,0:3|0:3,0:3:0:0:
21,116,37880,2,0,P|35:76|66:47,1,85.0000016212464,0|8,0:3|0:3,0:3:0:0:
152,47,38443,2,0,L|194:47,1,42.5000008106232,0|2,0:0|0:0,0:0:0:0:
279,48,38818,1,2,0:0:0:0:
448,48,39193,2,0,B|431:88|431:88|425:129,1,85.0000016212464,8|0,0:0|0:0,0:0:0:0:
435,213,39755,1,2,0:0:0:0:
435,213,39943,5,2,0:0:0:0:
328,342,40318,2,0,P|287:348|246:338,1,85.0000016212464,2|8,0:0|0:0,0:0:0:0:
214,259,40880,2,0,P|173:248|131:255,1,85.0000016212464,0|8,0:0|0:0,0:0:0:0:
57,298,41443,2,0,L|45:249,1,42.5000008106232,0|2,0:0|0:0,0:0:0:0:
22,175,41818,1,2,0:0:0:0:
159,74,42193,2,0,P|200:79|241:67,1,85.0000016212464,8|0,0:0|0:0,0:0:0:0:
323,42,42755,1,2,0:0:0:0:
304,125,42943,6,0,P|298:166|310:207,2,85.0000016212464,2|2|8,0:0|0:0|0:0,0:0:0:0:
470,163,44068,1,0,0:0:0:0:
445,243,44255,2,0,B|422:275|422:275|386:303,1,85.0000016212464,8|2,0:0|0:0,0:0:0:0:
305,330,44818,1,2,0:0:0:0:
135,338,45193,2,0,P|136:287|116:244,1,85.0000016212464,8|0,0:0|0:0,0:0:0:0:
73,187,45755,1,2,0:0:0:0:
73,187,45943,5,2,0:0:0:0:
163,43,46318,2,0,P|183:46|205:46,1,42.5000008106232,2|0,0:0|0:0,0:0:0:0:
289,58,46693,2,0,L|279:142,1,85.0000016212464,8|0,0:0|0:0,0:0:0:0:
266,226,47255,1,8,0:0:0:0:
181,218,47443,2,0,L|131:214,2,42.5000008106232,0|2|2,0:0|0:0|0:0,0:0:0:0:
350,239,48193,2,0,B|392:253|428:218|428:218|448:258|492:267,1,170.000003242493,8|2,0:0|0:0,0:0:0:0:
366,36,49693,6,0,P|346:40|325:42,1,42.5000008106232,2|2,0:0|0:0,0:0:0:0:
240,36,50068,2,0,P|218:37|198:42,1,42.5000008106232,2|0,0:0|0:0,0:0:0:0:
120,76,50443,2,0,P|93:109|89:151,1,85.0000016212464,2|2,0:0|0:0,0:0:0:0:
246,214,51193,2,0,P|230:174|196:150,1,85.0000016212464,2|0,0:0|0:0,0:0:0:0:
65,258,51944,2,0,P|106:264|144:247,1,85.0000016212464,2|0,0:0|0:0,0:0:0:0:
304,306,52693,38,0,B|366:274|405:328|470:299,3,170.000003242493,2|2|2|2,0:0|0:0|0:0|0:0,0:0:0:0:
134,243,55693,6,0,L|92:249,1,42.5000008106232,2|2,0:0|0:0,0:0:0:0:
99,164,56068,2,0,L|140:157,1,42.5000008106232,2|0,0:0|0:0,0:0:0:0:
105,79,56443,2,0,L|188:65,1,85.0000016212464,2|2,0:0|0:0,0:0:0:0:
218,230,57193,2,0,L|134:243,1,85.0000016212464,2|0,0:0|0:0,0:0:0:0:
267,136,57943,2,0,B|326:127|326:127|411:197,1,170.000003242493,2|0,0:0|0:0,0:0:0:0:
91,312,59443,6,0,P|82:270|94:230,1,85.0000016212464,2|2,0:0|0:0,0:0:0:0:
231,130,60193,2,0,P|240:172|228:212,1,85.0000016212464,2|2,0:0|0:0,0:0:0:0:
167,52,60943,2,0,B|206:45|229:-1|229:-1|251:42|291:55,3,170.000003242493,2|2|2|2,0:0|0:0|0:0|0:0,0:0:0:0:
404,289,63943,37,0,0:0:0:0:
235,310,64318,2,0,L|175:316,1,42.5000008106232,2|2,0:0|0:0,0:0:0:0:
109,335,64693,2,0,P|107:294|134:249,2,85.0000016212464,2|0|2,0:0|0:0|0:0,0:0:0:0:
449,334,66193,2,0,P|469:297|466:255,1,85.0000016212464,2|2,0:0|0:0,0:0:0:0:
406,96,66943,38,0,B|385:43|418:-9|418:-9|346:16,3,170.000003242493,2|2|2|2,0:0|0:0|0:0|0:0,0:0:0:0:
29,84,69943,5,0,0:0:0:0:
93,241,70318,2,0,L|109:280,1,42.5000008106232,2|2,0:0|0:0,0:0:0:0:
98,363,70693,2,0,P|140:358|173:332,2,85.0000016212464,2|0|2,0:0|0:0|0:0,0:0:0:0:
457,284,72943,38,0,P|421:306|380:312,1,85.0000016212464,8|0,0:0|0:0,0:0:0:0:
324,248,73505,2,0,P|283:254|247:276,1,85.0000016212464,8|0,0:0|0:0,0:0:0:0:
185,335,74068,2,0,P|192:290|186:251,1,85.0000016212464,8|0,0:0|0:0,0:0:0:0:
148,175,74630,1,0,0:0:0:0:
110,98,74818,2,0,P|172:110|231:88,2,127.50000243187,8|0|8,0:0|0:0|0:0,0:0:0:0:
106,267,76318,38,0,L|146:293,1,42.5000008106232,2|8,0:0|0:0,0:0:0:0:
217,328,76693,2,0,P|258:319|290:291,1,85.0000016212464,0|8,0:0|0:0,0:0:0:0:
346,228,77255,1,0,0:0:0:0:
425,259,77443,2,0,L|472:281,2,42.5000008106232,0|8|8,0:0|0:0|0:0,0:0:0:0:
263,205,78193,2,0,P|241:156|293:176,1,127.50000243187,0|8,0:0|0:0,0:0:0:0:
346,228,78943,6,0,P|389:229|426:211,1,85.0000016212464,8|0,0:0|0:0,0:0:0:0:
509,194,79505,2,0,P|489:157|453:133,1,85.0000016212464,8|0,0:0|0:0,0:0:0:0:
397,70,80068,2,0,P|374:105|371:150,1,85.0000016212464,8|0,0:0|0:0,0:0:0:0:
426,210,80630,1,0,0:0:0:0:
382,283,80818,2,0,B|351:307|351:307|263:307,2,127.50000243187,8|0|8,0:0|0:0|0:0,0:0:0:0:
501,161,82318,6,0,L|494:115,1,42.5000008106232,2|8,0:0|0:0,0:0:0:0:
447,47,82693,2,0,B|396:77|357:37|322:59,1,127.50000243187
240,73,83443,2,2,P|218:108|215:150,1,85.0000016212464,2|10,0:0|0:0,0:0:0:0:
375,206,84192,2,0,P|356:168|318:138,1,85.0000016212464,2|8,0:0|0:0,0:0:0:0:
198,256,84942,6,0,P|241:257|279:238,1,85.0000016212464,8|8,0:0|0:0,0:0:0:0:
110,205,85693,2,0,L|106:289,1,85.0000016212464,8|8,0:0|0:0,0:0:0:0:
267,343,86443,2,0,P|351:345|424:304,1,170.000003242493,8|8,0:0|0:0,0:0:0:0:
448,138,87568,1,8,0:0:0:0:
302,50,87943,6,0,P|318:90|319:132,1,85.0000016212464,8|8,0:0|0:0,0:0:0:0:
253,186,88505,2,0,P|238:146|237:104,1,85.0000016212464,8|0,0:0|0:0,0:0:0:0:
221,20,89068,2,0,P|179:21|140:36,1,85.0000016212464,8|8,0:0|0:0,0:0:0:0:
92,107,89630,1,0,0:0:0:0:
59,185,89818,2,0,L|66:286,2,85.0000016212464,8|8|8,0:0|0:0|0:0,0:0:0:0:
203,275,90943,6,0,L|197:190,1,85.0000016212464,8|8,0:0|0:0,0:0:0:0:
317,70,91693,2,0,L|323:154,1,85.0000016212464,8|8,0:0|0:0,0:0:0:0:
335,324,92443,2,0,L|508:312,1,170.000003242493,8|8,0:0|0:0,0:0:0:0:
495,142,93568,1,8,0:0:0:0:
256,192,93943,12,0,95443,0:0:0:0:
379,274,96943,6,0,P|399:238|398:196,1,85.0000016212464,2|0,0:0|0:0,0:0:0:0:
341,134,97505,1,2,0:0:0:0:
259,157,97693,2,0,P|238:193|239:235,1,85.0000016212464,8|2,0:0|0:0,0:0:0:0:
296,297,98255,2,0,P|259:317|217:316,1,85.0000016212464,2|0,3:0|0:0,0:0:0:0:
157,256,98818,1,2,0:0:0:0:
135,338,99005,1,0,0:0:0:0:
75,276,99193,2,0,P|81:214|128:174,1,127.50000243187,8|2,0:0|0:0,0:0:0:0:
213,171,99943,6,0,L|303:171,1,85.0000016212464,2|0,0:0|0:0,0:0:0:0:
300,256,100505,1,2,0:0:0:0:
373,213,100693,2,0,P|385:168|368:123,1,85.0000016212464,8|2,0:0|0:0,0:0:0:0:
414,57,101255,2,0,P|372:47|331:58,1,85.0000016212464,2|0,3:0|0:0,0:0:0:0:
256,97,101818,1,2,0:0:0:0:
298,171,102005,1,0,0:0:0:0:
373,131,102193,2,0,P|381:194|344:246,1,127.50000243187,8|2,0:0|0:0,0:0:0:0:
270,286,102943,6,0,L|185:286,1,85.0000016212464,2|0,0:0|0:0,0:0:0:0:
108,242,103505,1,2,0:0:0:0:
185,201,103693,2,0,L|270:201,1,85.0000016212464,8|2,0:0|0:0,0:0:0:0:
267,115,104255,2,0,L|182:115,1,85.0000016212464,2|0,3:0|0:0,0:0:0:0:
108,158,104818,1,2,0:0:0:0:
108,242,105005,1,0,0:0:0:0:
185,286,105193,2,0,L|312:287,1,127.50000243187,8|2,0:0|0:0,0:0:0:0:
376,343,105943,5,2,0:0:0:0:
374,173,106318,2,0,L|375:126,1,42.5000008106232,0|2,0:0|0:0,0:0:0:0:
370,44,106693,2,0,P|308:58|246:46,1,127.50000243187,8|0,0:0|0:0,0:0:0:0:
162,31,107443,1,0,0:0:0:0:
162,115,107630,2,0,L|162:157,1,42.5000008106232,0|2,0:0|0:0,0:0:0:0:
164,327,108193,1,8,0:0:0:0:
245,133,108943,6,0,P|281:112|323:113,1,85.0000016212464,2|0,0:0|0:0,0:0:0:0:
385,172,109505,1,2,0:0:0:0:
303,195,109693,2,0,P|303:238|284:275,1,85.0000016212464,8|2,0:0|0:0,0:0:0:0:
219,215,110256,2,0,P|182:193|162:156,1,85.0000016212464
245,133,110818,1,2,0:0:0:0:
304,196,111005,1,0,0:0:0:0:
284,275,111193,2,0,L|172:337,1,127.50000243187,8|2,0:0|0:0,0:0:0:0:
129,263,111943,6,0,L|92:186,1,85.0000016212464,2|0,0:0|0:0,0:0:0:0:
10,171,112505,1,2,0:0:0:0:
66,105,112693,2,0,L|151:111,1,85.0000016212464,8|2,0:0|0:0,0:0:0:0:
234,127,113256,2,0,L|185:197,1,85.0000016212464,2|0,3:0|0:0,0:0:0:0:
129,263,113818,1,2,0:0:0:0:
77,330,114005,1,0,0:0:0:0:
161,343,114193,2,0,L|288:351,1,127.50000243187,8|2,0:0|0:0,0:0:0:0:
322,273,114943,6,0,B|359:251|359:251|396:272,1,85.0000016212464,2|0,0:0|0:0,0:0:0:0:
480,272,115505,1,2,0:0:0:0:
438,199,115693,2,0,B|400:177|400:177|400:135,1,85.0000016212464,8|2,0:0|0:0,0:0:0:0:
315,136,116256,2,0,B|315:179|315:179|278:200,1,85.0000016212464,2|0,3:0|0:0,0:0:0:0:
205,243,116818,1,2,0:0:0:0:
130,282,117005,1,0,0:0:0:0:
51,315,117193,2,0,B|24:326|24:326|48:230,1,127.50000243187,8|2,0:0|0:0,0:0:0:0:
72,149,117943,5,2,0:0:0:0:
230,86,118318,2,0,L|269:69,1,42.5000008106232,0|2,0:0|0:0,0:0:0:0:
347,35,118693,2,0,P|333:96|344:158,1,127.50000243187,8|0,0:0|0:0,0:0:0:0:
425,130,119443,2,0,L|464:113,2,42.5000008106232,0|0|2,0:0|0:0|0:0,0:0:0:0:
264,187,120193,2,0,B|199:216|160:162|97:194,1,170.000003242493,8|0,0:0|0:0,0:0:0:0:
