osu file format v14

[General]
AudioFilename: audio.mp3
AudioLeadIn: 0
PreviewTime: 95443
Countdown: 0
SampleSet: Soft
StackLeniency: 0.7
Mode: 0
LetterboxInBreaks: 0
EpilepsyWarning: 1
WidescreenStoryboard: 1

[Editor]
Bookmarks: 12568,48943,72943
DistanceSpacing: 1.1
BeatDivisor: 1
GridSize: 32
TimelineZoom: 1

[Metadata]
Title:Fractures (ft. Nevve)
TitleUnicode:Fractures (ft. Nevve)
Artist:Illenium
ArtistUnicode:Illenium
Creator:zhu
Version:Log's Easy
Source:
Tags:log off now peter starset hb24 cut version Dance & EDM
BeatmapID:1575365
BeatmapSetID:747671

[Difficulty]
HPDrainRate:3
CircleSize:2
OverallDifficulty:3
ApproachRate:3
SliderMultiplier:0.899999999999999
SliderTickRate:1

[Events]
//Background and Video events
0,0,"BG.jpg",0,0
//Break Periods
//Storyboard Layer 0 (Background)
//Storyboard Layer 1 (Fail)
//Storyboard Layer 2 (Pass)
//Storyboard Layer 3 (Foreground)
//Storyboard Sound Samples

[TimingPoints]
943,375,4,2,1,60,1,0
24943,-100,4,2,2,40,0,0
36943,-100,4,2,1,60,0,0
48943,-100,4,2,1,30,0,0
49693,-100,4,2,3,30,0,0
53349,-100,4,2,3,5,0,0
53443,-100,4,2,3,30,0,0
54099,-100,4,2,3,5,0,0
54193,-100,4,2,3,30,0,0
54849,-100,4,2,3,5,0,0
54943,-100,4,2,3,30,0,0
59724,-100,4,2,3,5,0,0
59818,-100,4,2,3,35,0,0
60099,-100,4,2,3,5,0,0
60193,-100,4,2,3,40,0,0
60474,-100,4,2,3,5,0,0
60568,-100,4,2,3,30,0,0
60849,-100,4,2,3,5,0,0
60943,-100,4,2,3,40,0,0
66474,-100,4,2,3,5,0,0
66568,-100,4,2,3,40,0,0
66849,-100,4,2,3,5,0,0
66943,-100,4,2,3,40,0,0
72943,-100,4,2,1,30,0,0
77630,-100,4,2,1,20,0,0
77818,-100,4,2,1,30,0,0
78568,-100,4,2,1,20,0,0
78756,-100,4,2,1,30,0,0
80818,-100,4,2,1,20,0,0
81006,-100,4,2,1,30,0,0
96943,-100,4,2,1,60,0,1
120193,-100,4,2,1,60,0,0
120943,-100,4,2,1,20,0,0

[Colours]
Combo1 : 235,67,125
Combo2 : 210,40,40
SliderBorder : 255,255,255
SliderTrackOverride : 0,0,0

[HitObjects]
237,204,12568,5,0,0:0:0:0:
302,129,12943,6,0,L|412:138,1,89.9999999999999,2|2,0:0|0:0,0:0:0:0:
465,202,13693,2,0,B|459:250|459:250|470:346,2,135,8|8|2,0:0|0:0|0:0,0:0:0:0:
481,104,15193,1,8,0:0:0:0:
296,32,15943,6,0,L|206:39,1,89.9999999999999,2|2,0:0|0:0,0:0:0:0:
150,120,16693,2,0,B|97:142|7:120,2,135,8|8|2,0:0|0:0|0:0,0:0:0:0:
240,158,18193,2,0,P|250:204|239:255,1,89.9999999999999,8|0,0:0|0:0,0:0:0:0:
172,315,18943,5,2,0:0:0:0:
264,350,19318,1,2,0:0:0:0:
356,313,19693,2,0,B|404:319|404:319|500:308,2,135,8|8|2,0:0|0:0|0:0,0:0:0:0:
325,218,21193,1,8,0:0:0:0:
151,123,21943,6,0,L|146:218,1,89.9999999999999,2|2,0:0|0:0,0:0:0:0:
239,245,22693,2,0,P|233:308|243:381,2,135,8|8|2,0:0|0:0|0:0,0:0:0:0:
261,148,24193,1,8,0:0:0:0:
407,280,24943,5,2,0:0:0:0:
462,198,25318,2,0,P|472:140|456:49,2,135,2|0|0,0:0|0:0|0:0,0:0:0:0:
316,228,27005,2,0,B|268:200|268:200|176:212,1,135,0|0,0:0|0:0,0:0:0:0:
116,280,27943,5,2,0:0:0:0:
32,228,28318,2,0,B|7:143|67:143|30:39,2,180,2|0|2,0:0|0:0|0:0,0:0:0:0:
24,328,30193,1,8,0:0:0:0:
184,212,30943,6,0,P|250:202|316:213,2,135,2|0|0,0:0|0:0|0:0,0:0:0:0:
252,344,32630,2,0,B|300:356|300:356|400:344,1,135,2|8,0:0|0:0,0:0:0:0:
448,272,33568,1,0,0:0:0:0:
384,196,33943,6,0,L|380:107,1,89.9999999999999,2|2,0:0|0:0,0:0:0:0:
308,40,34693,2,0,B|215:4|215:77|134:53,1,180,8|0,0:0|0:0,0:0:0:0:
52,108,35818,2,0,P|50:152|34:194,1,89.9999999999999,2|8,0:0|0:0,0:0:0:0:
76,284,36568,1,0,0:0:0:0:
160,232,36943,6,0,B|152:190|152:190|160:135,1,89.9999999999999,2|2,0:0|0:0,0:0:0:0:
232,76,37693,2,0,B|283:63|283:63|378:74,2,135,8|8|2,0:0|0:0|0:0,0:0:0:0:
284,160,39193,2,0,B|290:206|290:206|282:248,1,89.9999999999999,8|0,0:0|0:0,0:0:0:0:
208,316,39943,6,0,L|119:320,1,89.9999999999999,2|2,0:0|0:0,0:0:0:0:
44,256,40693,2,0,L|50:122,2,135,8|8|2,0:0|0:0|0:0,0:0:0:0:
34,351,42193,1,8,0:0:0:0:
197,239,42943,6,0,B|207:193|207:193|202:150,1,89.9999999999999,2|2,0:0|0:0,0:0:0:0:
168,58,43693,2,0,P|101:47|36:64,2,135,8|8|2,0:0|0:0|0:0,0:0:0:0:
263,85,45193,2,0,P|312:92|354:84,1,89.9999999999999,8|0,0:0|0:0,0:0:0:0:
445,54,45943,6,0,L|442:156,1,89.9999999999999,2|2,0:0|0:0,0:0:0:0:
354,189,46693,2,0,L|361:335,2,135,8|8|2,0:0|0:0|0:0,0:0:0:0:
347,89,48193,1,8,0:0:0:0:
20,312,49693,6,0,P|65:329|117:311,1,89.9999999999999,2|2,0:0|0:0,0:0:0:0:
177,254,50443,2,0,P|222:237|274:255,1,89.9999999999999,2|2,0:0|0:0,0:0:0:0:
354,281,51193,2,0,L|351:191,1,89.9999999999999,2|0,0:0|0:0,0:0:0:0:
348,92,51943,1,2,0:0:0:0:
163,163,52693,6,0,L|147:352,1,180,0|0,0:0|0:0,0:0:0:0:
310,229,54193,2,0,L|294:49,1,180,0|0,0:0|0:0,0:0:0:0:
221,233,55693,6,0,P|228:265|267:308,1,89.9999999999999,2|2,0:0|0:0,0:0:0:0:
351,355,56443,2,0,P|362:315|349:255,1,89.9999999999999,2|2,0:0|0:0,0:0:0:0:
312,178,57193,2,0,L|317:84,1,89.9999999999999,2|0,0:0|0:0,0:0:0:0:
398,32,57943,1,2,0:0:0:0:
466,220,58693,1,0,0:0:0:0:
273,264,59443,6,0,L|177:256,1,89.9999999999999,2|2,0:0|0:0,0:0:0:0:
137,168,60193,2,0,L|233:160,1,89.9999999999999,2|2,0:0|0:0,0:0:0:0:
325,154,60943,6,0,P|375:199|385:312,1,180,2|2,0:0|0:0,0:0:0:0:
191,276,62443,2,0,P|141:231|131:118,1,180,2|2,0:0|0:0,0:0:0:0:
323,83,63943,5,0,0:0:0:0:
331,181,64318,2,0,L|337:284,1,89.9999999999999,2|2,0:0|0:0,0:0:0:0:
249,318,65068,1,0,0:0:0:0:
160,273,65443,1,2,0:0:0:0:
262,103,66193,2,0,P|311:89|365:102,1,89.9999999999999,2|2,0:0|0:0,0:0:0:0:
311,186,66943,6,0,B|258:216|206:183|206:183|170:158|129:178,1,180,2|2,0:0|0:0,0:0:0:0:
260,331,68443,2,0,P|344:358|426:325,1,180,2|2,0:0|0:0,0:0:0:0:
441,125,69943,5,0,0:0:0:0:
348,92,70318,2,0,L|249:100,1,89.9999999999999,2|2,0:0|0:0,0:0:0:0:
179,159,71068,1,0,0:0:0:0:
90,115,71443,1,2,0:0:0:0:
348,92,72943,6,0,B|397:102|397:102|479:81,2,135,8|8|8,0:0|0:0|0:0,0:0:0:0:
156,39,74818,2,0,L|163:149,1,89.9999999999999,8|0,0:0|0:0,0:0:0:0:
220,208,75568,1,8,0:0:0:0:
314,178,75943,6,0,B|324:227|324:227|303:309,2,135,8|8|8,0:0|0:0|0:0,0:0:0:0:
236,116,77443,2,0,L|134:123,1,89.9999999999999,0|8,0:0|0:0,0:0:0:0:
99,209,78193,2,0,L|201:216,1,89.9999999999999,0|8,0:0|0:0,0:0:0:0:
270,271,78943,6,0,B|319:281|319:281|401:260,2,135,8|8|8,0:0|0:0|0:0,0:0:0:0:
330,81,80818,2,0,L|418:58,1,89.9999999999999,8|0,0:0|0:0,0:0:0:0:
489,125,81568,1,8,0:0:0:0:
443,213,81943,6,0,B|453:262|453:262|432:344,2,135,8|8|8,0:0|0:0|0:0,0:0:0:0:
367,149,83443,2,0,P|314:141|265:151,1,89.9999999999999,0|8,0:0|0:0,0:0:0:0:
201,209,84193,2,0,P|157:214|113:206,1,89.9999999999999,0|0,0:0|0:0,0:0:0:0:
52,127,84943,6,0,P|17:186|54:286,1,180,8|8,0:0|0:0,0:0:0:0:
140,328,86068,1,8,0:0:0:0:
231,291,86443,2,0,B|317:269|317:320|408:294,1,180,8|8,0:0|0:0,0:0:0:0:
473,219,87568,1,8,0:0:0:0:
419,135,87943,6,0,L|413:31,1,89.9999999999999,8|8,0:0|0:0,0:0:0:0:
316,65,88693,2,0,P|268:72|211:61,1,89.9999999999999,8|8,0:0|0:0,0:0:0:0:
131,39,89443,2,0,L|136:128,1,89.9999999999999,8|8,0:0|0:0,0:0:0:0:
100,221,90193,1,8,0:0:0:0:
108,319,90568,1,8,0:0:0:0:
188,261,90943,6,0,P|274:239|366:269,1,180,8|8,0:0|0:0,0:0:0:0:
440,321,92068,1,8,0:0:0:0:
464,225,92443,2,0,B|442:139|493:139|467:48,1,180,8|8,0:0|0:0,0:0:0:0:
371,19,93568,1,8,0:0:0:0:
286,70,93943,6,0,L|191:61,1,89.9999999999999,8|8,0:0|0:0,0:0:0:0:
122,127,94693,2,0,L|32:135,1,89.9999999999999,8|8,0:0|0:0,0:0:0:0:
449,223,96943,6,0,B|464:273|464:273|453:369,2,135,2|2|2,0:0|0:0|0:0,0:0:0:0:
365,169,98443,1,0,0:0:0:0:
273,205,98818,2,0,P|218:212|174:203,1,89.9999999999999,2|8,0:0|0:0,0:0:0:0:
107,144,99568,1,0,0:0:0:0:
33,210,99943,6,0,L|36:352,2,135,2|2|2,0:0|0:0|0:0,0:0:0:0:
26,111,101443,2,0,P|62:68|97:54,1,89.9999999999999,0|2,0:0|0:0,0:0:0:0:
182,96,102193,2,0,L|283:88,1,89.9999999999999,8|0,0:0|0:0,0:0:0:0:
349,150,102943,6,0,B|399:135|399:135|495:146,2,135,2|2|2,0:0|0:0|0:0,0:0:0:0:
297,234,104443,1,0,0:0:0:0:
343,321,104818,2,0,P|398:328|442:319,1,89.9999999999999,2|8,0:0|0:0,0:0:0:0:
484,238,105568,1,0,0:0:0:0:
422,160,105943,6,0,L|431:19,2,135,2|2|2,0:0|0:0|0:0,0:0:0:0:
347,225,107443,2,0,L|257:218,1,89.9999999999999,0|2,0:0|0:0,0:0:0:0:
169,265,108193,1,8,0:0:0:0:
318,135,108943,6,0,B|339:67|339:67|322:-11,2,135,2|2|2,0:0|0:0|0:0,0:0:0:0:
223,163,110443,1,0,0:0:0:0:
242,260,110818,2,0,P|286:266|330:257,1,89.9999999999999,2|8,0:0|0:0,0:0:0:0:
397,184,111568,1,0,0:0:0:0:
486,226,111943,6,0,L|483:368,2,135,2|2|2,0:0|0:0|0:0,0:0:0:0:
470,127,113443,2,0,P|426:91|383:88,1,89.9999999999999,0|2,0:0|0:0,0:0:0:0:
307,135,114193,2,0,L|213:127,1,89.9999999999999,8|0,0:0|0:0,0:0:0:0:
147,198,114943,6,0,B|97:183|97:183|1:194,2,135,2|2|2,0:0|0:0|0:0,0:0:0:0:
218,266,116443,1,0,0:0:0:0:
289,197,116818,2,0,P|298:152|286:100,1,89.9999999999999,2|8,0:0|0:0,0:0:0:0:
211,49,117568,1,0,0:0:0:0:
303,14,117943,6,0,L|445:17,2,135,2|2|2,0:0|0:0|0:0,0:0:0:0:
211,49,119443,1,0,0:0:0:0:
178,144,119818,1,2,0:0:0:0:
223,231,120193,1,8,0:0:0:0:
