osu file format v14

[General]
AudioFilename: audio.mp3
AudioLeadIn: 0
PreviewTime: 57884
Countdown: 0
SampleSet: Normal
StackLeniency: 0
Mode: 1
LetterboxInBreaks: 0
WidescreenStoryboard: 1

[Editor]
Bookmarks: 36284,79484,89084,110684,144284
DistanceSpacing: 1.5
BeatDivisor: 8
GridSize: 32
TimelineZoom: 1.9

[Metadata]
Title:sun and spirit
TitleUnicode:太陽と魂
Artist:Ikitama
ArtistUnicode:Ikitama
Creator:Alchyr
Version:oni
Source:
Tags:electronica electronic japanese 黄菊 しーく si_ku.k きくお kikuo Sanmai no syasin wo mita hi niha
BeatmapID:2954454
BeatmapSetID:1413087

[Difficulty]
HPDrainRate:5.5
CircleSize:4.4
OverallDifficulty:4.4
ApproachRate:4.4
SliderMultiplier:1.4
SliderTickRate:1

[Events]
//Background and Video events
0,0,"bg.jpg",0,0
//Break Periods
//Storyboard Layer 0 (Background)
//Storyboard Layer 1 (Fail)
//Storyboard Layer 2 (Pass)
//Storyboard Layer 3 (Foreground)
//Storyboard Layer 4 (Overlay)
//Storyboard Sound Samples

[TimingPoints]
284,600,4,1,0,5,1,8
284,-222.222222222222,4,1,0,5,0,0
2834,-200,4,1,0,8,0,0
4784,-222.222222222222,4,1,0,11,0,0
5196,-200,4,1,0,15,0,0
5534,-200,4,1,0,17,0,0
5834,-200,4,1,0,19,0,0
6134,-200,4,1,0,22,0,0
6434,-200,4,1,0,24,0,0
7409,-100,4,1,0,30,0,0
7484,-133.333333333333,4,1,0,30,0,0
9884,-80,4,1,0,30,0,0
12284,-120.481927710843,4,1,0,30,0,0
14684,-150.15015015015,4,1,0,30,0,0
17084,-142.857142857143,4,1,0,30,0,0
17234,-133.333333333333,4,1,0,30,0,0
19484,-142.857142857143,4,1,0,30,0,0
19634,-133.333333333333,4,1,0,30,0,0
21884,-142.857142857143,4,1,0,30,0,0
22034,-133.333333333333,4,1,0,30,0,0
24284,-142.857142857143,4,1,0,30,0,0
24434,-133.333333333333,4,1,0,30,0,0
26684,-120.481927710843,4,1,0,30,0,0
29084,-133.333333333333,4,1,0,30,0,0
31484,-200,4,1,0,30,0,0
32684,-166.666666666667,4,1,0,30,0,0
33884,-200,4,1,0,30,0,0
35009,-150.01500150015,4,1,0,15,0,0
36209,-120.481927710843,4,1,0,30,0,0
37934,-120.481927710843,4,1,0,20,0,0
38534,-120.481927710843,4,1,0,30,0,0
42734,-120.481927710843,4,1,0,15,0,0
43334,-120.481927710843,4,1,0,30,0,0
47534,-120.481927710843,4,1,0,15,0,0
48134,-120.481927710843,4,1,0,30,0,0
52334,-120.481927710843,4,1,0,15,0,0
52934,-120.481927710843,4,1,0,30,0,0
55359,-120.481927710843,4,1,0,15,0,0
55719,-110.714815576272,4,1,0,20,0,0
56019,-101.739494221129,4,1,0,22,0,0
56319,-93.4917755179782,4,1,0,24,0,0
56619,-85.9126748802805,4,1,0,26,0,0
56834,-78.9479894267858,4,1,0,28,0,0
57134,-72.5479103428834,4,1,0,30,0,0
57434,-66.6666666666667,4,1,0,32,0,0
57734,-66.6666666666667,4,1,0,35,0,0
57884,-60.0024000960038,4,1,0,35,0,1
74684,-60.0024000960038,4,1,0,35,0,0
74834,-64.9350649350649,4,1,0,20,0,0
74984,-64.7638206646622,4,1,0,20,0,0
75584,-75.4501555649985,4,1,0,20,0,0
75884,-81.4374147753111,4,1,0,20,0,0
76484,-100,4,1,0,12,0,0
76634,-98.5674624516871,4,1,0,12,0,0
77000,-110.529787386417,4,1,0,20,0,0
77234,-117.485481731595,4,1,0,15,0,0
77384,-119.300749919067,4,1,0,15,0,0
77534,-123.943881640199,4,1,0,15,0,0
77684,-128.767721967055,4,1,0,15,0,0
77834,-133.079772007735,4,1,0,13,0,0
77984,-138.985934554755,4,1,0,13,0,0
78284,-150.01500150015,4,1,0,13,0,0
78584,-125,4,1,0,25,0,0
78809,-120.481927710843,4,1,0,25,0,0
79034,-177.174282798503,4,1,0,15,0,0
79484,-133.333333333333,4,1,0,25,0,0
84134,-150.15015015015,4,1,0,20,0,0
88934,-120.481927710843,4,1,0,25,0,0
98534,-100,4,1,0,25,0,0
101084,-111.111111111111,4,1,0,25,0,0
103484,-150.15015015015,4,1,0,25,0,0
104684,-133.333333333333,4,1,0,25,0,0
105884,-150.15015015015,4,1,0,25,0,0
106934,-120.481927710843,4,1,0,15,0,0
108284,-100,4,1,0,15,0,0
108434,-93.8147396804359,4,1,0,20,0,0
108734,-88.0120538130796,4,1,0,22,0,0
109034,-82.5682791721458,4,1,0,24,0,0
109334,-77.4612161639642,4,1,0,26,0,0
109634,-72.6700382975227,4,1,0,28,0,0
109934,-68.175207254494,4,1,0,30,0,0
110234,-63.9583932124013,4,1,0,32,0,0
110609,-60.0024000960038,4,1,0,35,0,0
110684,-60.0024000960038,4,1,0,35,0,1
125346,-60.0024000960038,4,1,0,33,0,1
125459,-60.0024000960038,4,1,0,31,0,1
125609,-60.0024000960038,4,1,0,30,0,1
125909,-60.0024000960038,4,1,0,26,0,1
126059,-60.0024000960038,4,1,0,25,0,1
126209,-60.0024000960038,4,1,0,24,0,1
126509,-60.0024000960038,4,1,0,21,0,1
126659,-60.0024000960038,4,1,0,20,0,1
126809,-60.0024000960038,4,1,0,19,0,1
127146,-60.0024000960038,4,1,0,22,0,1
127221,-60.0024000960038,4,1,0,24,0,1
127296,-60.0024000960038,4,1,0,26,0,1
127371,-60.0024000960038,4,1,0,28,0,1
127446,-60.0024000960038,4,1,0,30,0,1
127484,-60.0024000960038,4,1,0,30,0,0
127559,-60.0024000960038,4,1,0,5,0,0
128009,-50,4,1,0,40,0,0
128084,-50,4,1,0,40,0,1
128234,-60.0024000960038,4,1,0,35,0,1
142859,-60.0024000960038,4,1,0,32,0,1
143009,-60.0024000960038,4,1,0,30,0,1
143196,-60.0024000960038,4,1,0,26,0,1
143271,-60.0024000960038,4,1,0,23,0,1
143459,-60.0024000960038,4,1,0,20,0,1
143609,-60.0024000960038,4,1,0,17,0,1
143834,-60.0024000960038,4,1,0,14,0,1
143984,-60.0024000960038,4,1,0,12,0,1
144134,-60.0024000960038,4,1,0,10,0,1
144246,-60.0024000960038,4,1,0,25,0,1
144284,-60.0024000960038,4,1,0,25,0,0
144959,-64.9350649350649,4,1,0,25,0,0
146684,-66.6666666666667,4,1,0,20,0,0
147696,-69.4500651498184,4,1,0,20,0,0
147884,-69.6938403727501,4,1,0,20,0,0
148109,-69.9964209682071,4,1,0,20,0,0
149084,-71.444368618879,4,1,0,20,0,0
151484,-76.0040374038732,4,1,0,20,0,0
152855,-79.3239592895879,4,1,0,20,0,0
153321,-80.5885875942771,4,1,0,20,0,0
153884,-82.2177934315892,4,1,0,20,0,0
156284,-90.6214367938258,4,1,0,20,0,0
158684,-102.168395969159,4,1,0,19,0,0
159284,-102.168395969159,4,1,0,18,0,0
159884,-102.168395969159,4,1,0,17,0,0
160484,-102.168395969159,4,1,0,16,0,0
161084,-118.598214778208,4,1,0,15,0,0
161684,-118.598214778208,4,1,0,14,0,0
162284,-118.598214778208,4,1,0,13,0,0
162884,-118.598214778208,4,1,0,12,0,0
163484,-143.364335512956,4,1,0,11,0,0
164084,-143.364335512956,4,1,0,10,0,0
164684,-143.364335512956,4,1,0,9,0,0
165284,-143.364335512956,4,1,0,8,0,0
165884,-184.348503305379,4,1,0,7,0,0
166484,-184.348503305379,4,1,0,6,0,0
167084,-184.348503305379,4,1,0,5,0,0
168284,-264.197257370869,4,1,0,5,0,0

[HitObjects]
320,64,2984,5,8,0:0:0:0:
320,64,3284,1,8,0:0:0:0:
320,64,3584,1,8,0:0:0:0:
64,64,3884,1,0,0:0:0:0:
320,64,5384,1,8,0:0:0:0:
320,64,5684,1,8,0:0:0:0:
64,64,5984,1,0,0:0:0:0:
64,64,6284,1,0,0:0:0:0:
64,64,6584,1,0,0:0:0:0:
64,64,7484,1,0,0:0:0:0:
320,64,9884,1,8,0:0:0:0:
64,64,12284,1,0,0:0:0:0:
64,64,14684,1,0,0:0:0:0:
320,64,17384,1,8,0:0:0:0:
320,64,17684,1,8,0:0:0:0:
320,64,17984,1,8,0:0:0:0:
64,64,18284,1,0,0:0:0:0:
320,64,18584,1,8,0:0:0:0:
320,64,19784,1,8,0:0:0:0:
320,64,20084,1,8,0:0:0:0:
64,64,20384,1,0,0:0:0:0:
64,64,20684,1,0,0:0:0:0:
0,0,20984,1,8,0:0:0:0:
320,64,22184,1,8,0:0:0:0:
320,64,22484,1,8,0:0:0:0:
320,64,22784,1,8,0:0:0:0:
64,64,23084,1,0,0:0:0:0:
320,64,23384,1,8,0:0:0:0:
320,64,24584,1,8,0:0:0:0:
320,64,24884,1,8,0:0:0:0:
64,64,25184,1,0,0:0:0:0:
64,64,25484,1,0,0:0:0:0:
0,0,25784,1,8,0:0:0:0:
0,0,26684,1,8,0:0:0:0:
64,64,29084,1,0,0:0:0:0:
64,64,32684,1,0,0:0:0:0:
64,64,33884,1,0,0:0:0:0:
320,64,35084,1,8,0:0:0:0:
64,64,36284,1,0,0:0:0:0:
320,64,36584,1,8,0:0:0:0:
64,64,37184,1,0,0:0:0:0:
320,64,37484,1,8,0:0:0:0:
320,64,38084,1,8,0:0:0:0:
0,0,38234,1,8,0:0:0:0:
0,0,38384,1,8,0:0:0:0:
64,64,38684,1,0,0:0:0:0:
320,64,38984,1,8,0:0:0:0:
64,64,39584,1,0,0:0:0:0:
64,64,39884,1,0,0:0:0:0:
320,64,40484,1,8,0:0:0:0:
0,0,40684,1,8,0:0:0:0:
0,0,40884,1,8,0:0:0:0:
64,64,41084,1,0,0:0:0:0:
0,0,41684,1,0,0:0:0:0:
320,64,42284,1,8,0:0:0:0:
64,64,42884,1,0,0:0:0:0:
64,64,43184,1,0,0:0:0:0:
320,64,43484,1,8,0:0:0:0:
320,64,43784,1,8,0:0:0:0:
64,64,44384,1,0,0:0:0:0:
320,64,44684,1,8,0:0:0:0:
320,64,45284,1,8,0:0:0:0:
0,0,45484,1,8,0:0:0:0:
0,0,45684,1,8,0:0:0:0:
64,64,45884,1,0,0:0:0:0:
320,64,46484,1,8,0:0:0:0:
64,64,47084,1,0,0:0:0:0:
64,64,47684,1,0,0:0:0:0:
320,64,47984,1,8,0:0:0:0:
64,64,48284,1,0,0:0:0:0:
320,64,48884,1,8,0:0:0:0:
64,64,49484,1,0,0:0:0:0:
320,64,49934,1,8,0:0:0:0:
320,64,50084,1,8,0:0:0:0:
64,64,50684,1,0,0:0:0:0:
0,0,51284,1,0,0:0:0:0:
320,64,51884,1,8,0:0:0:0:
64,64,52484,1,0,0:0:0:0:
0,0,52784,1,8,0:0:0:0:
64,64,53084,1,0,0:0:0:0:
64,64,53984,1,0,0:0:0:0:
320,64,54284,1,8,0:0:0:0:
320,64,54734,1,8,0:0:0:0:
64,64,55034,1,0,0:0:0:0:
320,64,55184,1,8,0:0:0:0:
64,64,55484,1,0,0:0:0:0:
320,64,55784,1,8,0:0:0:0:
320,64,56084,1,8,0:0:0:0:
320,64,56384,1,8,0:0:0:0:
320,64,56684,1,8,0:0:0:0:
64,64,56984,1,0,0:0:0:0:
320,64,57284,1,8,0:0:0:0:
320,64,57584,1,8,0:0:0:0:
64,64,57884,1,0,0:0:0:0:
64,64,57959,1,0,0:0:0:0:
320,64,58034,1,8,0:0:0:0:
64,64,58184,1,0,0:0:0:0:
64,64,58334,1,0,0:0:0:0:
320,64,58484,1,8,0:0:0:0:
320,64,58634,1,8,0:0:0:0:
64,64,58784,1,0,0:0:0:0:
320,64,59009,1,8,0:0:0:0:
320,64,59284,1,8,0:0:0:0:
320,64,59484,1,8,0:0:0:0:
0,0,59684,1,0,0:0:0:0:
320,64,59834,1,8,0:0:0:0:
320,64,59909,1,8,0:0:0:0:
64,64,59984,1,0,0:0:0:0:
320,64,60284,1,8,0:0:0:0:
320,64,60359,1,8,0:0:0:0:
64,64,60434,1,0,0:0:0:0:
64,64,60509,1,0,0:0:0:0:
320,64,60584,1,8,0:0:0:0:
64,64,60734,1,0,0:0:0:0:
320,64,60884,1,8,0:0:0:0:
64,64,61084,1,0,0:0:0:0:
64,64,61284,1,0,0:0:0:0:
320,64,61484,1,8,0:0:0:0:
320,64,61709,1,8,0:0:0:0:
320,64,61934,1,8,0:0:0:0:
64,64,62084,1,0,0:0:0:0:
0,0,62234,1,8,0:0:0:0:
0,0,62309,1,8,0:0:0:0:
64,64,62384,1,0,0:0:0:0:
64,64,62684,1,0,0:0:0:0:
0,0,62759,1,0,0:0:0:0:
0,0,62834,1,8,0:0:0:0:
320,64,62909,1,8,0:0:0:0:
0,0,62984,1,0,0:0:0:0:
0,0,63134,1,0,0:0:0:0:
320,64,63284,1,8,0:0:0:0:
64,64,63484,1,0,0:0:0:0:
320,64,63684,1,0,0:0:0:0:
320,64,63921,1,8,0:0:0:0:
0,0,64184,1,8,0:0:0:0:
64,64,64334,1,0,0:0:0:0:
0,0,64484,1,8,0:0:0:0:
0,0,64634,1,8,0:0:0:0:
320,64,64709,1,8,0:0:0:0:
0,0,64784,1,0,0:0:0:0:
0,0,65084,1,0,0:0:0:0:
60,65,65159,1,0,0:0:0:0:
0,0,65234,1,8,0:0:0:0:
320,64,65309,1,8,0:0:0:0:
64,64,65384,1,0,0:0:0:0:
0,0,65534,1,0,0:0:0:0:
320,64,65734,1,8,0:0:0:0:
320,64,65934,1,8,0:0:0:0:
320,64,66134,1,8,0:0:0:0:
64,64,66359,1,0,0:0:0:0:
64,64,66584,1,0,0:0:0:0:
0,0,66734,1,8,0:0:0:0:
64,64,66884,1,0,0:0:0:0:
64,64,67034,1,0,0:0:0:0:
64,64,67109,1,0,0:0:0:0:
320,96,67184,1,8,0:0:0:0:
0,0,67484,1,0,0:0:0:0:
0,0,67559,1,0,0:0:0:0:
0,0,67634,1,8,0:0:0:0:
0,0,67709,1,8,0:0:0:0:
0,0,67784,1,0,0:0:0:0:
0,0,67984,1,8,0:0:0:0:
0,0,68184,1,8,0:0:0:0:
0,0,68384,1,0,0:0:0:0:
0,0,68584,1,0,0:0:0:0:
320,64,68884,1,8,0:0:0:0:
320,64,69084,1,8,0:0:0:0:
64,64,69284,1,0,0:0:0:0:
320,64,69434,1,8,0:0:0:0:
320,64,69509,1,8,0:0:0:0:
64,64,69584,1,0,0:0:0:0:
320,64,69734,1,8,0:0:0:0:
0,0,69884,1,0,0:0:0:0:
0,0,69959,1,0,0:0:0:0:
0,0,70034,1,8,0:0:0:0:
0,0,70109,1,8,0:0:0:0:
0,0,70184,1,0,0:0:0:0:
0,0,70334,1,0,0:0:0:0:
320,64,70484,1,8,0:0:0:0:
64,64,70634,1,8,0:0:0:0:
320,64,70784,1,0,0:0:0:0:
320,64,71084,1,8,0:0:0:0:
0,0,71309,1,0,0:0:0:0:
0,0,71534,1,0,0:0:0:0:
0,0,71684,1,8,0:0:0:0:
0,0,71834,1,0,0:0:0:0:
0,0,71909,1,0,0:0:0:0:
0,0,71984,1,8,0:0:0:0:
320,64,72134,1,8,0:0:0:0:
64,64,72284,1,0,0:0:0:0:
0,0,72359,1,0,0:0:0:0:
0,0,72434,1,0,0:0:0:0:
0,0,72509,1,0,0:0:0:0:
0,0,72584,1,8,0:0:0:0:
320,64,72734,1,8,0:0:0:0:
0,0,72884,1,0,0:0:0:0:
64,64,73034,1,0,0:0:0:0:
320,64,73259,1,8,0:0:0:0:
64,64,73484,1,0,0:0:0:0:
64,64,73784,1,0,0:0:0:0:
320,64,73934,1,8,0:0:0:0:
0,0,74084,1,0,0:0:0:0:
64,64,74234,1,0,0:0:0:0:
320,64,74384,1,8,0:0:0:0:
0,0,74459,1,8,0:0:0:0:
0,0,74534,1,8,0:0:0:0:
0,0,74609,1,8,0:0:0:0:
0,0,74684,1,0,0:0:0:0:
320,64,74984,1,8,0:0:0:0:
64,64,75584,1,0,0:0:0:0:
320,64,75884,1,8,0:0:0:0:
320,64,76634,1,8,0:0:0:0:
64,64,77084,1,0,0:0:0:0:
320,64,77384,1,8,0:0:0:0:
64,64,77534,1,0,0:0:0:0:
64,64,77684,1,0,0:0:0:0:
64,64,77984,1,0,0:0:0:0:
320,64,78284,1,8,0:0:0:0:
64,64,78734,1,0,0:0:0:0:
320,64,78884,1,8,0:0:0:0:
64,64,79484,1,0,0:0:0:0:
320,64,79784,1,8,0:0:0:0:
320,64,80084,1,8,0:0:0:0:
0,0,80384,1,8,0:0:0:0:
64,64,80684,1,0,0:0:0:0:
64,64,80984,1,0,0:0:0:0:
320,64,81284,1,8,0:0:0:0:
320,64,81584,1,8,0:0:0:0:
64,64,81884,1,0,0:0:0:0:
320,64,82184,1,8,0:0:0:0:
320,64,82484,1,8,0:0:0:0:
0,0,82784,1,8,0:0:0:0:
64,64,83084,1,0,0:0:0:0:
64,64,84284,1,0,0:0:0:0:
320,64,84584,1,8,0:0:0:0:
320,64,84884,1,8,0:0:0:0:
320,64,85184,1,8,0:0:0:0:
64,64,85484,1,0,0:0:0:0:
320,64,86084,1,8,0:0:0:0:
320,64,86384,1,8,0:0:0:0:
64,64,86684,1,0,0:0:0:0:
320,64,86984,1,8,0:0:0:0:
320,64,87284,1,8,0:0:0:0:
64,64,87584,1,0,0:0:0:0:
64,64,87884,1,0,0:0:0:0:
64,64,89084,1,0,0:0:0:0:
320,64,89984,1,8,0:0:0:0:
64,64,90284,1,0,0:0:0:0:
320,64,90884,1,8,0:0:0:0:
64,64,91484,1,0,0:0:0:0:
320,64,92384,1,8,0:0:0:0:
64,64,92684,1,0,0:0:0:0:
64,64,93884,1,0,0:0:0:0:
320,64,94484,1,8,0:0:0:0:
64,64,95084,1,0,0:0:0:0:
320,64,95684,1,8,0:0:0:0:
320,64,96284,1,8,0:0:0:0:
320,64,96884,1,8,0:0:0:0:
64,64,97184,1,0,0:0:0:0:
320,64,97484,1,8,0:0:0:0:
64,64,98684,1,8,0:0:0:0:
320,64,101084,1,0,0:0:0:0:
64,64,104684,1,0,0:0:0:0:
64,64,105884,1,0,0:0:0:0:
320,64,107084,1,8,0:0:0:0:
64,64,108284,1,0,0:0:0:0:
320,64,108584,1,8,0:0:0:0:
320,64,108884,1,8,0:0:0:0:
320,64,109184,1,8,0:0:0:0:
320,64,109484,1,8,0:0:0:0:
64,64,109784,1,0,0:0:0:0:
320,64,110084,1,8,0:0:0:0:
320,64,110384,1,8,0:0:0:0:
64,64,110684,1,0,0:0:0:0:
0,0,110759,1,0,0:0:0:0:
320,64,110834,1,8,0:0:0:0:
320,64,110909,1,8,0:0:0:0:
64,64,110984,1,0,0:0:0:0:
64,64,111134,1,0,0:0:0:0:
320,64,111284,1,8,0:0:0:0:
320,64,111434,1,8,0:0:0:0:
64,64,111584,1,0,0:0:0:0:
320,64,111809,1,8,0:0:0:0:
320,64,112034,1,8,0:0:0:0:
64,64,112259,1,0,0:0:0:0:
0,0,112484,1,8,0:0:0:0:
320,64,112634,1,8,0:0:0:0:
0,0,112709,1,8,0:0:0:0:
64,64,112784,1,0,0:0:0:0:
0,0,113084,1,0,0:0:0:0:
64,64,113159,1,0,0:0:0:0:
320,64,113234,1,8,0:0:0:0:
320,64,113309,1,8,0:0:0:0:
64,64,113384,1,0,0:0:0:0:
320,64,113534,1,8,0:0:0:0:
64,64,113684,1,0,0:0:0:0:
64,64,113834,1,0,0:0:0:0:
320,64,113984,1,8,0:0:0:0:
320,64,114284,1,8,0:0:0:0:
64,64,114509,1,0,0:0:0:0:
320,64,114734,1,8,0:0:0:0:
64,64,114884,1,0,0:0:0:0:
320,64,115034,1,8,0:0:0:0:
320,64,115109,1,8,0:0:0:0:
64,64,115184,1,0,0:0:0:0:
0,0,115484,1,0,0:0:0:0:
64,64,115559,1,0,0:0:0:0:
64,64,115634,1,0,0:0:0:0:
64,64,115709,1,0,0:0:0:0:
320,64,115784,1,8,0:0:0:0:
64,64,115934,1,0,0:0:0:0:
64,64,116084,1,0,0:0:0:0:
320,64,116284,1,8,0:0:0:0:
320,64,116484,1,8,0:0:0:0:
320,64,116759,1,8,0:0:0:0:
320,64,116984,1,8,0:0:0:0:
0,0,117184,1,0,0:0:0:0:
320,64,117434,1,8,0:0:0:0:
320,64,117509,1,8,0:0:0:0:
64,64,117584,1,0,0:0:0:0:
64,64,117884,1,0,0:0:0:0:
0,0,117959,1,0,0:0:0:0:
0,0,118034,1,8,0:0:0:0:
0,0,118109,1,8,0:0:0:0:
0,0,118184,1,0,0:0:0:0:
0,0,118334,1,0,0:0:0:0:
0,0,118484,1,8,0:0:0:0:
320,64,118724,1,8,0:0:0:0:
320,64,118964,1,8,0:0:0:0:
64,64,119204,1,0,0:0:0:0:
64,64,119444,1,0,0:0:0:0:
64,64,119684,1,0,0:0:0:0:
320,64,119834,1,8,0:0:0:0:
0,0,119909,1,8,0:0:0:0:
64,64,119984,1,0,0:0:0:0:
64,64,120284,1,0,0:0:0:0:
0,0,120359,1,0,0:0:0:0:
0,0,120434,1,8,0:0:0:0:
0,0,120509,1,8,0:0:0:0:
0,0,120584,1,0,0:0:0:0:
320,64,120809,1,8,0:0:0:0:
320,64,120984,1,8,0:0:0:0:
64,64,121184,1,0,0:0:0:0:
64,64,121409,1,0,0:0:0:0:
64,64,121634,1,0,0:0:0:0:
320,64,121859,1,8,0:0:0:0:
320,64,122084,1,8,0:0:0:0:
64,64,122234,1,0,0:0:0:0:
64,64,122309,1,0,0:0:0:0:
320,64,122384,1,8,0:0:0:0:
64,64,122534,1,0,0:0:0:0:
320,64,122684,1,8,0:0:0:0:
320,64,122759,1,8,0:0:0:0:
64,64,122834,1,0,0:0:0:0:
64,64,122909,1,0,0:0:0:0:
320,64,122984,1,8,0:0:0:0:
320,64,123134,1,8,0:0:0:0:
64,64,123284,1,0,0:0:0:0:
320,64,123434,1,8,0:0:0:0:
0,0,123584,1,0,0:0:0:0:
320,64,123884,1,8,0:0:0:0:
64,64,124109,1,0,0:0:0:0:
320,64,124334,1,0,0:0:0:0:
0,0,124484,1,8,0:0:0:0:
0,0,124634,1,0,0:0:0:0:
0,0,124709,1,0,0:0:0:0:
0,0,124784,1,8,0:0:0:0:
0,0,125084,1,8,0:0:0:0:
0,0,125159,1,8,0:0:0:0:
0,0,125234,1,0,0:0:0:0:
0,0,125309,1,0,0:0:0:0:
0,0,125384,1,8,0:0:0:0:
320,64,125534,1,8,0:0:0:0:
64,64,125684,1,0,0:0:0:0:
64,64,125984,1,0,0:0:0:0:
320,64,126134,1,8,0:0:0:0:
64,64,126284,1,0,0:0:0:0:
64,64,126584,1,0,0:0:0:0:
320,64,126734,1,8,0:0:0:0:
64,64,126884,1,0,0:0:0:0:
320,64,127184,1,8,0:0:0:0:
0,0,127259,1,0,0:0:0:0:
0,0,127334,1,8,0:0:0:0:
0,0,127409,1,8,0:0:0:0:
0,0,127484,1,0,0:0:0:0:
320,64,128084,1,12,0:0:0:0:
64,64,128384,1,0,0:0:0:0:
0,0,128459,1,0,0:0:0:0:
320,64,128534,1,8,0:0:0:0:
64,64,128684,1,0,0:0:0:0:
0,0,128834,1,0,0:0:0:0:
0,0,128984,1,0,0:0:0:0:
0,0,129209,1,8,0:0:0:0:
320,64,129434,1,8,0:0:0:0:
320,64,129659,1,8,0:0:0:0:
64,64,129884,1,0,0:0:0:0:
0,0,130034,1,8,0:0:0:0:
0,0,130109,1,8,0:0:0:0:
0,0,130184,1,0,0:0:0:0:
0,0,130334,1,0,0:0:0:0:
320,64,130484,1,8,0:0:0:0:
320,64,130559,1,8,0:0:0:0:
0,0,130634,1,8,0:0:0:0:
320,64,130709,1,8,0:0:0:0:
64,64,130784,1,0,0:0:0:0:
0,0,130934,1,0,0:0:0:0:
0,0,131084,1,8,0:0:0:0:
0,0,131284,1,8,0:0:0:0:
0,0,131484,1,8,0:0:0:0:
64,64,131684,1,0,0:0:0:0:
320,64,131909,1,0,0:0:0:0:
320,64,132134,1,0,0:0:0:0:
64,64,132284,1,8,0:0:0:0:
64,64,132434,1,0,0:0:0:0:
64,64,132509,1,0,0:0:0:0:
320,64,132584,1,8,0:0:0:0:
320,64,132884,1,8,0:0:0:0:
320,64,132959,1,8,0:0:0:0:
64,64,133034,1,0,0:0:0:0:
64,64,133109,1,0,0:0:0:0:
320,64,133184,1,8,0:0:0:0:
64,64,133334,1,0,0:0:0:0:
64,64,133484,1,8,0:0:0:0:
320,64,133709,1,8,0:0:0:0:
320,64,133934,1,8,0:0:0:0:
64,64,134159,1,0,0:0:0:0:
64,64,134384,1,0,0:0:0:0:
320,64,134609,1,8,0:0:0:0:
64,64,134759,1,0,0:0:0:0:
0,0,134909,1,8,0:0:0:0:
0,0,134984,1,8,0:0:0:0:
0,0,135059,1,0,0:0:0:0:
320,64,135284,1,8,0:0:0:0:
0,0,135359,1,8,0:0:0:0:
0,0,135434,1,0,0:0:0:0:
64,64,135509,1,0,0:0:0:0:
0,0,135584,1,8,0:0:0:0:
64,64,135734,1,0,0:0:0:0:
320,64,135934,1,8,0:0:0:0:
0,0,136134,1,8,0:0:0:0:
0,0,136334,1,8,0:0:0:0:
64,64,136484,1,0,0:0:0:0:
0,0,136859,1,0,0:0:0:0:
64,64,137034,1,0,0:0:0:0:
320,64,137234,1,8,0:0:0:0:
320,64,137309,1,8,0:0:0:0:
64,64,137384,1,0,0:0:0:0:
0,0,137534,1,0,0:0:0:0:
0,0,137684,1,8,0:0:0:0:
0,0,137759,1,8,0:0:0:0:
320,64,137834,1,8,0:0:0:0:
320,64,137909,1,8,0:0:0:0:
64,64,137984,1,0,0:0:0:0:
320,64,138134,1,0,0:0:0:0:
320,64,138284,1,8,0:0:0:0:
0,0,138434,1,8,0:0:0:0:
0,0,138584,1,8,0:0:0:0:
64,64,138884,1,0,0:0:0:0:
64,64,139084,1,0,0:0:0:0:
64,64,139284,1,0,0:0:0:0:
320,64,139484,1,8,0:0:0:0:
64,64,139634,1,0,0:0:0:0:
64,64,139709,1,0,0:0:0:0:
320,64,139784,1,8,0:0:0:0:
0,0,139934,1,0,0:0:0:0:
0,0,140009,1,0,0:0:0:0:
0,0,140084,1,8,0:0:0:0:
0,0,140159,1,8,0:0:0:0:
0,0,140234,1,0,0:0:0:0:
0,0,140384,1,0,0:0:0:0:
64,64,140534,1,0,0:0:0:0:
0,0,140684,1,8,0:0:0:0:
0,0,140884,1,8,0:0:0:0:
320,64,141084,1,8,0:0:0:0:
64,64,141284,1,0,0:0:0:0:
320,64,141584,1,8,0:0:0:0:
320,64,141734,1,8,0:0:0:0:
64,64,141884,1,0,0:0:0:0:
320,64,142034,1,8,0:0:0:0:
320,64,142109,1,8,0:0:0:0:
64,64,142184,1,0,0:0:0:0:
320,64,142334,1,8,0:0:0:0:
64,64,142484,1,0,0:0:0:0:
64,64,142559,1,0,0:0:0:0:
320,64,142634,1,8,0:0:0:0:
320,64,142709,1,8,0:0:0:0:
64,64,142784,1,0,0:0:0:0:
320,64,142934,1,8,0:0:0:0:
64,64,143084,1,0,0:0:0:0:
0,0,143284,1,8,0:0:0:0:
0,0,143484,1,0,0:0:0:0:
0,0,143684,1,8,0:0:0:0:
0,0,143884,1,0,0:0:0:0:
320,64,144084,1,8,0:0:0:0:
64,64,144284,1,0,0:0:0:0:
64,64,144959,1,0,0:0:0:0:
320,64,146684,1,8,0:0:0:0:
64,64,147696,1,0,0:0:0:0:
320,64,147884,1,8,0:0:0:0:
64,64,148109,1,0,0:0:0:0:
64,64,149084,1,0,0:0:0:0:
320,64,151484,1,8,0:0:0:0:
320,64,152855,1,8,0:0:0:0:
320,64,153321,1,8,0:0:0:0:
64,64,153884,1,0,0:0:0:0:
320,64,156284,1,8,0:0:0:0:
64,64,158684,1,0,0:0:0:0:
