osu file format v14

[General]
AudioFilename: audio.mp3
AudioLeadIn: 0
PreviewTime: 57884
Countdown: 0
SampleSet: Normal
StackLeniency: 0
Mode: 1
LetterboxInBreaks: 0
WidescreenStoryboard: 1

[Editor]
Bookmarks: 36284,79484,89084,110684,144284
DistanceSpacing: 1.5
BeatDivisor: 16
GridSize: 32
TimelineZoom: 1.3

[Metadata]
Title:sun and spirit
TitleUnicode:太陽と魂
Artist:Ikitama
ArtistUnicode:Ikitama
Creator:Alchyr
Version:muzukashii
Source:
Tags:electronica electronic japanese 黄菊 しーく si_ku.k きくお kikuo Sanmai no syasin wo mita hi niha
BeatmapID:2954453
BeatmapSetID:1413087

[Difficulty]
HPDrainRate:6.6
CircleSize:2
OverallDifficulty:3.3
ApproachRate:10
SliderMultiplier:1.4
SliderTickRate:1

[Events]
//Background and Video events
0,0,"bg.jpg",0,0
//Break Periods
//Storyboard Layer 0 (Background)
//Storyboard Layer 1 (Fail)
//Storyboard Layer 2 (Pass)
//Storyboard Layer 3 (Foreground)
//Storyboard Layer 4 (Overlay)
//Storyboard Sound Samples

[TimingPoints]
284,600,4,1,0,5,1,8
284,-150.0000015,4,1,0,5,0,0
2834,-133.333333333333,4,1,0,5,0,0
5196,-133.333333333333,4,1,0,7,0,0
5534,-133.333333333333,4,1,0,9,0,0
6134,-133.333333333333,4,1,0,12,0,0
6434,-133.333333333333,4,1,0,14,0,0
7409,-100,4,1,0,30,0,0
9884,-104.166666666667,4,1,0,30,0,0
12284,-108.695652173913,4,1,0,30,0,0
14684,-113.636363636364,4,1,0,30,0,0
17084,-119.047619047619,4,1,0,30,0,0
17234,-100,4,1,0,30,0,0
29084,-105.263157894737,4,1,0,30,0,0
31484,-111.111111111111,4,1,0,30,0,0
32684,-117.647058823529,4,1,0,30,0,0
33884,-125,4,1,0,30,0,0
35009,-133.333333333333,4,1,0,15,0,0
36209,-100,4,1,0,30,0,0
55384,-100,4,1,0,15,0,0
55684,-95.0579824954141,4,1,0,20,0,0
55984,-90.3602003609845,4,1,0,22,0,0
56284,-85.8945834419657,4,1,0,24,0,0
56584,-81.6496580927726,4,1,0,26,0,0
56884,-77.6145176973932,4,1,0,28,0,0
57184,-73.7787946466881,4,1,0,30,0,0
57434,-70.0525243114872,4,1,0,32,0,0
57734,-70.0525243114872,4,1,0,34,0,0
57884,-66.6666666666667,4,1,0,35,0,1
74646,-66.6666666666667,4,1,0,35,0,1
74684,-66.6666666666667,4,1,0,35,0,0
74796,-66.6666666666667,4,1,0,30,0,0
74914,-70.0368338657776,4,1,0,20,0,0
75514,-77.2968921279694,4,1,0,25,0,0
75814,-81.204443884613,4,1,0,15,0,0
77014,-98.9124255991388,4,1,0,25,0,0
77314,-103.91269678422,4,1,0,10,0,0
77464,-106.506839584047,4,1,0,10,0,0
77614,-109.16574421832,4,1,0,10,0,0
77914,-114.684346374787,4,1,0,25,0,0
78214,-120.481927710843,4,1,0,10,0,0
78584,-93.4579439252336,4,1,0,30,0,0
78884,-90.9090909090909,4,1,0,30,0,0
79184,-100,4,1,0,25,0,0
84134,-120.481927710843,4,1,0,20,0,0
88934,-100,4,1,0,25,0,0
98534,-100,4,1,0,30,0,0
101084,-105.263157894737,4,1,0,30,0,0
103484,-111.111111111111,4,1,0,30,0,0
104684,-117.647058823529,4,1,0,30,0,0
105884,-125,4,1,0,30,0,0
106934,-133.333333333333,4,1,0,15,0,0
108284,-120.481927710843,4,1,0,15,0,0
108434,-111.891027442754,4,1,0,20,0,0
108734,-103.91269678422,4,1,0,22,0,0
109034,-96.5032567825297,4,1,0,24,0,0
109334,-89.6221429896442,4,1,0,26,0,0
109634,-83.2316833840814,4,1,0,28,0,0
109934,-77.2968921279694,4,1,0,30,0,0
110309,-77.2968921279694,4,1,0,33,0,0
110534,-66.6666666666667,4,1,0,35,0,0
110684,-66.6666666666667,4,1,0,35,0,1
125459,-66.6666666666667,4,1,0,33,0,1
125609,-66.6666666666667,4,1,0,31,0,1
125834,-66.6666666666667,4,1,0,28,0,1
126059,-66.6666666666667,4,1,0,27,0,1
126209,-66.6666666666667,4,1,0,26,0,1
126434,-66.6666666666667,4,1,0,23,0,1
126734,-66.6666666666667,4,1,0,20,0,1
127146,-66.6666666666667,4,1,0,22,0,1
127221,-66.6666666666667,4,1,0,24,0,1
127296,-66.6666666666667,4,1,0,26,0,1
127371,-66.6666666666667,4,1,0,28,0,1
127446,-66.6666666666667,4,1,0,30,0,1
127484,-66.6666666666667,4,1,0,30,0,0
127559,-66.6666666666667,4,1,0,5,0,0
128009,-62.5,4,1,0,40,0,0
128084,-62.5,4,1,0,40,0,1
128234,-66.6666666666667,4,1,0,35,0,1
142146,-66.6666666666667,4,1,0,34,0,1
142221,-66.6666666666667,4,1,0,33,0,1
142296,-66.6666666666667,4,1,0,32,0,1
142409,-66.6666666666667,4,1,0,30,0,1
142709,-66.6666666666667,4,1,0,28,0,1
142859,-66.6666666666667,4,1,0,26,0,1
143009,-66.6666666666667,4,1,0,24,0,1
143234,-66.6666666666667,4,1,0,20,0,1
143459,-66.6666666666667,4,1,0,18,0,1
143609,-66.6666666666667,4,1,0,16,0,1
143834,-66.6666666666667,4,1,0,13,0,1
144059,-66.6666666666667,4,1,0,12,0,1
144209,-66.6666666666667,4,1,0,25,0,1
144284,-66.6666666666667,4,1,0,25,0,0
144884,-67.8025264403725,4,1,0,25,0,0
145484,-66.6666666666667,4,1,0,20,0,0
146684,-71.3275462622442,4,1,0,20,0,0
147684,-73.3644800210006,4,1,0,20,0,0
147884,-73.7787946466881,4,1,0,20,0,0
148084,-74.195449050549,4,1,0,20,0,0
149084,-76.3142828368888,4,1,0,20,0,0
151484,-81.6496580927726,4,1,0,20,0,0
152855,-84.8632628726698,4,1,0,20,0,0
153321,-85.9841167735648,4,1,0,20,0,0
153884,-87.3580464736299,4,1,0,20,0,0
156284,-93.4655265184067,4,1,0,20,0,0
158684,-100,4,1,0,20,0,0

[HitObjects]
0,0,2984,5,0,0:0:0:0:
320,64,3284,1,8,0:0:0:0:
64,64,3884,1,0,0:0:0:0:
0,0,4184,1,8,0:0:0:0:
0,0,5384,1,0,0:0:0:0:
320,64,5684,1,8,0:0:0:0:
0,0,5984,1,8,0:0:0:0:
0,0,6284,1,0,0:0:0:0:
0,0,6584,1,0,0:0:0:0:
64,64,7484,1,0,0:0:0:0:
320,64,9884,1,8,0:0:0:0:
64,64,12284,1,0,0:0:0:0:
64,64,14684,1,0,0:0:0:0:
0,0,17384,1,0,0:0:0:0:
320,64,17684,1,8,0:0:0:0:
64,64,18284,1,0,0:0:0:0:
0,0,18584,1,8,0:0:0:0:
0,0,19784,1,0,0:0:0:0:
320,64,20084,1,8,0:0:0:0:
0,0,20384,1,0,0:0:0:0:
0,0,20684,1,0,0:0:0:0:
0,0,20984,1,8,0:0:0:0:
0,0,22184,1,0,0:0:0:0:
320,64,22484,1,8,0:0:0:0:
64,64,23084,1,0,0:0:0:0:
0,0,23384,1,8,0:0:0:0:
0,0,24584,1,0,0:0:0:0:
320,64,24884,1,8,0:0:0:0:
0,0,25184,1,0,0:0:0:0:
64,64,25484,1,0,0:0:0:0:
0,0,25784,1,8,0:0:0:0:
0,0,26684,1,8,0:0:0:0:
64,64,29084,1,0,0:0:0:0:
64,64,32684,1,0,0:0:0:0:
64,64,33884,1,0,0:0:0:0:
320,64,35084,1,8,0:0:0:0:
64,64,36284,1,0,0:0:0:0:
0,0,36584,1,8,0:0:0:0:
64,64,37184,1,0,0:0:0:0:
320,64,37484,1,8,0:0:0:0:
320,64,38084,1,8,0:0:0:0:
0,0,38234,1,8,0:0:0:0:
0,0,38384,1,8,0:0:0:0:
64,64,38684,1,0,0:0:0:0:
0,0,38984,1,8,0:0:0:0:
64,64,39584,1,0,0:0:0:0:
0,0,39884,1,0,0:0:0:0:
0,0,40484,1,8,0:0:0:0:
320,64,40684,1,8,0:0:0:0:
320,64,40884,1,8,0:0:0:0:
64,64,41084,1,0,0:0:0:0:
0,0,41684,1,0,0:0:0:0:
0,0,42284,1,0,0:0:0:0:
320,64,42884,1,8,0:0:0:0:
0,0,43184,1,0,0:0:0:0:
320,64,43484,1,8,0:0:0:0:
64,64,44384,1,0,0:0:0:0:
320,64,44684,1,8,0:0:0:0:
320,64,45284,1,8,0:0:0:0:
320,64,45484,1,8,0:0:0:0:
320,64,45684,1,8,0:0:0:0:
64,64,45884,1,0,0:0:0:0:
320,64,46484,1,8,0:0:0:0:
64,64,47084,1,0,0:0:0:0:
0,0,47984,1,0,0:0:0:0:
320,64,48284,1,8,0:0:0:0:
0,0,48884,1,8,0:0:0:0:
64,64,49484,1,0,0:0:0:0:
320,64,49934,1,8,0:0:0:0:
320,64,50084,1,8,0:0:0:0:
64,64,50684,1,0,0:0:0:0:
0,0,51284,1,0,0:0:0:0:
0,0,51884,1,8,0:0:0:0:
64,64,52484,1,0,0:0:0:0:
0,0,52784,1,0,0:0:0:0:
0,0,53084,1,8,0:0:0:0:
0,0,53984,1,0,0:0:0:0:
320,64,54284,1,8,0:0:0:0:
320,64,54734,1,8,0:0:0:0:
0,0,55184,1,8,0:0:0:0:
64,64,55484,1,0,0:0:0:0:
320,64,55784,1,8,0:0:0:0:
0,0,56084,1,8,0:0:0:0:
0,0,56384,1,8,0:0:0:0:
0,0,56684,1,8,0:0:0:0:
0,0,56984,1,0,0:0:0:0:
0,0,57284,1,8,0:0:0:0:
0,0,57884,1,8,0:0:0:0:
0,0,57959,1,8,0:0:0:0:
0,0,58034,1,8,0:0:0:0:
0,0,58184,1,8,0:0:0:0:
0,0,58484,1,0,0:0:0:0:
64,64,58634,1,0,0:0:0:0:
64,64,58784,1,0,0:0:0:0:
320,64,59084,1,8,0:0:0:0:
320,64,59384,1,8,0:0:0:0:
320,64,59534,1,8,0:0:0:0:
0,0,59684,1,0,0:0:0:0:
0,0,59834,1,0,0:0:0:0:
320,64,59984,1,8,0:0:0:0:
64,64,60284,1,0,0:0:0:0:
64,64,60359,1,0,0:0:0:0:
64,64,60434,1,0,0:0:0:0:
0,0,60734,1,8,0:0:0:0:
0,0,60884,1,8,0:0:0:0:
64,64,61034,1,0,0:0:0:0:
64,64,61184,1,0,0:0:0:0:
320,64,61484,1,8,0:0:0:0:
320,64,61784,1,8,0:0:0:0:
0,0,61934,1,8,0:0:0:0:
0,0,62084,1,8,0:0:0:0:
64,64,62684,1,0,0:0:0:0:
0,0,62759,1,0,0:0:0:0:
64,64,62834,1,0,0:0:0:0:
0,0,62984,1,0,0:0:0:0:
0,0,63284,1,0,0:0:0:0:
0,0,63584,1,8,0:0:0:0:
0,0,63734,1,8,0:0:0:0:
0,0,63884,1,8,0:0:0:0:
0,0,64184,1,8,0:0:0:0:
0,0,64484,1,0,0:0:0:0:
320,64,64784,1,8,0:0:0:0:
64,64,65084,1,0,0:0:0:0:
0,0,65159,1,0,0:0:0:0:
320,64,65234,1,0,0:0:0:0:
0,0,65534,1,0,0:0:0:0:
0,0,65684,1,8,0:0:0:0:
0,0,65834,1,8,0:0:0:0:
64,64,66134,1,0,0:0:0:0:
64,64,66434,1,0,0:0:0:0:
0,0,66584,1,8,0:0:0:0:
0,0,66884,1,0,0:0:0:0:
0,0,66959,1,0,0:0:0:0:
0,0,67034,1,0,0:0:0:0:
0,0,67184,1,8,0:0:0:0:
0,0,67484,1,8,0:0:0:0:
0,0,67559,1,8,0:0:0:0:
0,0,67634,1,8,0:0:0:0:
0,0,67934,1,0,0:0:0:0:
0,0,68084,1,8,0:0:0:0:
0,0,68234,1,8,0:0:0:0:
0,0,68384,1,8,0:0:0:0:
0,0,68684,1,0,0:0:0:0:
64,64,68984,1,0,0:0:0:0:
0,0,69134,1,0,0:0:0:0:
320,64,69284,1,8,0:0:0:0:
64,64,69884,1,0,0:0:0:0:
0,0,69959,1,0,0:0:0:0:
0,0,70034,1,0,0:0:0:0:
0,0,70184,1,0,0:0:0:0:
0,0,70484,1,8,0:0:0:0:
0,0,70634,1,8,0:0:0:0:
64,64,70784,1,0,0:0:0:0:
0,0,71084,1,8,0:0:0:0:
0,0,71384,1,8,0:0:0:0:
64,64,71534,1,0,0:0:0:0:
320,64,71684,1,8,0:0:0:0:
320,64,71984,1,8,0:0:0:0:
320,64,72134,1,8,0:0:0:0:
64,64,72284,1,0,0:0:0:0:
0,0,72359,1,0,0:0:0:0:
64,64,72434,1,0,0:0:0:0:
64,64,72734,1,0,0:0:0:0:
320,64,72884,1,8,0:0:0:0:
320,64,73034,1,8,0:0:0:0:
64,64,73184,1,0,0:0:0:0:
320,64,73484,1,8,0:0:0:0:
320,64,73784,1,8,0:0:0:0:
64,64,74084,1,0,0:0:0:0:
64,64,74234,1,0,0:0:0:0:
320,64,74384,1,8,0:0:0:0:
0,0,74459,1,8,0:0:0:0:
320,64,74534,1,8,0:0:0:0:
64,64,74684,1,0,0:0:0:0:
320,64,74984,1,8,0:0:0:0:
64,64,75584,1,0,0:0:0:0:
320,64,75884,1,8,0:0:0:0:
64,64,77084,1,0,0:0:0:0:
320,64,77384,1,8,0:0:0:0:
320,64,77534,1,8,0:0:0:0:
320,64,77684,1,8,0:0:0:0:
64,64,77984,1,0,0:0:0:0:
320,64,78284,1,8,0:0:0:0:
0,0,78734,1,0,0:0:0:0:
320,64,78884,1,8,0:0:0:0:
64,64,79484,1,0,0:0:0:0:
320,64,79784,1,8,0:0:0:0:
320,64,80084,1,8,0:0:0:0:
320,64,80384,1,8,0:0:0:0:
64,64,80684,1,0,0:0:0:0:
64,64,80984,1,0,0:0:0:0:
320,64,81284,1,8,0:0:0:0:
0,0,81584,1,8,0:0:0:0:
64,64,81884,1,0,0:0:0:0:
320,64,82184,1,8,0:0:0:0:
320,64,82484,1,8,0:0:0:0:
0,0,82784,1,8,0:0:0:0:
64,64,83084,1,0,0:0:0:0:
320,64,84284,1,8,0:0:0:0:
320,64,84584,1,8,0:0:0:0:
320,64,84884,1,8,0:0:0:0:
320,64,85184,1,8,0:0:0:0:
64,64,85484,1,0,0:0:0:0:
64,64,86084,1,0,0:0:0:0:
64,64,86384,1,0,0:0:0:0:
320,64,86684,1,8,0:0:0:0:
320,64,86984,1,8,0:0:0:0:
320,64,87284,1,8,0:0:0:0:
64,64,87584,1,0,0:0:0:0:
64,64,87884,1,0,0:0:0:0:
64,64,89084,1,0,0:0:0:0:
320,64,89984,1,8,0:0:0:0:
64,64,90284,1,0,0:0:0:0:
0,0,90884,1,8,0:0:0:0:
64,64,91484,1,0,0:0:0:0:
320,64,92384,1,8,0:0:0:0:
64,64,92684,1,0,0:0:0:0:
64,64,93884,1,0,0:0:0:0:
64,64,94484,1,0,0:0:0:0:
64,64,95084,1,0,0:0:0:0:
320,64,95684,1,8,0:0:0:0:
320,64,96284,1,8,0:0:0:0:
320,64,96884,1,8,0:0:0:0:
64,64,97184,1,0,0:0:0:0:
320,64,97484,1,8,0:0:0:0:
0,0,98684,1,8,0:0:0:0:
0,0,101084,1,0,0:0:0:0:
64,64,104684,1,0,0:0:0:0:
64,64,105884,1,0,0:0:0:0:
320,64,107084,1,8,0:0:0:0:
64,64,108284,1,0,0:0:0:0:
320,64,108584,1,8,0:0:0:0:
320,64,108884,1,8,0:0:0:0:
320,64,109184,1,8,0:0:0:0:
320,64,109484,1,8,0:0:0:0:
0,0,109784,1,0,0:0:0:0:
320,64,110084,1,8,0:0:0:0:
0,0,110684,1,8,0:0:0:0:
0,0,110759,1,8,0:0:0:0:
0,0,110834,1,8,0:0:0:0:
0,0,110984,1,0,0:0:0:0:
0,0,111284,1,0,0:0:0:0:
0,0,111434,1,8,0:0:0:0:
64,64,111584,1,0,0:0:0:0:
320,64,111884,1,8,0:0:0:0:
320,64,112184,1,8,0:0:0:0:
0,0,112334,1,8,0:0:0:0:
0,0,112484,1,8,0:0:0:0:
64,64,112784,1,0,0:0:0:0:
64,64,113084,1,0,0:0:0:0:
0,0,113159,1,0,0:0:0:0:
64,64,113234,1,0,0:0:0:0:
64,64,113534,1,0,0:0:0:0:
0,0,113684,1,8,0:0:0:0:
0,0,113834,1,8,0:0:0:0:
0,0,113984,1,0,0:0:0:0:
320,64,114284,1,8,0:0:0:0:
320,64,114584,1,8,0:0:0:0:
0,0,114734,1,8,0:0:0:0:
0,0,114884,1,0,0:0:0:0:
64,64,115484,1,0,0:0:0:0:
0,0,115559,1,0,0:0:0:0:
64,64,115634,1,0,0:0:0:0:
64,64,115784,1,0,0:0:0:0:
0,0,116084,1,8,0:0:0:0:
0,0,116384,1,0,0:0:0:0:
0,0,116534,1,0,0:0:0:0:
320,64,116684,1,8,0:0:0:0:
0,0,116984,1,8,0:0:0:0:
0,0,117284,1,0,0:0:0:0:
0,0,117584,1,0,0:0:0:0:
0,0,117734,1,0,0:0:0:0:
0,0,117884,1,8,0:0:0:0:
0,0,117959,1,8,0:0:0:0:
0,0,118034,1,8,0:0:0:0:
0,0,118184,1,0,0:0:0:0:
0,0,118484,1,8,0:0:0:0:
0,0,118784,1,8,0:0:0:0:
0,0,118934,1,8,0:0:0:0:
0,0,119084,1,8,0:0:0:0:
0,0,119384,1,8,0:0:0:0:
0,0,119684,1,0,0:0:0:0:
64,64,120284,1,0,0:0:0:0:
0,0,120359,1,0,0:0:0:0:
64,64,120434,1,0,0:0:0:0:
64,64,120584,1,0,0:0:0:0:
320,64,120884,1,8,0:0:0:0:
0,0,121034,1,8,0:0:0:0:
320,64,121184,1,8,0:0:0:0:
64,64,121484,1,0,0:0:0:0:
64,64,121784,1,0,0:0:0:0:
64,64,121934,1,0,0:0:0:0:
320,64,122084,1,8,0:0:0:0:
320,64,122384,1,8,0:0:0:0:
64,64,122684,1,0,0:0:0:0:
0,0,122759,1,0,0:0:0:0:
0,0,122834,1,0,0:0:0:0:
0,0,122984,1,8,0:0:0:0:
0,0,123134,1,8,0:0:0:0:
0,0,123284,1,0,0:0:0:0:
0,0,123584,1,0,0:0:0:0:
0,0,123884,1,8,0:0:0:0:
320,64,124484,1,8,0:0:0:0:
64,64,124784,1,0,0:0:0:0:
64,64,125084,1,8,0:0:0:0:
0,0,125159,1,8,0:0:0:0:
0,0,125234,1,8,0:0:0:0:
0,0,125384,1,0,0:0:0:0:
0,0,125534,1,8,0:0:0:0:
0,0,125684,1,0,0:0:0:0:
0,0,125984,1,8,0:0:0:0:
0,0,126134,1,8,0:0:0:0:
0,0,126284,1,0,0:0:0:0:
320,64,126584,1,8,0:0:0:0:
64,64,126884,1,0,0:0:0:0:
320,64,127184,1,8,0:0:0:0:
0,0,127259,1,8,0:0:0:0:
0,0,127334,1,8,0:0:0:0:
64,64,127484,1,0,0:0:0:0:
0,0,128084,1,12,0:0:0:0:
0,0,128384,1,8,0:0:0:0:
0,0,128459,1,8,0:0:0:0:
0,0,128534,1,8,0:0:0:0:
0,0,128684,1,0,0:0:0:0:
0,0,128984,1,0,0:0:0:0:
320,64,129284,1,8,0:0:0:0:
320,64,129584,1,8,0:0:0:0:
0,0,129734,1,8,0:0:0:0:
64,64,129884,1,0,0:0:0:0:
0,0,130184,1,0,0:0:0:0:
64,64,130334,1,0,0:0:0:0:
0,0,130484,1,8,0:0:0:0:
0,0,130559,1,8,0:0:0:0:
0,0,130634,1,8,0:0:0:0:
0,0,130784,1,0,0:0:0:0:
320,64,131084,1,8,0:0:0:0:
64,64,131384,1,0,0:0:0:0:
64,64,131534,1,0,0:0:0:0:
320,64,131684,1,8,0:0:0:0:
64,64,132284,1,0,0:0:0:0:
64,64,132434,1,0,0:0:0:0:
64,64,132734,1,0,0:0:0:0:
0,0,132884,1,8,0:0:0:0:
0,0,132959,1,8,0:0:0:0:
0,0,133034,1,8,0:0:0:0:
0,0,133184,1,0,0:0:0:0:
0,0,133334,1,0,0:0:0:0:
0,0,133484,1,8,0:0:0:0:
0,0,133784,1,8,0:0:0:0:
0,0,134084,1,0,0:0:0:0:
0,0,134384,1,8,0:0:0:0:
64,64,134684,1,0,0:0:0:0:
64,64,134834,1,0,0:0:0:0:
0,0,135134,1,8,0:0:0:0:
0,0,135284,1,0,0:0:0:0:
0,0,135359,1,0,0:0:0:0:
0,0,135434,1,0,0:0:0:0:
0,0,135584,1,0,0:0:0:0:
0,0,135884,1,8,0:0:0:0:
0,0,136184,1,8,0:0:0:0:
0,0,136334,1,8,0:0:0:0:
0,0,136484,1,0,0:0:0:0:
64,64,137084,1,0,0:0:0:0:
64,64,137234,1,0,0:0:0:0:
64,64,137534,1,0,0:0:0:0:
0,0,137684,1,8,0:0:0:0:
0,0,137759,1,8,0:0:0:0:
0,0,137834,1,8,0:0:0:0:
0,0,137984,1,0,0:0:0:0:
320,64,138284,1,8,0:0:0:0:
0,0,138434,1,8,0:0:0:0:
320,64,138584,1,8,0:0:0:0:
64,64,138884,1,0,0:0:0:0:
0,0,139184,1,8,0:0:0:0:
0,0,139334,1,8,0:0:0:0:
0,0,139484,1,0,0:0:0:0:
0,0,139934,1,0,0:0:0:0:
0,0,140084,1,8,0:0:0:0:
0,0,140159,1,8,0:0:0:0:
0,0,140234,1,8,0:0:0:0:
0,0,140384,1,0,0:0:0:0:
0,0,140534,1,0,0:0:0:0:
0,0,140684,1,8,0:0:0:0:
0,0,140984,1,0,0:0:0:0:
320,64,141284,1,8,0:0:0:0:
0,0,141584,1,8,0:0:0:0:
0,0,141734,1,8,0:0:0:0:
64,64,141884,1,0,0:0:0:0:
320,64,142184,1,8,0:0:0:0:
0,0,142259,1,8,0:0:0:0:
0,0,142334,1,8,0:0:0:0:
0,0,142484,1,0,0:0:0:0:
0,0,142784,1,8,0:0:0:0:
0,0,142934,1,8,0:0:0:0:
0,0,143084,1,0,0:0:0:0:
0,0,143384,1,8,0:0:0:0:
320,64,143534,1,8,0:0:0:0:
64,64,143684,1,0,0:0:0:0:
320,64,143984,1,8,0:0:0:0:
320,64,144134,1,8,0:0:0:0:
0,0,144284,1,0,0:0:0:0:
64,64,144884,1,0,0:0:0:0:
0,0,146684,1,8,0:0:0:0:
0,0,147684,1,0,0:0:0:0:
0,0,147884,1,8,0:0:0:0:
0,0,148084,1,0,0:0:0:0:
0,0,149084,1,0,0:0:0:0:
0,0,151484,1,8,0:0:0:0:
0,0,152855,1,8,0:0:0:0:
0,0,153321,1,8,0:0:0:0:
0,0,153884,1,0,0:0:0:0:
0,0,156284,1,8,0:0:0:0:
0,0,158684,1,0,0:0:0:0:
