osu file format v14

[General]
AudioFilename: audio.mp3
AudioLeadIn: 0
PreviewTime: 57884
Countdown: 0
SampleSet: Normal
StackLeniency: 0
Mode: 1
LetterboxInBreaks: 0
WidescreenStoryboard: 1

[Editor]
Bookmarks: 36284,79484,89084,110684,144284
DistanceSpacing: 1.5
BeatDivisor: 16
GridSize: 32
TimelineZoom: 1.9

[Metadata]
Title:sun and spirit
TitleUnicode:太陽と魂
Artist:Ikitama
ArtistUnicode:Ikitama
Creator:Alchyr
Version:inner
Source:
Tags:electronica electronic japanese 黄菊 しーく si_ku.k きくお kikuo Sanmai no syasin wo mita hi niha
BeatmapID:2929562
BeatmapSetID:1413087

[Difficulty]
HPDrainRate:5.5
CircleSize:5.5
OverallDifficulty:5.5
ApproachRate:5.5
SliderMultiplier:1.4
SliderTickRate:1

[Events]
//Background and Video events
0,0,"bg.jpg",0,0
//Break Periods
//Storyboard Layer 0 (Background)
//Storyboard Layer 1 (Fail)
//Storyboard Layer 2 (Pass)
//Storyboard Layer 3 (Foreground)
//Storyboard Layer 4 (Overlay)
//Storyboard Sound Samples

[TimingPoints]
284,600,4,1,0,5,1,8
284,-303.030303030303,4,1,0,5,0,0
2834,-200,4,1,0,8,0,0
4784,-303.030303030303,4,1,0,11,0,0
5196,-200,4,1,0,15,0,0
5534,-200,4,1,0,17,0,0
5834,-200,4,1,0,19,0,0
6134,-200,4,1,0,22,0,0
6434,-200,4,1,0,24,0,0
7409,-100,4,1,0,30,0,0
7484,-133.333333333333,4,1,0,30,0,0
9884,-80,4,1,0,30,0,0
12284,-120.481927710843,4,1,0,30,0,0
14684,-150.15015015015,4,1,0,30,0,0
17084,-200,4,1,0,30,0,0
17234,-133.333333333333,4,1,0,30,0,0
19484,-200,4,1,0,30,0,0
19634,-133.333333333333,4,1,0,30,0,0
21884,-200,4,1,0,30,0,0
22034,-133.333333333333,4,1,0,30,0,0
24284,-200,4,1,0,30,0,0
24434,-133.333333333333,4,1,0,30,0,0
26684,-120.481927710843,4,1,0,30,0,0
29084,-150.15015015015,4,1,0,30,0,0
31484,-222.222222222222,4,1,0,30,0,0
32684,-250,4,1,0,30,0,0
33884,-303.030303030303,4,1,0,30,0,0
35009,-200,4,1,0,15,0,0
36209,-120.481927710843,4,1,0,30,0,0
37934,-120.481927710843,4,1,0,20,0,0
38534,-120.481927710843,4,1,0,30,0,0
42734,-120.481927710843,4,1,0,15,0,0
43334,-120.481927710843,4,1,0,30,0,0
47534,-120.481927710843,4,1,0,15,0,0
48134,-120.481927710843,4,1,0,30,0,0
52334,-120.481927710843,4,1,0,15,0,0
52934,-120.481927710843,4,1,0,30,0,0
55409,-128.205128205128,4,1,0,15,0,0
55684,-122.486875531287,4,1,0,20,0,0
55984,-117.256938093027,4,1,0,22,0,0
56284,-112.455453583449,4,1,0,24,0,0
56584,-108.0316100491,4,1,0,26,0,0
56909,-103.942648604206,4,1,0,28,0,0
57209,-100.151930478536,4,1,0,30,0,0
57434,-95.2380952380952,4,1,0,32,0,0
57659,-97.0873786407767,4,1,0,33,0,0
57734,-99.009900990099,4,1,0,34,0,0
57884,-66.6666666666667,4,1,0,35,0,1
74646,-66.6666666666667,4,1,0,35,0,1
74684,-66.6666666666667,4,1,0,35,0,0
74834,-76.9230769230769,4,1,0,20,0,0
75434,-85.4700854700855,4,1,0,25,0,0
75734,-90.8662185750541,4,1,0,15,0,0
76484,-100,4,1,0,12,0,0
76934,-110.982987417859,4,1,0,20,0,0
77234,-117.485481731595,4,1,0,15,0,0
77459,-123.456790123457,4,1,0,15,0,0
77609,-129.87012987013,4,1,0,15,0,0
77834,-133.079772007735,4,1,0,13,0,0
78134,-142.539889788157,4,1,0,13,0,0
78584,-159.552487183946,4,1,0,25,0,0
78884,-166.163192194318,4,1,0,25,0,0
79034,-177.174282798503,4,1,0,15,0,0
79184,-181.17648764014,4,1,0,15,0,0
79484,-133.333333333333,4,1,0,25,0,0
84134,-150.15015015015,4,1,0,20,0,0
88934,-133.333333333333,4,1,0,25,0,0
98534,-100,4,1,0,25,0,0
101084,-150.15015015015,4,1,0,25,0,0
103484,-250,4,1,0,25,0,0
104684,-120.481927710843,4,1,0,25,0,0
105884,-150.15015015015,4,1,0,25,0,0
106934,-111.111111111111,4,1,0,15,0,0
108134,-120.481927710843,4,1,0,15,0,0
108434,-111.51429724805,4,1,0,20,0,0
108734,-103.789241414813,4,1,0,22,0,0
109034,-97.0650442568069,4,1,0,24,0,0
109334,-91.1591986012533,4,1,0,26,0,0
109634,-85.9307329547798,4,1,0,28,0,0
109934,-81.2695605673591,4,1,0,30,0,0
110234,-77.0879859144832,4,1,0,32,0,0
110609,-77.0879859144832,4,1,0,35,0,0
110684,-57.1428571428571,4,1,0,35,0,1
125683,-57.1428571428571,4,1,0,34,0,1
125769,-57.1428571428571,4,1,0,32,0,1
125941,-57.1428571428571,4,1,0,31,0,1
126059,-57.1428571428571,4,1,0,30,0,1
126134,-57.1428571428571,4,1,0,28,0,1
126246,-57.1428571428571,4,1,0,27,0,1
126434,-57.1428571428571,4,1,0,25,0,1
126546,-57.1428571428571,4,1,0,24,0,1
126696,-57.1428571428571,4,1,0,22,0,1
126846,-57.1428571428571,4,1,0,21,0,1
127146,-57.1428571428571,4,1,0,23,0,1
127221,-57.1428571428571,4,1,0,24,0,1
127259,-57.1428571428571,4,1,0,25,0,1
127296,-57.1428571428571,4,1,0,26,0,1
127334,-57.1428571428571,4,1,0,27,0,1
127371,-57.1428571428571,4,1,0,28,0,1
127409,-57.1428571428571,4,1,0,29,0,1
127446,-57.1428571428571,4,1,0,30,0,1
127484,-57.1428571428571,4,1,0,31,0,0
127559,-57.1428571428571,4,1,0,5,0,0
128009,-40,4,1,0,40,0,0
128084,-40,4,1,0,40,0,1
128234,-50,4,1,0,35,0,1
142746,-50,4,1,0,33,0,1
142821,-50,4,1,0,31,0,1
142934,-50,4,1,0,29,0,1
143084,-51.0204081632653,4,1,0,26,0,1
143196,-51.8134715025907,4,1,0,24,0,1
143271,-52.3560209424084,4,1,0,22,0,1
143459,-53.1914893617021,4,1,0,19,0,1
143609,-54.054054054054,4,1,0,16,0,1
143734,-54.9450549450549,4,1,0,14,0,1
143834,-55.8659217877095,4,1,0,12,0,1
143984,-56.8181818181818,4,1,0,11,0,1
144134,-57.8034682080925,4,1,0,10,0,1
144246,-58.8235294117647,4,1,0,25,0,1
144284,-58.8235294117647,4,1,0,25,0,0
144959,-66.9025992075957,4,1,0,25,0,0
145784,-68.2810484129911,4,1,0,20,0,0
147696,-69.4500651498184,4,1,0,20,0,0
147884,-69.6938403727501,4,1,0,20,0,0
148109,-69.9964209682071,4,1,0,20,0,0
149084,-71.444368618879,4,1,0,20,0,0
151484,-76.0040374038732,4,1,0,20,0,0
152855,-79.3239592895879,4,1,0,20,0,0
153321,-80.5885875942771,4,1,0,20,0,0
153884,-82.2177934315892,4,1,0,20,0,0
156284,-90.6214367938258,4,1,0,20,0,0
158684,-102.168395969159,4,1,0,19,0,0
159284,-102.168395969159,4,1,0,18,0,0
159884,-102.168395969159,4,1,0,17,0,0
160484,-102.168395969159,4,1,0,16,0,0
161084,-118.598214778208,4,1,0,15,0,0
161684,-118.598214778208,4,1,0,14,0,0
162284,-118.598214778208,4,1,0,13,0,0
162884,-118.598214778208,4,1,0,12,0,0
163484,-143.364335512956,4,1,0,11,0,0
164084,-143.364335512956,4,1,0,10,0,0
164684,-143.364335512956,4,1,0,9,0,0
165284,-143.364335512956,4,1,0,8,0,0
165884,-184.348503305379,4,1,0,7,0,0
166484,-184.348503305379,4,1,0,6,0,0
167084,-184.348503305379,4,1,0,5,0,0
168284,-264.197257370869,4,1,0,5,0,0

[HitObjects]
320,64,2984,5,8,0:0:0:0:
320,64,3284,1,8,0:0:0:0:
320,64,3584,1,8,0:0:0:0:
64,64,3884,1,0,0:0:0:0:
320,64,5384,1,8,0:0:0:0:
320,64,5684,1,8,0:0:0:0:
64,64,5984,1,0,0:0:0:0:
64,64,6284,1,0,0:0:0:0:
64,64,6584,1,0,0:0:0:0:
64,64,7484,1,0,0:0:0:0:
320,64,9884,1,8,0:0:0:0:
64,64,12284,1,0,0:0:0:0:
64,64,14684,1,0,0:0:0:0:
320,64,17384,1,8,0:0:0:0:
320,64,17684,1,8,0:0:0:0:
320,64,17984,1,8,0:0:0:0:
64,64,18284,1,0,0:0:0:0:
320,64,18584,1,8,0:0:0:0:
320,64,19784,1,8,0:0:0:0:
320,64,20084,1,8,0:0:0:0:
64,64,20384,1,0,0:0:0:0:
64,64,20684,1,0,0:0:0:0:
320,64,20984,1,8,0:0:0:0:
320,64,22184,1,8,0:0:0:0:
320,64,22484,1,8,0:0:0:0:
320,64,22784,1,8,0:0:0:0:
64,64,23084,1,0,0:0:0:0:
320,64,23384,1,8,0:0:0:0:
320,64,24584,1,8,0:0:0:0:
320,64,24884,1,8,0:0:0:0:
64,64,25184,1,0,0:0:0:0:
64,64,25484,1,0,0:0:0:0:
320,64,25784,1,8,0:0:0:0:
0,0,26084,1,0,0:0:0:0:
0,0,26384,1,0,0:0:0:0:
320,64,26684,1,8,0:0:0:0:
64,64,29084,1,0,0:0:0:0:
64,64,32684,1,0,0:0:0:0:
64,64,33884,1,0,0:0:0:0:
320,64,35084,1,8,0:0:0:0:
64,64,36284,1,0,0:0:0:0:
320,64,36584,1,8,0:0:0:0:
64,64,37184,1,0,0:0:0:0:
320,64,37484,1,8,0:0:0:0:
320,64,38084,1,8,0:0:0:0:
320,64,38234,1,8,0:0:0:0:
320,64,38417,1,8,0:0:0:0:
64,64,38684,1,0,0:0:0:0:
320,64,38984,1,8,0:0:0:0:
64,64,39584,1,0,0:0:0:0:
64,64,39884,1,0,0:0:0:0:
64,64,40334,1,0,0:0:0:0:
320,64,40521,1,8,0:0:0:0:
320,64,40709,1,8,0:0:0:0:
320,64,40896,1,8,0:0:0:0:
64,64,41084,1,0,0:0:0:0:
0,0,41684,1,0,0:0:0:0:
320,64,42284,1,8,0:0:0:0:
64,64,42884,1,0,0:0:0:0:
320,64,43034,1,8,0:0:0:0:
64,64,43184,1,0,0:0:0:0:
320,64,43484,1,8,0:0:0:0:
320,64,43784,1,8,0:0:0:0:
64,64,44384,1,0,0:0:0:0:
320,64,44684,1,8,0:0:0:0:
64,64,45134,1,0,0:0:0:0:
320,64,45321,1,8,0:0:0:0:
320,64,45509,1,8,0:0:0:0:
320,64,45696,1,8,0:0:0:0:
64,64,45884,1,0,0:0:0:0:
320,64,46484,1,8,0:0:0:0:
64,64,47084,1,0,0:0:0:0:
64,64,47684,1,0,0:0:0:0:
320,64,47834,1,8,0:0:0:0:
64,64,47984,1,0,0:0:0:0:
64,64,48284,1,0,0:0:0:0:
320,64,48884,1,8,0:0:0:0:
64,64,49484,1,0,0:0:0:0:
320,64,49934,1,8,0:0:0:0:
320,64,50084,1,8,0:0:0:0:
64,64,50204,1,0,0:0:0:0:
64,64,50324,1,0,0:0:0:0:
64,64,50684,1,0,0:0:0:0:
0,0,51284,1,0,0:0:0:0:
320,64,51884,1,8,0:0:0:0:
64,64,52484,1,0,0:0:0:0:
320,64,52634,1,8,0:0:0:0:
64,64,52784,1,0,0:0:0:0:
64,64,53084,1,0,0:0:0:0:
320,64,53384,1,8,0:0:0:0:
320,64,53984,1,8,0:0:0:0:
320,64,54284,1,8,0:0:0:0:
320,64,54734,1,8,0:0:0:0:
64,64,55034,1,0,0:0:0:0:
320,64,55184,1,8,0:0:0:0:
64,64,55484,1,0,0:0:0:0:
320,64,55784,1,8,0:0:0:0:
320,64,56084,1,8,0:0:0:0:
320,64,56384,1,8,0:0:0:0:
320,64,56684,1,8,0:0:0:0:
64,64,56984,1,0,0:0:0:0:
320,64,57284,1,8,0:0:0:0:
320,64,57584,1,8,0:0:0:0:
320,64,57684,1,8,0:0:0:0:
320,64,57784,1,8,0:0:0:0:
64,64,57884,1,0,0:0:0:0:
64,64,57959,1,0,0:0:0:0:
320,64,58034,1,8,0:0:0:0:
320,64,58109,1,8,0:0:0:0:
64,64,58184,1,0,0:0:0:0:
64,64,58296,1,0,0:0:0:0:
320,64,58409,1,8,0:0:0:0:
320,64,58596,1,8,0:0:0:0:
64,64,58784,1,0,0:0:0:0:
320,64,59009,1,8,0:0:0:0:
320,64,59284,1,8,0:0:0:0:
320,64,59484,1,8,0:0:0:0:
320,64,59646,1,8,0:0:0:0:
64,64,59784,1,0,0:0:0:0:
64,64,59884,1,0,0:0:0:0:
320,64,59984,1,8,0:0:0:0:
320,64,60059,1,8,0:0:0:0:
64,64,60134,1,0,0:0:0:0:
320,64,60284,1,8,0:0:0:0:
320,64,60359,1,8,0:0:0:0:
64,64,60434,1,0,0:0:0:0:
64,64,60509,1,0,0:0:0:0:
320,64,60584,1,8,0:0:0:0:
320,64,60659,1,8,0:0:0:0:
64,64,60734,1,0,0:0:0:0:
320,64,60884,1,8,0:0:0:0:
64,64,61034,1,0,0:0:0:0:
64,64,61234,1,0,0:0:0:0:
320,64,61484,1,8,0:0:0:0:
320,64,61734,1,8,0:0:0:0:
320,64,61934,1,8,0:0:0:0:
64,64,62084,1,0,0:0:0:0:
0,0,62234,1,8,0:0:0:0:
0,0,62309,1,8,0:0:0:0:
64,64,62384,1,0,0:0:0:0:
0,0,62459,1,0,0:0:0:0:
0,0,62534,1,8,0:0:0:0:
64,64,62684,1,0,0:0:0:0:
0,0,62734,1,0,0:0:0:0:
64,64,62784,1,0,0:0:0:0:
0,0,62834,1,8,0:0:0:0:
0,0,62909,1,8,0:0:0:0:
0,0,62984,1,0,0:0:0:0:
0,0,63059,1,0,0:0:0:0:
0,0,63150,1,8,0:0:0:0:
320,64,63284,1,0,0:0:0:0:
64,64,63484,1,0,0:0:0:0:
320,64,63684,1,8,0:0:0:0:
320,64,63934,1,8,0:0:0:0:
64,64,64184,1,0,0:0:0:0:
64,64,64384,1,0,0:0:0:0:
64,64,64521,1,0,0:0:0:0:
0,0,64634,1,8,0:0:0:0:
0,0,64709,1,8,0:0:0:0:
0,0,64784,1,0,0:0:0:0:
64,64,64859,1,0,0:0:0:0:
320,64,64934,1,8,0:0:0:0:
0,0,65084,1,0,0:0:0:0:
60,65,65159,1,0,0:0:0:0:
0,0,65234,1,8,0:0:0:0:
64,64,65309,1,0,0:0:0:0:
320,64,65384,1,8,0:0:0:0:
320,64,65484,1,8,0:0:0:0:
0,0,65584,1,0,0:0:0:0:
320,64,65734,1,8,0:0:0:0:
320,64,65909,1,8,0:0:0:0:
320,64,66134,1,8,0:0:0:0:
64,64,66396,1,0,0:0:0:0:
64,64,66621,1,0,0:0:0:0:
320,64,66734,1,8,0:0:0:0:
64,64,66959,1,0,0:0:0:0:
0,0,67034,1,8,0:0:0:0:
320,64,67109,1,8,0:0:0:0:
0,0,67184,1,0,0:0:0:0:
0,0,67259,1,0,0:0:0:0:
0,0,67334,1,8,0:0:0:0:
0,0,67484,1,0,0:0:0:0:
0,0,67550,1,0,0:0:0:0:
64,64,67617,1,8,0:0:0:0:
0,0,67684,1,0,0:0:0:0:
320,64,67750,1,8,0:0:0:0:
320,64,67826,1,8,0:0:0:0:
64,64,67912,1,0,0:0:0:0:
320,64,68009,1,8,0:0:0:0:
320,64,68184,1,8,0:0:0:0:
64,64,68384,1,0,0:0:0:0:
64,64,68598,1,0,0:0:0:0:
64,64,68871,1,0,0:0:0:0:
320,64,69084,1,8,0:0:0:0:
320,64,69246,1,8,0:0:0:0:
64,64,69396,1,0,0:0:0:0:
320,64,69509,1,8,0:0:0:0:
320,64,69584,1,8,0:0:0:0:
64,64,69659,1,0,0:0:0:0:
320,64,69734,1,8,0:0:0:0:
0,0,69884,1,0,0:0:0:0:
0,0,69959,1,0,0:0:0:0:
0,0,70034,1,8,0:0:0:0:
0,0,70109,1,8,0:0:0:0:
0,0,70184,1,0,0:0:0:0:
0,0,70259,1,0,0:0:0:0:
0,0,70334,1,8,0:0:0:0:
320,64,70446,1,8,0:0:0:0:
64,64,70634,1,0,0:0:0:0:
320,64,70821,1,8,0:0:0:0:
320,64,71084,1,8,0:0:0:0:
320,64,71309,1,8,0:0:0:0:
320,64,71534,1,8,0:0:0:0:
64,64,71684,1,0,0:0:0:0:
320,64,71834,1,8,0:0:0:0:
320,64,71909,1,8,0:0:0:0:
64,64,71984,1,0,0:0:0:0:
0,0,72059,1,0,0:0:0:0:
0,0,72134,1,8,0:0:0:0:
64,64,72284,1,0,0:0:0:0:
0,0,72334,1,0,0:0:0:0:
64,64,72384,1,0,0:0:0:0:
0,0,72434,1,8,0:0:0:0:
320,64,72509,1,8,0:0:0:0:
64,64,72584,1,0,0:0:0:0:
0,0,72659,1,0,0:0:0:0:
320,64,72750,1,8,0:0:0:0:
320,64,72884,1,8,0:0:0:0:
64,64,73034,1,0,0:0:0:0:
320,64,73259,1,8,0:0:0:0:
64,64,73521,1,0,0:0:0:0:
64,64,73784,1,0,0:0:0:0:
320,64,73971,1,8,0:0:0:0:
0,0,74134,1,0,0:0:0:0:
64,64,74234,1,0,0:0:0:0:
0,0,74309,1,8,0:0:0:0:
320,64,74384,1,8,0:0:0:0:
0,0,74459,1,0,0:0:0:0:
64,64,74534,1,0,0:0:0:0:
0,0,74584,1,8,0:0:0:0:
0,0,74634,1,8,0:0:0:0:
0,0,74684,1,0,0:0:0:0:
320,64,74984,1,8,0:0:0:0:
64,64,75584,1,0,0:0:0:0:
320,64,75884,1,8,0:0:0:0:
320,64,76634,1,8,0:0:0:0:
64,64,77084,1,0,0:0:0:0:
320,64,77384,1,8,0:0:0:0:
64,64,77534,1,0,0:0:0:0:
64,64,77684,1,0,0:0:0:0:
64,64,77984,1,0,0:0:0:0:
320,64,78284,1,8,0:0:0:0:
64,64,78734,1,0,0:0:0:0:
320,64,78884,1,8,0:0:0:0:
320,64,79109,1,8,0:0:0:0:
64,64,79484,1,0,0:0:0:0:
320,64,79784,1,8,0:0:0:0:
320,64,80084,1,8,0:0:0:0:
320,64,80384,1,8,0:0:0:0:
64,64,80684,1,0,0:0:0:0:
64,64,80984,1,0,0:0:0:0:
320,64,81284,1,8,0:0:0:0:
320,64,81584,1,8,0:0:0:0:
64,64,81884,1,0,0:0:0:0:
320,64,82184,1,8,0:0:0:0:
320,64,82484,1,8,0:0:0:0:
320,64,82784,1,8,0:0:0:0:
64,64,83084,1,0,0:0:0:0:
64,64,84284,1,0,0:0:0:0:
320,64,84584,1,8,0:0:0:0:
320,64,84884,1,8,0:0:0:0:
320,64,85184,1,8,0:0:0:0:
64,64,85484,1,0,0:0:0:0:
320,64,86084,1,8,0:0:0:0:
320,64,86384,1,8,0:0:0:0:
64,64,86684,1,0,0:0:0:0:
320,64,86984,1,8,0:0:0:0:
320,64,87284,1,8,0:0:0:0:
64,64,87584,1,0,0:0:0:0:
64,64,87884,1,0,0:0:0:0:
64,64,89084,1,0,0:0:0:0:
320,64,89984,1,8,0:0:0:0:
64,64,90284,1,0,0:0:0:0:
320,64,90884,1,8,0:0:0:0:
64,64,91484,1,0,0:0:0:0:
320,64,92384,1,8,0:0:0:0:
64,64,92684,1,0,0:0:0:0:
64,64,93884,1,0,0:0:0:0:
320,64,94484,1,8,0:0:0:0:
64,64,95084,1,0,0:0:0:0:
320,64,95684,1,8,0:0:0:0:
320,64,96284,1,8,0:0:0:0:
320,64,96884,1,8,0:0:0:0:
64,64,97184,1,0,0:0:0:0:
320,64,97484,1,8,0:0:0:0:
64,64,98684,1,8,0:0:0:0:
320,64,101084,1,0,0:0:0:0:
64,64,104684,1,0,0:0:0:0:
64,64,105884,1,0,0:0:0:0:
320,64,107084,1,8,0:0:0:0:
64,64,108284,1,0,0:0:0:0:
320,64,108584,1,8,0:0:0:0:
320,64,108884,1,8,0:0:0:0:
320,64,109184,1,8,0:0:0:0:
320,64,109484,1,8,0:0:0:0:
64,64,109784,1,0,0:0:0:0:
320,64,110084,1,8,0:0:0:0:
320,64,110384,1,8,0:0:0:0:
64,64,110684,1,0,0:0:0:0:
0,0,110759,1,0,0:0:0:0:
320,64,110834,1,8,0:0:0:0:
320,64,110909,1,8,0:0:0:0:
64,64,110984,1,0,0:0:0:0:
0,0,111059,1,0,0:0:0:0:
64,64,111134,1,0,0:0:0:0:
0,0,111209,1,0,0:0:0:0:
320,64,111284,1,8,0:0:0:0:
320,64,111396,1,8,0:0:0:0:
64,64,111584,1,0,0:0:0:0:
320,64,111809,1,8,0:0:0:0:
320,64,112084,1,8,0:0:0:0:
65,68,112284,1,8,0:0:0:0:
0,0,112446,1,8,0:0:0:0:
320,64,112634,1,0,0:0:0:0:
64,64,112709,1,0,0:0:0:0:
320,64,112784,1,8,0:0:0:0:
0,0,112934,1,8,0:0:0:0:
0,0,113084,1,0,0:0:0:0:
64,64,113134,1,0,0:0:0:0:
64,64,113184,1,0,0:0:0:0:
320,64,113234,1,8,0:0:0:0:
320,64,113309,1,0,0:0:0:0:
320,64,113384,1,8,0:0:0:0:
320,64,113459,1,8,0:0:0:0:
64,64,113534,1,0,0:0:0:0:
64,64,113684,1,0,0:0:0:0:
64,64,113834,1,0,0:0:0:0:
320,64,114017,1,0,0:0:0:0:
320,64,114284,1,8,0:0:0:0:
64,64,114534,1,0,0:0:0:0:
320,64,114734,1,8,0:0:0:0:
64,64,114884,1,0,0:0:0:0:
320,64,115034,1,8,0:0:0:0:
320,64,115109,1,8,0:0:0:0:
64,64,115184,1,0,0:0:0:0:
64,64,115259,1,0,0:0:0:0:
64,64,115334,1,8,0:0:0:0:
320,64,115484,1,0,0:0:0:0:
64,64,115559,1,0,0:0:0:0:
320,64,115634,1,8,0:0:0:0:
64,64,115709,1,0,0:0:0:0:
320,64,115784,1,8,0:0:0:0:
320,64,115859,1,8,0:0:0:0:
64,64,115950,1,0,0:0:0:0:
64,64,116084,1,0,0:0:0:0:
320,64,116271,1,8,0:0:0:0:
320,64,116484,1,8,0:0:0:0:
320,64,116759,1,8,0:0:0:0:
320,64,116984,1,8,0:0:0:0:
64,64,117184,1,0,0:0:0:0:
64,64,117334,1,0,0:0:0:0:
320,64,117434,1,8,0:0:0:0:
320,64,117509,1,8,0:0:0:0:
64,64,117584,1,0,0:0:0:0:
64,64,117659,1,0,0:0:0:0:
320,64,117734,1,8,0:0:0:0:
64,64,117884,1,0,0:0:0:0:
320,64,117959,1,0,0:0:0:0:
320,64,118034,1,8,0:0:0:0:
64,64,118109,1,0,0:0:0:0:
64,64,118184,1,8,0:0:0:0:
64,64,118284,1,8,0:0:0:0:
320,64,118384,1,0,0:0:0:0:
64,64,118559,1,8,0:0:0:0:
320,64,118734,1,8,0:0:0:0:
320,64,118950,1,8,0:0:0:0:
64,64,119234,1,0,0:0:0:0:
64,64,119434,1,0,0:0:0:0:
320,64,119534,1,8,0:0:0:0:
64,64,119634,1,0,0:0:0:0:
320,64,119834,1,8,0:0:0:0:
0,0,119909,1,8,0:0:0:0:
64,64,119984,1,0,0:0:0:0:
64,64,120059,1,0,0:0:0:0:
320,64,120134,1,8,0:0:0:0:
64,64,120284,1,0,0:0:0:0:
64,64,120334,1,0,0:0:0:0:
64,64,120384,1,0,0:0:0:0:
320,64,120434,1,8,0:0:0:0:
320,64,120509,1,8,0:0:0:0:
64,64,120584,1,0,0:0:0:0:
0,0,120659,1,0,0:0:0:0:
320,64,120734,1,8,0:0:0:0:
320,64,120809,1,8,0:0:0:0:
320,64,120984,1,8,0:0:0:0:
64,64,121184,1,0,0:0:0:0:
64,64,121417,1,0,0:0:0:0:
64,64,121671,1,0,0:0:0:0:
320,64,121884,1,8,0:0:0:0:
320,64,122046,1,8,0:0:0:0:
64,64,122234,1,0,0:0:0:0:
64,64,122309,1,0,0:0:0:0:
320,64,122384,1,8,0:0:0:0:
64,64,122534,1,0,0:0:0:0:
320,64,122684,1,8,0:0:0:0:
64,64,122759,1,0,0:0:0:0:
64,64,122834,1,0,0:0:0:0:
64,64,122909,1,0,0:0:0:0:
320,64,122984,1,8,0:0:0:0:
320,64,123059,1,8,0:0:0:0:
64,64,123134,1,0,0:0:0:0:
320,64,123284,1,8,0:0:0:0:
320,64,123434,1,8,0:0:0:0:
64,64,123621,1,0,0:0:0:0:
320,64,123884,1,8,0:0:0:0:
64,64,124134,1,8,0:0:0:0:
320,64,124334,1,8,0:0:0:0:
64,64,124484,1,0,0:0:0:0:
320,64,124634,1,8,0:0:0:0:
320,64,124709,1,8,0:0:0:0:
64,64,124784,1,0,0:0:0:0:
64,64,124859,1,0,0:0:0:0:
320,64,124934,1,8,0:0:0:0:
64,64,125084,1,0,0:0:0:0:
64,64,125134,1,0,0:0:0:0:
64,64,125184,1,0,0:0:0:0:
320,64,125234,1,8,0:0:0:0:
320,64,125309,1,8,0:0:0:0:
64,64,125384,1,0,0:0:0:0:
64,64,125459,1,0,0:0:0:0:
320,64,125571,1,8,0:0:0:0:
64,64,125721,1,0,0:0:0:0:
320,64,125871,1,8,0:0:0:0:
64,64,126021,1,0,0:0:0:0:
64,64,126096,1,0,0:0:0:0:
320,64,126171,1,8,0:0:0:0:
64,64,126359,1,0,0:0:0:0:
320,64,126471,1,8,0:0:0:0:
64,64,126659,1,0,0:0:0:0:
320,64,126771,1,8,0:0:0:0:
64,64,126959,1,0,0:0:0:0:
64,64,127184,1,0,0:0:0:0:
64,64,127234,1,0,0:0:0:0:
320,64,127284,1,8,0:0:0:0:
320,64,127334,1,8,0:0:0:0:
64,64,127384,1,0,0:0:0:0:
64,64,127434,1,0,0:0:0:0:
320,64,127484,1,8,0:0:0:0:
320,64,128084,1,12,0:0:0:0:
64,64,128384,1,0,0:0:0:0:
320,64,128434,1,8,0:0:0:0:
320,64,128484,1,8,0:0:0:0:
64,64,128646,1,0,0:0:0:0:
64,64,128796,1,0,0:0:0:0:
320,64,128984,1,8,0:0:0:0:
64,64,129209,1,0,0:0:0:0:
320,64,129484,1,8,0:0:0:0:
64,64,129584,1,0,0:0:0:0:
320,64,129684,1,8,0:0:0:0:
64,64,129884,1,0,0:0:0:0:
320,64,130034,1,8,0:0:0:0:
320,64,130109,1,8,0:0:0:0:
64,64,130184,1,0,0:0:0:0:
320,64,130259,1,8,0:0:0:0:
64,64,130334,1,0,0:0:0:0:
320,64,130484,1,8,0:0:0:0:
320,64,130559,1,8,0:0:0:0:
64,64,130634,1,0,0:0:0:0:
320,64,130709,1,8,0:0:0:0:
64,64,130784,1,0,0:0:0:0:
64,64,130859,1,0,0:0:0:0:
320,64,130934,1,8,0:0:0:0:
64,64,131084,1,0,0:0:0:0:
64,64,131234,1,0,0:0:0:0:
64,64,131421,1,0,0:0:0:0:
320,64,131534,1,8,0:0:0:0:
64,64,131684,1,8,0:0:0:0:
320,64,131946,1,8,0:0:0:0:
320,64,132134,1,8,0:0:0:0:
64,64,132284,1,0,0:0:0:0:
64,64,132434,1,0,0:0:0:0:
64,64,132509,1,0,0:0:0:0:
320,64,132584,1,8,0:0:0:0:
320,64,132659,1,8,0:0:0:0:
64,64,132734,1,0,0:0:0:0:
0,0,132884,1,8,0:0:0:0:
0,0,132959,1,8,0:0:0:0:
64,64,133034,1,0,0:0:0:0:
320,64,133109,1,8,0:0:0:0:
64,64,133184,1,0,0:0:0:0:
64,64,133259,1,0,0:0:0:0:
64,64,133384,1,8,0:0:0:0:
64,64,133534,1,0,0:0:0:0:
320,64,133709,1,8,0:0:0:0:
320,64,133912,1,8,0:0:0:0:
64,64,134169,1,0,0:0:0:0:
64,64,134384,1,0,0:0:0:0:
320,64,134584,1,8,0:0:0:0:
64,64,134759,1,0,0:0:0:0:
320,64,134909,1,8,0:0:0:0:
320,64,134984,1,8,0:0:0:0:
64,64,135059,1,0,0:0:0:0:
64,64,135134,1,0,0:0:0:0:
320,64,135284,1,8,0:0:0:0:
320,64,135334,1,8,0:0:0:0:
320,64,135384,1,8,0:0:0:0:
64,64,135434,1,0,0:0:0:0:
64,64,135509,1,0,0:0:0:0:
320,64,135584,1,8,0:0:0:0:
64,64,135696,1,8,0:0:0:0:
64,64,135809,1,0,0:0:0:0:
320,64,135959,1,8,0:0:0:0:
64,64,136146,1,8,0:0:0:0:
320,64,136334,1,8,0:0:0:0:
64,64,136634,1,0,0:0:0:0:
64,64,136859,1,0,0:0:0:0:
64,64,137034,1,0,0:0:0:0:
320,64,137184,1,8,0:0:0:0:
320,64,137284,1,8,0:0:0:0:
64,64,137384,1,0,0:0:0:0:
64,64,137459,1,0,0:0:0:0:
320,64,137534,1,8,0:0:0:0:
64,64,137684,1,0,0:0:0:0:
64,64,137759,1,0,0:0:0:0:
320,64,137834,1,8,0:0:0:0:
64,64,137909,1,0,0:0:0:0:
320,64,137984,1,8,0:0:0:0:
320,64,138059,1,8,0:0:0:0:
64,64,138134,1,0,0:0:0:0:
320,64,138234,1,8,0:0:0:0:
320,64,138404,1,8,0:0:0:0:
64,64,138584,1,0,0:0:0:0:
64,64,138846,1,0,0:0:0:0:
64,64,139109,1,0,0:0:0:0:
64,64,139296,1,0,0:0:0:0:
320,64,139484,1,8,0:0:0:0:
64,64,139634,1,0,0:0:0:0:
64,64,139709,1,0,0:0:0:0:
320,64,139784,1,8,0:0:0:0:
0,0,139859,1,8,0:0:0:0:
64,64,139934,1,0,0:0:0:0:
320,64,140084,1,8,0:0:0:0:
320,64,140134,1,8,0:0:0:0:
0,0,140184,1,8,0:0:0:0:
0,0,140234,1,0,0:0:0:0:
64,64,140309,1,0,0:0:0:0:
320,64,140384,1,8,0:0:0:0:
320,64,140459,1,8,0:0:0:0:
64,64,140534,1,0,0:0:0:0:
64,64,140684,1,0,0:0:0:0:
64,64,140855,1,0,0:0:0:0:
64,64,141059,1,0,0:0:0:0:
320,64,141134,1,8,0:0:0:0:
64,64,141284,1,0,0:0:0:0:
320,64,141584,1,8,0:0:0:0:
320,64,141771,1,8,0:0:0:0:
64,64,141934,1,0,0:0:0:0:
320,64,142034,1,8,0:0:0:0:
320,64,142109,1,8,0:0:0:0:
64,64,142184,1,0,0:0:0:0:
64,64,142259,1,0,0:0:0:0:
320,64,142334,1,8,0:0:0:0:
64,64,142484,1,0,0:0:0:0:
64,64,142534,1,0,0:0:0:0:
64,64,142584,1,0,0:0:0:0:
320,64,142634,1,8,0:0:0:0:
320,64,142709,1,8,0:0:0:0:
64,64,142784,1,0,0:0:0:0:
320,64,142859,1,8,0:0:0:0:
320,64,142971,1,8,0:0:0:0:
64,64,143121,1,0,0:0:0:0:
320,64,143234,1,8,0:0:0:0:
320,64,143309,1,8,0:0:0:0:
64,64,143512,1,0,0:0:0:0:
320,64,143684,1,8,0:0:0:0:
0,0,143784,1,8,0:0:0:0:
64,64,143909,1,0,0:0:0:0:
320,64,144021,1,8,0:0:0:0:
320,64,144209,1,8,0:0:0:0:
64,64,144284,1,0,0:0:0:0:
64,64,144959,1,0,0:0:0:0:
320,64,146684,1,8,0:0:0:0:
64,64,147696,1,0,0:0:0:0:
320,64,147884,1,8,0:0:0:0:
64,64,148109,1,0,0:0:0:0:
64,64,149084,1,0,0:0:0:0:
320,64,151484,1,8,0:0:0:0:
320,64,152855,1,8,0:0:0:0:
320,64,153321,1,8,0:0:0:0:
64,64,153884,1,0,0:0:0:0:
320,64,156284,1,8,0:0:0:0:
64,64,158684,1,0,0:0:0:0:
