osu file format v14

[General]
AudioFilename: audio.mp3
AudioLeadIn: 0
PreviewTime: 57884
Countdown: 0
SampleSet: Normal
StackLeniency: 0
Mode: 1
LetterboxInBreaks: 0
WidescreenStoryboard: 1

[Editor]
Bookmarks: 36284,79484,89084,110684,144284
DistanceSpacing: 1.5
BeatDivisor: 8
GridSize: 32
TimelineZoom: 0.7999997

[Metadata]
Title:sun and spirit
TitleUnicode:太陽と魂
Artist:Ikitama
ArtistUnicode:Ikitama
Creator:Alchyr
Version:futsuu
Source:
Tags:electronica electronic japanese 黄菊 しーく si_ku.k きくお kikuo Sanmai no syasin wo mita hi niha
BeatmapID:2918287
BeatmapSetID:1413087

[Difficulty]
HPDrainRate:7.7
CircleSize:2
OverallDifficulty:2.2
ApproachRate:10
SliderMultiplier:1.4
SliderTickRate:1

[Events]
//Background and Video events
0,0,"bg.jpg",0,0
//Break Periods
//Storyboard Layer 0 (Background)
//Storyboard Layer 1 (Fail)
//Storyboard Layer 2 (Pass)
//Storyboard Layer 3 (Foreground)
//Storyboard Layer 4 (Overlay)
//Storyboard Sound Samples

[TimingPoints]
284,600,4,1,0,5,1,8
5196,-100,4,1,0,7,0,0
5534,-100,4,1,0,9,0,0
6134,-100,4,1,0,12,0,0
6434,-100,4,1,0,14,0,0
7409,-100,4,1,0,30,0,0
35009,-100,4,1,0,15,0,0
36209,-100,4,1,0,30,0,0
55334,-100,4,1,0,15,0,0
55784,-100,4,1,0,20,0,0
56234,-100,4,1,0,22,0,0
56534,-100,4,1,0,24,0,0
56834,-100,4,1,0,26,0,0
57134,-100,4,1,0,28,0,0
57434,-100,4,1,0,30,0,0
57659,-100,4,1,0,32,0,0
57884,-100,4,1,0,35,0,1
74646,-100,4,1,0,35,0,1
74684,-100,4,1,0,35,0,0
74834,-100,4,1,0,20,0,0
75434,-100,4,1,0,25,0,0
75734,-100,4,1,0,15,0,0
76934,-100,4,1,0,25,0,0
77234,-100,4,1,0,10,0,0
77834,-100,4,1,0,25,0,0
78134,-100,4,1,0,10,0,0
78584,-100,4,1,0,30,0,0
79184,-100,4,1,0,20,0,0
88934,-100,4,1,0,25,0,0
98534,-100,4,1,0,30,0,0
106934,-100,4,1,0,15,0,0
108434,-100,4,1,0,20,0,0
108734,-100,4,1,0,22,0,0
109184,-100,4,1,0,25,0,0
109634,-100,4,1,0,28,0,0
109934,-100,4,1,0,30,0,0
110271,-100,4,1,0,33,0,0
110534,-100,4,1,0,35,0,0
110684,-100,4,1,0,35,0,1
125159,-100,4,1,0,34,0,1
125309,-100,4,1,0,32,0,1
125534,-100,4,1,0,30,0,1
125684,-100,4,1,0,28,0,1
125834,-100,4,1,0,26,0,1
126134,-100,4,1,0,24,0,1
126434,-100,4,1,0,22,0,1
126584,-100,4,1,0,20,0,1
126734,-100,4,1,0,18,0,1
127034,-100,4,1,0,24,0,1
127259,-100,4,1,0,27,0,1
127409,-100,4,1,0,30,0,1
127484,-100,4,1,0,30,0,0
127634,-100,4,1,0,5,0,0
128009,-100,4,1,0,40,0,0
128084,-100,4,1,0,40,0,1
128234,-100,4,1,0,35,0,1
141734,-100,4,1,0,33,0,1
142034,-100,4,1,0,31,0,1
142296,-100,4,1,0,29,0,1
142484,-100,4,1,0,27,0,1
142671,-100,4,1,0,25,0,1
142934,-100,4,1,0,23,0,1
143196,-100,4,1,0,21,0,1
143384,-100,4,1,0,19,0,1
143571,-100,4,1,0,17,0,1
143834,-100,4,1,0,15,0,1
144059,-100,4,1,0,14,0,1
144134,-100,4,1,0,25,0,1
144284,-100,4,1,0,25,0,0
145184,-100.964391005516,4,1,0,20,0,0
146684,-102.408575365411,4,1,0,20,0,0
146834,-102.611238037547,4,1,0,20,0,0
147884,-104.149539532965,4,1,0,20,0,0
149084,-106.14711149642,4,1,0,20,0,0
149534,-106.959460931869,4,1,0,20,0,0
151484,-110.877385581683,4,1,0,20,0,0
152084,-112.215938283632,4,1,0,20,0,0
153884,-116.630890130252,4,1,0,20,0,0
154184,-117.427960755773,4,1,0,20,0,0
156284,-123.545763585543,4,1,0,20,0,0
156734,-125.480448810558,4,1,0,20,0,0
158684,-131.84915281851,4,1,0,19,0,0
159284,-100,4,1,0,18,0,0
159884,-100,4,1,0,17,0,0
160484,-100,4,1,0,16,0,0
161084,-141.875331331538,4,1,0,15,0,0
161684,-100,4,1,0,14,0,0
162284,-100,4,1,0,13,0,0
162884,-100,4,1,0,12,0,0
163484,-154.108883504953,4,1,0,11,0,0
164084,-100,4,1,0,10,0,0
164684,-100,4,1,0,9,0,0
165284,-100,4,1,0,8,0,0
165884,-169.262976655826,4,1,0,7,0,0
166484,-100,4,1,0,6,0,0
167084,-100,4,1,0,5,0,0
168284,-188.420155146051,4,1,0,5,0,0

[HitObjects]
0,0,2984,5,0,0:0:0:0:
320,64,3284,1,8,0:0:0:0:
64,64,3884,1,0,0:0:0:0:
320,64,4184,1,8,0:0:0:0:
64,64,5384,1,0,0:0:0:0:
320,64,5684,1,8,0:0:0:0:
0,0,6284,1,0,0:0:0:0:
0,0,6584,1,0,0:0:0:0:
64,64,7484,1,0,0:0:0:0:
320,64,9884,1,8,0:0:0:0:
64,64,12284,1,0,0:0:0:0:
64,64,14684,1,0,0:0:0:0:
0,0,17384,1,0,0:0:0:0:
320,64,17684,1,8,0:0:0:0:
64,64,18284,1,0,0:0:0:0:
320,64,18584,1,8,0:0:0:0:
64,64,19784,1,0,0:0:0:0:
320,64,20084,1,8,0:0:0:0:
64,64,20684,1,0,0:0:0:0:
0,0,20984,1,0,0:0:0:0:
0,0,22184,1,0,0:0:0:0:
320,64,22484,1,8,0:0:0:0:
64,64,23084,1,0,0:0:0:0:
0,0,23384,1,8,0:0:0:0:
0,0,24584,1,0,0:0:0:0:
320,64,24884,1,8,0:0:0:0:
64,64,25484,1,0,0:0:0:0:
0,0,25784,1,0,0:0:0:0:
0,0,26684,1,8,0:0:0:0:
64,64,29084,1,0,0:0:0:0:
64,64,32684,1,0,0:0:0:0:
64,64,33884,1,0,0:0:0:0:
320,64,35084,1,8,0:0:0:0:
64,64,36284,1,0,0:0:0:0:
0,0,36584,1,8,0:0:0:0:
64,64,37184,1,0,0:0:0:0:
320,64,37484,1,8,0:0:0:0:
320,64,38084,1,8,0:0:0:0:
0,0,38384,1,8,0:0:0:0:
64,64,38684,1,0,0:0:0:0:
0,0,38984,1,8,0:0:0:0:
64,64,39584,1,0,0:0:0:0:
0,0,39884,1,0,0:0:0:0:
0,0,40484,1,8,0:0:0:0:
320,64,40784,1,8,0:0:0:0:
0,0,41084,1,0,0:0:0:0:
0,0,41684,1,0,0:0:0:0:
0,0,42284,1,0,0:0:0:0:
320,64,42884,1,8,0:0:0:0:
0,0,43184,1,0,0:0:0:0:
320,64,43484,1,8,0:0:0:0:
64,64,44384,1,0,0:0:0:0:
320,64,44684,1,8,0:0:0:0:
320,64,45284,1,8,0:0:0:0:
0,0,45584,1,8,0:0:0:0:
64,64,45884,1,0,0:0:0:0:
320,64,46484,1,8,0:0:0:0:
64,64,47084,1,0,0:0:0:0:
0,0,47984,1,0,0:0:0:0:
320,64,48284,1,8,0:0:0:0:
0,0,48884,1,8,0:0:0:0:
64,64,49484,1,0,0:0:0:0:
0,0,49934,1,8,0:0:0:0:
320,64,50084,1,8,0:0:0:0:
64,64,50684,1,0,0:0:0:0:
320,64,51284,1,8,0:0:0:0:
64,64,51884,1,0,0:0:0:0:
64,64,52484,1,0,0:0:0:0:
320,64,53084,1,8,0:0:0:0:
0,0,53984,1,0,0:0:0:0:
320,64,54284,1,8,0:0:0:0:
320,64,54734,1,8,0:0:0:0:
0,0,55184,1,8,0:0:0:0:
64,64,55484,1,0,0:0:0:0:
0,0,56084,1,8,0:0:0:0:
0,0,56384,1,8,0:0:0:0:
0,0,56684,1,8,0:0:0:0:
0,0,56984,1,0,0:0:0:0:
0,0,57284,1,8,0:0:0:0:
0,0,57884,1,8,0:0:0:0:
0,0,58034,1,8,0:0:0:0:
320,64,58184,1,8,0:0:0:0:
0,0,58784,1,0,0:0:0:0:
320,64,59084,1,8,0:0:0:0:
0,0,59384,1,0,0:0:0:0:
320,64,59684,1,8,0:0:0:0:
64,64,60284,1,0,0:0:0:0:
0,0,60584,1,8,0:0:0:0:
0,0,61184,1,8,0:0:0:0:
0,0,61484,1,8,0:0:0:0:
0,0,62084,1,0,0:0:0:0:
0,0,62384,1,0,0:0:0:0:
0,0,62684,1,8,0:0:0:0:
0,0,62834,1,8,0:0:0:0:
0,0,62984,1,8,0:0:0:0:
0,0,63584,1,0,0:0:0:0:
320,64,63884,1,8,0:0:0:0:
0,0,64184,1,8,0:0:0:0:
64,64,64484,1,0,0:0:0:0:
0,0,65084,1,0,0:0:0:0:
0,0,65234,1,0,0:0:0:0:
0,0,65384,1,0,0:0:0:0:
0,0,65984,1,0,0:0:0:0:
320,64,66284,1,8,0:0:0:0:
0,0,66884,1,8,0:0:0:0:
0,0,67184,1,8,0:0:0:0:
64,64,67484,1,0,0:0:0:0:
0,0,67634,1,0,0:0:0:0:
0,0,67784,1,0,0:0:0:0:
0,0,68384,1,0,0:0:0:0:
0,0,68684,1,8,0:0:0:0:
0,0,69284,1,0,0:0:0:0:
0,0,69584,1,0,0:0:0:0:
320,64,69884,1,8,0:0:0:0:
0,0,70484,1,0,0:0:0:0:
320,64,71084,1,8,0:0:0:0:
320,64,71684,1,8,0:0:0:0:
0,0,71984,1,8,0:0:0:0:
64,64,72284,1,0,0:0:0:0:
0,0,72434,1,0,0:0:0:0:
0,0,72584,1,0,0:0:0:0:
0,0,73184,1,0,0:0:0:0:
0,0,73484,1,8,0:0:0:0:
0,0,74084,1,0,0:0:0:0:
0,0,74384,1,8,0:0:0:0:
0,0,74534,1,8,0:0:0:0:
64,64,74684,1,0,0:0:0:0:
320,64,74984,1,8,0:0:0:0:
64,64,75584,1,0,0:0:0:0:
320,64,75884,1,8,0:0:0:0:
64,64,77084,1,0,0:0:0:0:
320,64,77384,1,8,0:0:0:0:
0,0,77534,1,8,0:0:0:0:
0,0,77684,1,8,0:0:0:0:
64,64,77984,1,0,0:0:0:0:
320,64,78284,1,8,0:0:0:0:
320,64,78884,1,8,0:0:0:0:
64,64,79484,1,0,0:0:0:0:
320,64,79784,1,8,0:0:0:0:
320,64,80084,1,8,0:0:0:0:
0,0,80384,1,8,0:0:0:0:
64,64,80684,1,0,0:0:0:0:
320,64,81284,1,8,0:0:0:0:
0,0,81584,1,8,0:0:0:0:
64,64,81884,1,0,0:0:0:0:
0,0,82184,1,0,0:0:0:0:
320,64,82484,1,8,0:0:0:0:
64,64,83084,1,0,0:0:0:0:
320,64,84284,1,8,0:0:0:0:
320,64,84584,1,8,0:0:0:0:
320,64,84884,1,8,0:0:0:0:
0,0,85184,1,8,0:0:0:0:
64,64,85484,1,0,0:0:0:0:
64,64,86084,1,0,0:0:0:0:
0,0,86384,1,0,0:0:0:0:
320,64,86684,1,8,0:0:0:0:
320,64,86984,1,8,0:0:0:0:
320,64,87284,1,8,0:0:0:0:
64,64,87884,1,0,0:0:0:0:
64,64,89084,1,0,0:0:0:0:
320,64,89984,1,8,0:0:0:0:
64,64,90284,1,0,0:0:0:0:
0,0,90884,1,8,0:0:0:0:
64,64,91484,1,0,0:0:0:0:
320,64,92384,1,8,0:0:0:0:
64,64,92684,1,0,0:0:0:0:
64,64,93884,1,0,0:0:0:0:
64,64,94484,1,0,0:0:0:0:
64,64,95084,1,0,0:0:0:0:
320,64,95684,1,8,0:0:0:0:
320,64,96284,1,8,0:0:0:0:
0,0,96884,1,8,0:0:0:0:
64,64,97184,1,0,0:0:0:0:
320,64,97484,1,8,0:0:0:0:
0,0,98684,1,8,0:0:0:0:
0,0,101084,1,0,0:0:0:0:
64,64,104684,1,0,0:0:0:0:
64,64,105884,1,0,0:0:0:0:
320,64,107084,1,8,0:0:0:0:
64,64,108284,1,0,0:0:0:0:
320,64,108584,1,8,0:0:0:0:
0,0,108884,1,0,0:0:0:0:
0,0,109484,1,0,0:0:0:0:
320,64,109784,1,8,0:0:0:0:
0,0,110084,1,8,0:0:0:0:
64,64,110684,1,0,0:0:0:0:
0,0,110834,1,0,0:0:0:0:
0,0,110984,1,0,0:0:0:0:
0,0,111584,1,0,0:0:0:0:
320,64,111884,1,8,0:0:0:0:
0,0,112184,1,8,0:0:0:0:
0,0,112484,1,0,0:0:0:0:
64,64,113084,1,0,0:0:0:0:
0,0,113384,1,8,0:0:0:0:
0,0,114284,1,8,0:0:0:0:
0,0,114584,1,8,0:0:0:0:
0,0,114884,1,0,0:0:0:0:
64,64,115484,1,0,0:0:0:0:
0,0,115634,1,0,0:0:0:0:
0,0,115784,1,0,0:0:0:0:
320,64,116684,1,8,0:0:0:0:
0,0,116984,1,8,0:0:0:0:
64,64,117284,1,0,0:0:0:0:
64,64,117884,1,0,0:0:0:0:
0,0,118184,1,8,0:0:0:0:
0,0,118784,1,0,0:0:0:0:
320,64,119084,1,8,0:0:0:0:
320,64,119684,1,8,0:0:0:0:
64,64,120284,1,0,0:0:0:0:
0,0,120434,1,0,0:0:0:0:
0,0,120584,1,0,0:0:0:0:
0,0,121184,1,0,0:0:0:0:
0,0,121484,1,8,0:0:0:0:
64,64,122084,1,0,0:0:0:0:
64,64,122384,1,0,0:0:0:0:
320,64,122684,1,8,0:0:0:0:
64,64,123284,1,0,0:0:0:0:
320,64,123884,1,8,0:0:0:0:
320,64,124484,1,8,0:0:0:0:
0,0,124784,1,8,0:0:0:0:
64,64,125084,1,0,0:0:0:0:
0,0,125234,1,0,0:0:0:0:
0,0,125384,1,0,0:0:0:0:
0,0,125984,1,0,0:0:0:0:
320,64,126284,1,8,0:0:0:0:
0,0,126884,1,0,0:0:0:0:
0,0,127184,1,8,0:0:0:0:
0,0,127334,1,8,0:0:0:0:
64,64,127484,1,0,0:0:0:0:
0,0,128084,1,12,0:0:0:0:
0,0,128684,1,0,0:0:0:0:
0,0,128984,1,0,0:0:0:0:
320,64,129284,1,8,0:0:0:0:
64,64,129884,1,0,0:0:0:0:
0,0,130184,1,8,0:0:0:0:
0,0,130784,1,0,0:0:0:0:
64,64,131084,1,8,0:0:0:0:
320,64,131684,1,8,0:0:0:0:
0,0,131984,1,8,0:0:0:0:
64,64,132284,1,0,0:0:0:0:
0,0,132434,1,0,0:0:0:0:
0,0,132584,1,0,0:0:0:0:
320,64,133484,1,8,0:0:0:0:
0,0,133784,1,8,0:0:0:0:
64,64,134084,1,0,0:0:0:0:
64,64,134684,1,0,0:0:0:0:
320,64,134984,1,8,0:0:0:0:
0,0,135584,1,0,0:0:0:0:
320,64,135884,1,8,0:0:0:0:
320,64,136484,1,8,0:0:0:0:
0,0,137084,1,8,0:0:0:0:
0,0,137234,1,8,0:0:0:0:
0,0,137384,1,8,0:0:0:0:
0,0,137984,1,0,0:0:0:0:
320,64,138284,1,8,0:0:0:0:
320,64,138584,1,8,0:0:0:0:
64,64,138884,1,0,0:0:0:0:
320,64,139484,1,8,0:0:0:0:
64,64,140084,1,0,0:0:0:0:
320,64,140684,1,8,0:0:0:0:
320,64,141284,1,8,0:0:0:0:
0,0,141584,1,8,0:0:0:0:
64,64,141884,1,0,0:0:0:0:
0,0,142184,1,8,0:0:0:0:
0,0,142784,1,8,0:0:0:0:
0,0,143084,1,0,0:0:0:0:
0,0,143684,1,8,0:0:0:0:
0,0,143984,1,8,0:0:0:0:
0,0,144284,1,0,0:0:0:0:
0,0,145484,1,8,0:0:0:0:
0,0,146684,1,8,0:0:0:0:
0,0,147884,1,0,0:0:0:0:
0,0,149084,1,0,0:0:0:0:
0,0,151484,1,8,0:0:0:0:
0,0,153884,1,0,0:0:0:0:
0,0,156284,1,8,0:0:0:0:
0,0,158684,1,0,0:0:0:0:
