osu file format v14

[General]
AudioFilename: audio.mp3
AudioLeadIn: 0
PreviewTime: 57914
Countdown: 0
SampleSet: Soft
StackLeniency: 0.4
Mode: 0
LetterboxInBreaks: 0
WidescreenStoryboard: 1

[Editor]
Bookmarks: 58289
DistanceSpacing: 1
BeatDivisor: 4
GridSize: 4
TimelineZoom: 2.2

[Metadata]
Title:Netsujou no Spectrum (TV Size)
TitleUnicode:熱情のスペクトラム (TV Size)
Artist:Ikimonogakari
ArtistUnicode:いきものがかり
Creator:Petal
Version:Normal
Source:Nanatsu no Taizai
Tags:opening 七つの大罪 the seven deadly sins Japanese Anime short dkblaze AF affirmation Matha neoskylove
BeatmapID:2165823
BeatmapSetID:1035667

[Difficulty]
HPDrainRate:4
CircleSize:3.5
OverallDifficulty:4
ApproachRate:5
SliderMultiplier:0.999999999999999
SliderTickRate:1

[Events]
//Background and Video events
0,0,"BG.png",0,0
Video,-45,"Video.avi"
//Break Periods
//Storyboard Layer 0 (Background)
//Storyboard Layer 1 (Fail)
//Storyboard Layer 2 (Pass)
//Storyboard Layer 3 (Foreground)
//Storyboard Layer 4 (Overlay)
//Storyboard Sound Samples

[TimingPoints]
-236,375,4,2,2,40,1,0
1264,-100,4,2,2,40,0,0
3795,-100,4,2,2,5,0,0
3888,-100,4,2,2,40,0,0
4170,-100,4,2,2,5,0,0
4263,-100,4,2,2,40,0,0
11764,-100,4,2,1,50,0,0
13264,-100,4,2,1,60,0,0
24139,-100,4,2,1,30,0,0
24514,-100,4,2,1,60,0,0
24889,-100,4,2,1,30,0,0
25264,-100,4,2,1,60,0,0
29951,-100,4,2,1,65,0,0
30326,-100,4,2,1,70,0,0
31264,-100,4,2,1,50,0,0
43264,-100,4,2,1,60,0,0
57514,-100,4,2,1,45,0,0
57889,-100,4,2,1,50,0,0
58253,375,4,2,2,50,1,0
58253,-100,4,2,1,75,0,1
67253,-100,4,2,1,75,0,0
69128,-100,4,2,1,60,0,0
69221,-100,4,2,1,50,0,0
69315,-100,4,2,1,40,0,0
69409,-100,4,2,1,30,0,0
69878,-100,4,2,1,60,0,0
70253,-100,4,2,1,75,0,1
79065,-100,4,2,1,40,0,1
79253,-100,4,2,1,75,0,1
80753,-100,4,2,1,75,0,0
81128,-100,4,2,1,30,0,0
81503,-100,4,2,1,60,0,0
81878,-100,4,2,1,30,0,0
82253,-100,4,2,1,60,0,0
86729,375,4,2,2,60,1,0
86916,-100,4,2,1,65,0,0
87291,-100,4,2,1,70,0,0
87666,-100,4,2,1,60,0,0
88229,-100,4,2,1,60,0,0

[Colours]
Combo1 : 244,150,88
Combo2 : 248,222,131
Combo3 : 189,212,180
Combo4 : 221,114,128

[HitObjects]
53,338,1264,6,0,B|101:328|93:373|158:362,1,99.9999999999999,2|2,0:0|0:0,0:0:0:0:
217,292,2014,2,0,L|208:172,1,99.9999999999999,2|2,0:0|0:0,0:0:0:0:
163,103,2764,2,0,P|199:150|333:123,1,200,2|2,0:0|0:0,0:0:0:0:
387,55,3889,1,2,0:0:0:0:
456,126,4264,6,0,B|475:173|475:173|451:237,1,99.9999999999999,2|2,0:0|0:0,0:0:0:0:
360,242,5014,2,0,B|341:289|341:289|365:353,1,99.9999999999999,2|2,0:0|0:0,0:0:0:0:
262,363,5764,2,0,P|218:305|85:324,1,200,2|0,0:0|0:0,0:0:0:0:
46,225,6889,1,2,0:0:0:0:
97,139,7264,6,0,L|166:148,1,50,2|0,0:0|0:0,0:0:0:0:
191,123,7639,2,0,L|264:132,2,50,2|0|2,0:0|0:0|0:0,0:0:0:0:
202,222,8389,2,0,L|210:286,1,50,2|2,0:0|0:0,0:0:0:0:
214,321,8764,1,2,0:0:0:0:
297,265,9139,1,2,0:0:0:0:
378,322,9514,1,2,0:0:0:0:
460,265,9889,2,0,L|468:209,1,50,2|2,0:0|0:0,0:0:0:0:
469,165,10264,6,0,B|361:142|382:248|249:202,1,200,2|2,0:0|0:0,0:0:0:0:
214,137,11389,1,2,0:0:0:0:
141,206,11764,5,8,0:0:0:0:
141,206,11951,2,0,L|78:201,1,50,0|0,1:0|0:0,0:0:0:0:
43,218,12326,2,0,L|38:267,1,50,4|0,1:2|0:0,0:0:0:0:
35,317,12701,2,0,B|62:319|77:347|77:347|104:325|163:330,1,99.9999999999999,4|0,1:2|0:0,0:0:0:0:
162,357,13264,6,0,L|298:340,1,99.9999999999999,4|0,1:2|1:0,0:0:0:0:
330,272,14014,1,0,1:0:0:0:
411,329,14389,1,0,1:0:0:0:
474,251,14764,2,0,P|488:196|459:138,1,99.9999999999999,0|0,1:0|1:0,0:0:0:0:
406,83,15514,1,0,1:0:0:0:
311,115,15889,1,0,1:0:0:0:
216,148,16264,6,0,B|191:101|191:101|204:44,2,99.9999999999999,0|0|0,1:0|1:0|1:0,0:0:0:0:
297,206,17389,1,0,1:0:0:0:
234,280,17764,2,0,B|200:276|200:276|173:290|173:290|104:281,1,99.9999999999999,4|8,1:2|0:0,0:0:0:0:
39,268,18514,1,0,1:0:0:0:
30,168,18889,2,0,L|39:98,1,50,8|8,0:0|0:0,0:0:0:0:
44,68,19264,5,4,1:2:0:0:
129,119,19639,2,0,L|123:174,2,50,0|8|0,1:0|0:0|1:0,0:0:0:0:
222,84,20389,1,8,0:0:0:0:
297,149,20764,2,0,L|376:140,1,50,8|0,0:0|1:0,0:0:0:0:
392,162,21139,2,0,L|441:167,1,50,8|0,0:0|1:0,0:0:0:0:
491,164,21514,2,0,P|460:203|473:291,1,99.9999999999999,12|4,0:0|3:0,0:0:0:0:
415,343,22264,6,0,L|292:333,1,99.9999999999999,8|8,0:0|3:0,0:0:0:0:
228,383,23014,2,0,P|209:332|254:269,1,99.9999999999999,8|4,3:0|3:0,0:0:0:0:
304,231,23764,1,6,0:0:0:0:
183,71,24514,2,0,L|175:155,1,50,8|8,0:0|0:0,0:0:0:0:
57,210,25264,6,0,B|103:211|97:248|185:246,1,99.9999999999999,6|8,0:0|0:0,0:0:0:0:
194,222,25826,1,0,0:0:0:0:
194,222,26014,2,0,L|185:288,1,50,8|0,0:0|1:0,0:0:0:0:
276,315,26576,2,0,L|291:189,1,99.9999999999999,0|0,1:0|1:0,0:0:0:0:
316,174,27139,1,8,0:0:0:0:
401,225,27514,2,0,L|466:214,1,50,8|0,0:0|1:0,0:0:0:0:
468,118,28076,6,0,L|362:91,1,99.9999999999999,0|0,1:0|1:0,0:0:0:0:
335,57,28639,1,8,0:0:0:0:
242,19,29014,2,0,L|176:35,1,50,8|0,3:0|1:0,0:0:0:0:
144,20,29389,1,8,0:0:0:0:
144,20,29576,1,6,0:0:0:0:
170,116,29951,1,6,0:0:0:0:
90,176,30326,1,6,0:0:0:0:
163,243,30701,2,0,L|149:352,1,99.9999999999999,4|0,1:2|0:0,0:0:0:0:
194,365,31264,6,0,L|306:339,1,99.9999999999999,0|0,1:0|1:0,0:0:0:0:
389,323,32014,2,0,P|386:347|396:398,2,50,0|0|0,1:0|0:0|1:0,0:0:0:0:
425,288,32576,1,0,0:0:0:0:
425,288,32764,2,0,L|411:173,1,99.9999999999999,0|0,1:0|1:0,0:0:0:0:
341,119,33514,1,0,1:0:0:0:
275,194,33889,1,0,1:0:0:0:
187,145,34264,6,0,P|176:78|215:31,1,99.9999999999999,0|0,1:0|1:0,0:0:0:0:
234,30,34826,1,0,0:0:0:0:
234,30,35014,2,0,L|354:39,1,99.9999999999999,0|0,1:0|1:0,0:0:0:0:
431,14,35764,1,0,1:0:0:0:
478,101,36139,1,0,1:0:0:0:
423,184,36514,2,0,L|415:255,1,50,0|0,1:0|0:0,0:0:0:0:
407,282,36889,1,0,1:0:0:0:
314,243,37264,6,0,B|268:234|268:234|204:267,1,99.9999999999999,0|0,1:0|1:0,0:0:0:0:
138,315,38014,2,0,L|149:377,2,50,0|0|0,1:0|0:0|1:0,0:0:0:0:
95,289,38576,1,0,0:0:0:0:
95,289,38764,2,0,L|111:170,1,99.9999999999999,0|0,1:0|1:0,0:0:0:0:
51,107,39514,1,0,1:0:0:0:
129,44,39889,1,0,1:0:0:0:
221,82,40264,6,0,B|275:83|251:128|359:104,1,99.9999999999999,0|8,1:0|0:0,0:0:0:0:
361,94,40826,1,0,0:0:0:0:
361,94,41014,2,0,L|343:208,1,99.9999999999999,0|8,1:0|0:0,0:0:0:0:
387,283,41764,1,0,1:0:0:0:
298,329,42139,1,8,0:0:0:0:
212,277,42514,2,0,L|217:210,1,50,0|8,1:0|3:0,0:0:0:0:
210,127,43076,1,4,3:0:0:0:
210,127,43264,6,0,L|318:143,1,99.9999999999999,6|8,1:2|0:0,0:0:0:0:
408,128,44014,2,0,L|400:65,2,50,0|0|8,1:0|1:0|0:0,0:0:0:0:
438,168,44576,1,0,0:0:0:0:
438,168,44764,2,0,L|422:275,1,99.9999999999999,0|8,1:0|0:0,0:0:0:0:
328,298,45514,2,0,L|233:279,1,50,0|0,1:0|1:0,0:0:0:0:
229,278,45889,1,8,0:0:0:0:
151,341,46264,6,0,P|125:294|153:219,1,99.9999999999999,0|8,1:0|0:0,0:0:0:0:
181,163,47014,2,0,P|205:165|229:174,1,50,0|0,1:0|1:0,0:0:0:0:
275,193,47389,2,0,P|299:190|323:181,1,50,8|0,0:0|1:0,0:0:0:0:
365,154,47764,2,0,L|369:14,1,99.9999999999999,8|8,0:0|0:0,0:0:0:0:
281,4,48514,1,4,3:0:0:0:
195,55,48889,2,0,L|128:49,1,50,8|0,3:0|0:0,0:0:0:0:
97,35,49264,6,0,B|69:80|69:80|86:153,1,99.9999999999999,6|8,1:2|0:0,0:0:0:0:
134,209,50014,2,0,L|123:285,1,50,0|0,1:0|1:0,0:0:0:0:
95,297,50389,2,0,L|106:373,1,50,8|0,0:0|0:0,0:0:0:0:
144,373,50764,2,0,L|270:354,1,99.9999999999999,0|8,1:0|0:0,0:0:0:0:
336,323,51514,2,0,L|350:377,2,50,0|0|12,1:0|1:0|0:0,0:0:0:0:
357,277,52076,1,0,1:0:0:0:
357,277,52264,6,0,L|323:165,1,99.9999999999999,12|8,0:0|0:0,0:0:0:0:
295,86,53014,1,8,0:0:0:0:
201,121,53389,2,0,P|168:114|130:113,1,50,8|0,0:0|1:0,0:0:0:0:
103,99,53764,2,0,P|49:123|16:179,1,99.9999999999999,12|8,0:0|0:0,0:0:0:0:
47,251,54514,1,8,0:0:0:0:
137,294,54889,1,8,0:0:0:0:
228,253,55264,6,0,L|353:268,1,99.9999999999999,12|0,0:0|1:0,0:0:0:0:
366,296,55826,1,8,0:0:0:0:
366,296,56014,2,0,L|356:359,2,50,0|0|8,1:0|1:0|0:0,0:0:0:0:
456,253,56764,6,0,L|461:209,1,25,8|8,0:0|0:0,0:0:0:0:
371,138,57326,2,0,L|373:162,1,25,8|8,0:0|0:0,0:0:0:0:
196,22,58253,6,0,L|182:141,1,99.9999999999999,6|8,1:2|0:0,0:0:0:0:
122,200,59003,2,0,P|72:163|14:179,1,99.9999999999999,0|8,1:0|0:0,0:0:0:0:
5,260,59753,2,0,P|55:297|113:281,1,99.9999999999999,0|8,1:0|0:0,0:0:0:0:
187,273,60503,1,0,1:0:0:0:
249,350,60878,1,8,0:0:0:0:
318,278,61253,6,0,B|339:228|339:228|324:184,1,99.9999999999999,0|8,1:0|0:0,0:0:0:0:
261,106,62003,1,0,1:0:0:0:
332,35,62378,1,8,0:0:0:0:
393,113,62753,2,0,L|504:126,2,99.9999999999999,0|8|0,1:0|0:0|1:0,0:0:0:0:
332,35,63878,2,0,L|271:28,1,50,8|8,0:0|3:0,0:0:0:0:
232,22,64253,6,0,P|191:66|200:133,1,99.9999999999999,6|8,1:2|0:0,0:0:0:0:
199,152,64815,1,2,2:0:0:0:
199,152,65003,2,0,L|85:142,1,99.9999999999999,0|8,1:0|0:0,0:0:0:0:
26,212,65753,1,4,1:2:0:0:
96,283,66128,1,14,0:2:0:0:
37,363,66503,2,0,P|81:384|149:365,1,99.9999999999999,6|8,1:2|0:0,0:0:0:0:
168,345,67065,1,2,0:0:0:0:
168,345,67253,6,0,L|291:362,1,99.9999999999999,8|8,0:0|0:0,0:0:0:0:
345,296,68003,1,8,0:0:0:0:
428,351,68378,1,8,0:0:0:0:
482,267,68753,2,0,L|492:155,2,99.9999999999999,8|4|0,3:0|3:0|1:0,0:0:0:0:
428,351,69878,1,2,0:0:0:0:
345,296,70253,6,0,B|293:288|293:288|244:327,1,99.9999999999999,6|8,1:2|0:0,0:0:0:0:
159,344,71003,2,0,L|148:231,1,99.9999999999999,0|8,1:0|0:0,0:0:0:0:
167,146,71753,2,0,P|221:172|290:156,1,99.9999999999999,0|8,1:0|0:0,0:0:0:0:
333,101,72503,1,0,1:0:0:0:
411,163,72878,1,8,0:0:0:0:
493,106,73253,6,0,L|501:-4,2,99.9999999999999,0|8|0,1:0|0:0|1:0,0:0:0:0:
411,163,74378,1,8,0:0:0:0:
489,224,74753,2,0,L|496:333,1,99.9999999999999,0|8,1:0|0:0,0:0:0:0:
402,361,75503,2,0,L|322:348,1,50,8|4,0:0|3:0,0:0:0:0:
311,324,75878,1,8,0:0:0:0:
220,366,76253,6,0,L|216:256,1,99.9999999999999,6|0,0:0|1:0,0:0:0:0:
194,221,76815,1,8,0:0:0:0:
194,221,77003,2,0,P|260:236|300:195,1,99.9999999999999,0|8,1:0|0:0,0:0:0:0:
342,139,77753,1,14,0:0:0:0:
298,48,78128,1,14,0:0:0:0:
198,45,78503,1,12,0:0:0:0:
134,122,78878,2,0,L|64:123,1,50,8|4,0:0|3:0,0:0:0:0:
34,115,79253,6,0,L|46:257,1,99.9999999999999,6|4,1:2|3:0,0:0:0:0:
86,304,80003,1,8,3:0:0:0:
169,248,80378,1,4,3:0:0:0:
244,312,80753,1,14,1:2:0:0:
370,157,81503,2,0,L|375:107,1,50,8|8,0:0|0:0,0:0:0:0:
447,239,82253,6,0,P|396:268|335:257,1,99.9999999999999,6|8,1:2|0:0,0:0:0:0:
313,245,82815,1,4,3:0:0:0:
313,245,83003,2,0,L|235:251,1,50,8|0,0:0|1:0,0:0:0:0:
179,194,83565,2,0,L|161:311,1,99.9999999999999,4|0,0:0|1:0,0:0:0:0:
123,322,84128,1,8,0:0:0:0:
51,252,84503,2,0,L|61:190,1,50,8|0,0:0|1:0,0:0:0:0:
88,107,85065,6,0,P|115:135|176:135,1,99.9999999999999,6|0,1:2|1:0,0:0:0:0:
214,107,85628,2,0,L|214:27,1,50,8|0,0:0|1:0,0:0:0:0:
182,17,86003,1,8,0:0:0:0:
182,17,86190,1,0,1:0:0:0:
284,7,86565,5,6,0:0:0:0:
356,75,86916,1,6,0:0:0:0:
293,152,87291,1,6,0:0:0:0:
368,217,87666,2,0,B|390:258|390:258|348:366,1,150,6|4,1:2|0:0,0:0:0:0:
