osu file format v14

[General]
AudioFilename: audio.mp3
AudioLeadIn: 0
PreviewTime: 57494
Countdown: 0
SampleSet: Soft
StackLeniency: 0.7
Mode: 0
LetterboxInBreaks: 0
WidescreenStoryboard: 1

[Editor]
DistanceSpacing: 1
BeatDivisor: 4
GridSize: 4
TimelineZoom: 1

[Metadata]
Title:Netsujou no Spectrum (TV Size)
TitleUnicode:熱情のスペクトラム (TV Size)
Artist:Ikimonogakari
ArtistUnicode:いきものがかり
Creator:GIDZ
Version:Normal
Source:Nanatsu no Taizai
Tags:七つの大罪 the seven deadly sins OP Opening short japanese jpop anime Elizabeth Meliodas Diane Gowther Ban King Merlin PaRaDogi
BeatmapID:2599380
BeatmapSetID:1250507

[Difficulty]
HPDrainRate:4
CircleSize:3
OverallDifficulty:4.5
ApproachRate:5
SliderMultiplier:1
SliderTickRate:1

[Events]
//Background and Video events
0,0,"seven bg.jpg",0,0
Video,0,"Video.avi"
//Break Periods
//Storyboard Layer 0 (Background)
//Storyboard Layer 1 (Fail)
//Storyboard Layer 2 (Pass)
//Storyboard Layer 3 (Foreground)
//Storyboard Layer 4 (Overlay)
//Storyboard Sound Samples

[TimingPoints]
-246,375,4,2,1,50,1,0
31254,-100,4,2,1,40,0,0
42504,-100,4,2,1,50,0,0
48879,-100,4,2,1,40,0,0
49254,-100,4,2,1,50,0,0
52254,-100,4,2,1,60,0,0
55254,-100,4,2,1,70,0,0
55816,-100,4,2,1,80,0,0
56379,-100,4,2,1,90,0,0
56754,-100,4,2,1,70,0,0
58233,375,4,2,1,50,1,0
58233,-100,4,2,1,70,0,1
79420,-100,4,2,1,50,0,1
79983,-100,4,2,1,60,0,1
80358,-100,4,2,1,70,0,1
80733,-100,4,2,1,50,0,0
88608,-100,4,2,1,30,0,0
88983,-100,4,2,1,10,0,0
89545,-100,4,2,1,5,0,0

[Colours]
Combo1 : 128,128,255
Combo2 : 0,176,0
Combo3 : 9,119,255
Combo4 : 255,36,36

[HitObjects]
206,301,1254,6,0,L|325:300,1,100,2|2,0:0|0:0,0:0:0:0:
406,296,2004,2,0,P|389:240|358:211,1,100,2|2,0:0|0:0,0:0:0:0:
280,151,2754,1,2,0:0:0:0:
87,206,3504,6,0,P|69:152|88:101,1,100,2|2,0:0|0:0,0:0:0:0:
177,88,4254,2,0,P|195:142|176:193,2,100,2|2|2,0:0|0:0|0:0,0:0:0:0:
105,17,5379,1,2,0:0:0:0:
204,6,5754,2,0,P|317:7|338:82,1,200,2|0,0:0|0:0,0:0:0:0:
326,175,6879,1,2,0:0:0:0:
241,228,7254,6,0,L|452:209,1,200,2|2,0:0|0:0,0:0:0:0:
491,296,8379,2,0,P|469:322|467:344,1,50,2|2,0:0|0:0,0:0:0:0:
416,345,8754,2,0,L|305:351,1,100,2|2,0:0|0:0,0:0:0:0:
217,334,9504,2,0,P|168:310|151:267,1,100,2|2,0:0|0:0,0:0:0:0:
76,203,10254,6,0,B|128:168|128:168|192:191|192:191|263:154,1,200,2|2,0:1|0:0,0:0:0:0:
336,101,11379,1,2,0:0:0:0:
430,132,11754,2,0,L|431:244,2,100,12|2|2,0:0|0:0|0:0,0:0:0:0:
392,39,12879,1,2,0:0:0:0:
334,120,13254,6,0,L|335:239,1,100,4|0,1:1|1:1,0:0:0:0:
249,166,14004,2,0,L|249:265,1,100,0|0,1:1|1:1,0:0:0:0:
188,345,14754,1,0,1:1:0:0:
52,198,15504,2,0,L|52:81,1,100,0|0,1:1|1:1,0:0:0:0:
151,85,16254,6,0,P|215:102|255:81,2,100,0|0|0,1:1|1:1|1:1,0:0:0:0:
78,16,17379,1,0,1:1:0:0:
51,112,17754,2,0,P|36:162|42:214,1,100,4|2,1:1|0:3,0:0:0:0:
85,298,18504,1,8,0:0:0:0:
125,326,18691,2,0,L|183:321,1,50,8|8,0:0|0:0,0:0:0:0:
225,322,19066,1,8,0:0:0:0:
273,336,19254,6,0,P|332:342|371:260,1,150,4|12,1:1|0:0,0:0:0:0:
358,223,20004,1,0,1:0:0:0:
414,139,20379,2,0,L|413:84,1,50,8|2,0:0|0:0,0:0:0:0:
385,48,20754,2,0,P|344:65|290:54,1,100,8|8,0:0|0:0,0:0:0:0:
197,19,21504,1,14,0:0:0:0:
108,65,21879,1,8,0:3:0:0:
85,167,22254,6,0,L|82:284,2,100,8|8|8,0:0|0:0|0:0,0:0:0:0:
182,190,23379,1,8,0:0:0:0:
275,225,23754,1,4,0:0:0:0:
426,93,24504,5,8,0:0:0:0:
404,48,24691,1,8,0:0:0:0:
275,125,25254,6,0,L|274:245,1,100,4|8,1:1|0:0,0:0:0:0:
319,245,25816,2,0,P|348:233|373:236,1,50,2|8,0:0|0:0,0:0:0:0:
415,242,26191,1,0,1:1:0:0:
376,333,26566,2,0,L|271:333,1,100,4|0,1:1|1:1,0:0:0:0:
229,351,27129,2,0,P|205:337|197:303,1,50,8|0,0:0|1:1,0:0:0:0:
176,271,27504,2,0,L|110:272,1,50,8|0,0:0|1:1,0:0:0:0:
46,211,28066,6,0,P|85:177|149:181,1,100,4|0,1:1|1:1,0:0:0:0:
181,181,28629,2,0,P|211:187|242:177,1,50,8|8,0:0|0:0,0:0:0:0:
277,166,29004,2,0,P|282:136|270:108,1,50,8|0,0:0|1:1,0:0:0:0:
250,74,29379,1,8,0:0:0:0:
284,37,29566,2,0,L|398:37,1,100,2|2,0:3|0:3,0:0:0:0:
365,132,30316,2,0,L|485:131,1,100,2|2,0:3|0:3,0:0:0:0:
467,287,31254,6,0,P|417:327|375:313,1,100,4|2,1:1|0:0,0:0:0:0:
343,293,31816,1,0,0:0:0:0:
299,267,32004,2,0,L|229:259,1,50,0|0,1:0|0:0,0:0:0:0:
203,242,32379,1,2,0:0:0:0:
104,224,32754,2,0,P|84:293|103:332,1,100,0|2,1:0|0:0,0:0:0:0:
184,357,33504,2,0,L|302:353,1,100,0|2,1:0|0:0,0:0:0:0:
382,334,34254,6,0,P|438:343|479:315,2,100,0|2|0,1:0|0:0|1:0,0:0:0:0:
338,248,35379,1,2,0:0:0:0:
390,163,35754,2,0,P|402:132|394:102,2,50,0|2|0,1:0|0:0|0:0,0:0:0:0:
340,155,36316,1,0,0:0:0:0:
295,132,36504,2,0,P|223:110|178:117,1,100,0|0,1:0|1:0,0:0:0:0:
110,158,37254,6,0,L|109:274,1,100,4|2,1:0|0:0,0:0:0:0:
109,308,37816,1,0,0:0:0:0:
135,350,38004,2,0,P|163:338|200:331,1,50,0|0,1:0|0:0,0:0:0:0:
231,335,38379,1,2,0:0:0:0:
324,299,38754,2,0,P|305:249|316:190,1,100,0|2,1:0|0:0,0:0:0:0:
415,179,39504,2,0,P|426:120|410:72,1,100,0|2,1:0|0:0,0:0:0:0:
385,42,40066,1,0,0:0:0:0:
337,47,40254,6,0,P|301:72|232:66,1,100,0|8,1:0|0:0,0:0:0:0:
223,169,41004,2,0,L|335:162,1,100,0|8,1:0|0:0,0:0:0:0:
394,232,41754,2,0,P|360:285|324:297,1,100,0|8,1:0|0:0,0:0:0:0:
229,273,42504,2,0,L|230:343,1,50,8|8,0:0|0:3,0:0:0:0:
138,364,43066,1,4,0:3:0:0:
88,356,43254,6,0,P|59:296|60:249,1,100,4|8,1:0|0:0,0:0:0:0:
67,214,43816,1,2,0:0:0:0:
98,175,44004,2,0,L|163:168,1,50,0|0,1:0|0:0,0:0:0:0:
197,165,44379,1,8,0:0:0:0:
294,204,44754,2,0,P|351:228|408:220,1,100,0|8,1:0|0:0,0:0:0:0:
458,154,45504,2,0,P|399:123|352:130,1,100,0|8,1:0|0:0,0:0:0:0:
318,133,46066,1,2,0:0:0:0:
274,108,46254,6,0,L|157:102,2,100,0|8|0,1:0|0:0|1:0,0:0:0:0:
283,8,47379,2,0,P|313:2|340:6,1,50,8|0,0:0|1:0,0:0:0:0:
377,25,47754,2,0,P|419:55|430:122,1,100,8|8,0:0|0:0,0:0:0:0:
440,199,48504,1,8,0:3:0:0:
387,285,48879,2,0,P|359:274|321:278,1,50,4|4,0:3|0:3,0:0:0:0:
303,308,49254,6,0,L|180:303,1,100,4|8,0:0|0:0,0:0:0:0:
156,320,49816,1,2,0:0:0:0:
111,296,50004,2,0,P|124:266|121:235,1,50,0|2,1:0|0:0,0:0:0:0:
103,203,50379,1,8,0:0:0:0:
95,103,50754,2,0,P|172:118|209:101,1,100,0|8,1:1|0:0,0:0:0:0:
279,66,51504,2,0,P|351:46|397:57,1,100,0|10,1:0|0:0,0:0:0:0:
417,74,52066,1,0,1:0:0:0:
456,105,52254,6,0,L|459:224,1,100,8|8,0:0|0:0,0:0:0:0:
457,255,52816,1,0,1:0:0:0:
431,298,53004,2,0,P|400:290|376:294,1,50,8|0,0:0|1:0,0:0:0:0:
338,316,53379,1,8,0:0:0:0:
239,331,53754,2,0,L|241:262,1,50,8|0,0:0|1:0,0:0:0:0:
246,231,54129,2,0,L|249:165,1,50,8|0,0:0|1:0,0:0:0:0:
262,133,54504,1,8,0:0:0:0:
285,35,54879,1,8,0:0:0:0:
185,33,55254,6,0,P|93:53|112:153,1,200,8|0,0:0|1:0,0:0:0:0:
164,217,56379,1,8,0:0:0:0:
111,302,56754,1,8,0:0:0:0:
260,302,57316,1,8,0:0:0:0:
432,121,58233,6,0,B|391:145|391:145|331:120,1,100,4|8,1:0|0:0,0:0:0:0:
310,86,58795,1,2,0:0:0:0:
260,89,58983,2,0,L|263:209,2,100,0|8|0,1:0|0:0|1:0,0:0:0:0:
187,18,60108,1,8,0:0:0:0:
92,50,60483,2,0,P|59:85|63:147,1,100,0|8,1:0|0:0,0:0:0:0:
74,233,61233,6,0,P|125:210|183:222,1,100,0|8,1:0|0:0,0:0:0:0:
190,259,61795,1,2,0:0:0:0:
220,299,61983,2,0,L|283:291,1,50,0|2,1:0|0:0,0:0:0:0:
318,283,62358,1,8,0:0:0:0:
416,264,62733,2,0,P|429:222|410:171,1,100,0|8,1:0|0:0,0:0:0:0:
363,89,63483,2,0,P|306:120|258:100,1,100,0|8,1:0|0:0,0:0:0:0:
235,81,64045,1,8,0:0:0:0:
188,98,64233,6,0,L|193:211,1,100,4|8,1:0|0:0,0:0:0:0:
195,297,64983,1,0,1:0:0:0:
102,259,65358,2,0,P|86:237|85:203,1,50,8|8,0:0|0:0,0:0:0:0:
86,164,65733,1,4,1:1:0:0:
141,81,66108,1,4,1:1:0:0:
234,46,66483,1,4,1:0:0:0:
331,69,66858,2,0,P|320:101|325:131,1,50,8|2,0:0|0:0,0:0:0:0:
356,152,67233,6,0,L|244:147,1,100,8|8,0:0|0:0,0:0:0:0:
221,241,67983,2,0,L|102:239,1,100,8|8,0:0|0:0,0:0:0:0:
71,245,68545,1,8,0:0:0:0:
41,286,68733,2,0,P|62:316|94:323,1,50,8|8,0:0|0:0,0:0:0:0:
119,337,69108,2,0,L|189:336,1,50,8|8,0:0|0:0,0:0:0:0:
219,335,69483,1,2,0:0:0:0:
318,346,69858,1,0,1:0:0:0:
408,302,70233,6,0,B|368:271|368:271|378:202,1,100,4|8,1:0|0:0,0:0:0:0:
410,187,70795,1,2,0:0:0:0:
399,137,70983,2,0,L|292:134,2,100,0|8|0,1:0|0:0|1:0,0:0:0:0:
456,55,72108,1,8,0:0:0:0:
362,18,72483,2,0,P|323:40|265:31,1,100,0|8,1:0|0:0,0:0:0:0:
168,29,73233,6,0,P|118:23|72:40,1,100,0|8,1:0|0:0,0:0:0:0:
43,82,73795,1,2,0:0:0:0:
60,128,73983,2,0,P|86:145|120:148,1,50,0|2,1:0|0:0,0:0:0:0:
154,149,74358,1,8,0:0:0:0:
260,156,74733,2,0,P|300:126|357:134,1,100,0|8,1:0|0:0,0:0:0:0:
419,198,75483,1,8,0:0:0:0:
370,283,75858,2,0,L|319:280,1,50,8|8,0:0|0:0,0:0:0:0:
281,312,76233,6,0,P|230:328|183:298,1,100,4|0,1:0|1:0,0:0:0:0:
153,274,76795,2,0,L|154:219,1,50,8|0,0:0|1:0,0:0:0:0:
173,125,77358,2,0,P|206:133|239:121,1,50,8|0,0:0|1:0,0:0:0:0:
265,106,77733,1,12,0:0:0:0:
363,87,78108,1,12,0:0:0:0:
402,179,78483,2,0,L|398:299,1,100,12|8,0:0|0:3,0:0:0:0:
393,328,79045,1,4,0:3:0:0:
343,333,79233,6,0,P|306:322|285:325,1,50,0|8,1:0|0:0,0:0:0:0:
249,344,79608,2,0,L|179:343,1,50,8|8,0:0|0:0,0:0:0:0:
148,342,79983,1,8,0:0:0:0:
48,353,80358,2,0,P|39:304|45:251,1,100,8|12,0:0|0:0,0:0:0:0:
167,91,81483,5,12,0:0:0:0:
209,64,81670,1,12,0:0:0:0:
266,203,82233,6,0,P|322:214|350:188,1,100,4|8,1:2|0:0,0:0:0:0:
377,147,82795,2,0,P|406:140|429:144,1,50,8|8,0:0|0:0,0:0:0:0:
465,173,83170,1,0,1:0:0:0:
449,271,83545,2,0,P|380:308|345:303,1,100,4|0,1:0|1:0,0:0:0:0:
316,296,84108,2,0,P|291:310|280:329,1,50,8|8,0:0|0:0,0:0:0:0:
232,344,84483,2,0,L|161:343,1,50,8|0,0:0|1:0,0:0:0:0:
88,308,85045,6,0,B|51:267|51:267|67:206,1,100,4|0,1:0|1:0,0:0:0:0:
85,179,85608,2,0,L|152:172,1,50,8|0,0:0|1:0,0:0:0:0:
181,155,85983,2,0,L|250:148,1,50,8|2,0:0|0:3,0:0:0:0:
318,197,86545,2,0,B|298:241|298:241|324:302,2,100,2|4|2,0:3|0:0|0:3,0:0:0:0:
402,142,87670,1,2,0:3:0:0:
299,32,88233,1,4,0:0:0:0:
256,192,88326,12,0,89545,0:0:0:0:
