osu file format v14

[General]
AudioFilename: audio.ogg
AudioLeadIn: 0
PreviewTime: 51544
Countdown: 0
SampleSet: Soft
StackLeniency: 1
Mode: 0
LetterboxInBreaks: 0
WidescreenStoryboard: 1

[Editor]
DistanceSpacing: 1
BeatDivisor: 4
GridSize: 32
TimelineZoom: 2.2

[Metadata]
Title:HANABI (TV Size)
TitleUnicode:HANABI (TV Size)
Artist:Ikimonogakari
ArtistUnicode:いきものがかり
Creator:-Mikan
Version:Petals
Source:BLEACH
Tags:djulus m3gb3g [NASRAL] -mikanmymommy mikan bazz_b bazz b aishiteiru- froskya Revialink anime japanese ikimono gakari jpop j-pop pop ending ed 7 ブリーチ
BeatmapID:4037585
BeatmapSetID:1462353

[Difficulty]
HPDrainRate:5
CircleSize:4.2
OverallDifficulty:8.8
ApproachRate:9
SliderMultiplier:1.6
SliderTickRate:1

[Events]
//Background and Video events
0,0,"FeuAXlGakAAfdnG.jpg",0,0
Video,-310,"output.mp4"
//Break Periods
//Storyboard Layer 0 (Background)
//Storyboard Layer 1 (Fail)
//Storyboard Layer 2 (Pass)
//Storyboard Layer 3 (Foreground)
//Storyboard Layer 4 (Overlay)
//Storyboard Sound Samples

[TimingPoints]
497,359.281437125748,4,2,1,40,1,0
497,-250,4,2,1,40,0,0
4808,-200,4,2,1,40,0,0
7682,357.142857142857,4,2,1,40,1,0
7682,-250,4,2,1,40,0,0
8396,-250,4,2,1,35,0,0
9110,375,4,2,1,30,1,0
9110,-400,4,2,1,30,0,0
9860,351.906158357771,4,2,1,25,1,0
10563,357.142857142857,4,2,1,20,1,0
10563,-769.230769230769,4,2,1,20,0,0
11544,-500,4,2,1,5,0,0
11634,358.20895522388,4,2,1,70,1,0
11634,-66.6666666666667,4,2,1,70,0,0
11902,-66.6666666666667,4,2,1,5,0,0
11992,-111.111111111111,4,2,1,70,0,0
12887,-90.9090909090909,4,2,1,70,0,0
13156,-90.9090909090909,4,2,1,5,0,0
13245,-90.9090909090909,4,2,1,70,0,0
14499,-66.6666666666667,4,2,1,70,0,0
14768,-66.6666666666667,4,2,1,5,0,0
14857,-111.111111111111,4,2,1,70,0,0
15753,-76.9230769230769,4,2,1,70,0,0
16022,-76.9230769230769,4,2,1,5,0,0
16111,-76.9230769230769,4,2,1,70,0,0
17365,-66.6666666666667,4,2,1,70,0,0
17633,-66.6666666666667,4,2,1,5,0,0
17723,-111.111111111111,4,2,1,70,0,0
18619,-83.3333333333333,4,2,1,70,0,0
18887,-83.3333333333333,4,2,1,5,0,0
18977,-83.3333333333333,4,2,1,70,0,0
20231,-66.6666666666667,4,2,1,70,0,0
20499,-66.6666666666667,4,2,1,5,0,0
20589,-111.111111111111,4,2,1,70,0,0
20857,-111.111111111111,4,2,1,5,0,0
20947,-111.111111111111,4,2,1,70,0,0
21484,370.37037037037,4,2,1,60,1,0
22502,-100,4,2,1,5,0,0
22595,357.142857142857,4,2,1,60,1,0
22764,-142.857142857143,4,2,1,50,0,0
23130,384.615384615385,4,2,1,50,1,0
23130,-125,4,2,1,50,0,0
23418,-125,4,2,1,5,0,0
23514,352.941176470588,4,2,1,50,1,0
23857,-125,4,2,1,50,0,0
24396,-118.343195266272,4,2,1,50,0,0
24563,359.281437125748,4,2,1,50,1,0
24742,-125,4,2,1,50,0,0
26269,-125,4,2,1,5,0,0
26359,-125,4,2,1,50,0,0
28874,-100,4,2,1,50,0,0
29143,-100,4,2,1,5,0,0
29233,-125,4,2,1,50,0,0
32018,-125,4,2,1,5,0,0
32107,-125,4,2,1,50,0,0
33175,359.281437125748,4,2,1,50,1,0
33175,-125,4,2,1,50,0,0
34881,-125,4,2,1,5,0,0
34971,-125,4,2,1,50,0,0
36318,-125,4,2,1,5,0,0
36408,-125,4,2,1,50,0,0
37755,-125,4,2,1,5,0,0
37845,-125,4,2,1,50,0,0
38923,-100,4,2,1,50,0,0
39192,-100,4,2,1,5,0,0
39282,-100,4,2,1,50,0,0
39462,-125,4,2,1,50,0,0
43234,-111.111111111111,4,2,1,60,0,0
44323,363.636363636363,4,2,1,60,1,0
44368,-100,4,2,1,5,0,0
44504,-83.3333333333333,4,2,1,60,0,0
44777,-83.3333333333333,4,2,1,5,0,0
44868,-100,4,2,1,60,0,0
45050,357.142857142857,4,2,1,60,1,0
45228,-76.9230769230769,4,2,1,60,0,0
45496,-76.9230769230769,4,2,1,5,0,0
45585,-76.9230769230769,4,2,1,60,0,0
46121,357.675111773472,4,2,1,60,1,0
46657,-90.9090909090909,4,2,1,60,0,0
46925,-90.9090909090909,4,2,1,5,0,0
47015,-90.9090909090909,4,2,1,60,0,0
47372,-166.666666666667,4,2,1,60,0,0
47909,-200,4,2,1,60,0,0
48356,-200,4,2,1,5,0,0
48445,-200,4,2,1,60,0,0
48982,-100,4,2,1,60,0,0
49340,348.837209302326,4,2,1,60,1,0
49688,-100,4,2,1,40,0,0
49776,-100,4,2,1,45,0,0
49863,-100,4,2,1,50,0,0
49950,-100,4,2,1,55,0,0
50037,-100,4,2,1,60,0,0
50212,365.853658536585,4,2,1,60,1,0
50212,-66.6666666666667,4,2,1,60,0,0
50486,-66.6666666666667,4,2,1,5,0,0
50577,-100,4,2,1,60,0,0
50760,344.827586206897,4,2,1,60,1,0
50932,-100,4,2,1,70,0,0
50975,-100,4,2,1,5,0,0
51277,357.142857142857,4,2,1,70,1,0
51321,-100,4,2,1,5,0,0
51634,-100,4,2,1,70,0,0
51812,365.853658536585,4,2,1,80,1,1
52086,-100,4,2,1,5,0,1
52177,361.44578313253,4,2,1,80,1,1
53272,363.636363636363,4,2,1,80,1,1
56181,350.877192982456,4,2,1,80,1,1
57584,361.44578313253,4,2,1,80,1,1
60475,357.142857142857,4,2,1,80,1,1
62975,-66.6666666666667,4,2,1,80,0,1
63242,-66.6666666666667,4,2,1,5,0,0
63332,368.098159509202,4,2,1,80,1,1
63332,-83.3333333333333,4,2,1,80,0,1
63608,-83.3333333333333,4,2,1,5,0,1
63700,-100,4,2,1,80,0,1
64804,357.142857142857,4,2,1,80,1,1
67661,359.281437125748,4,2,1,80,1,1
72690,384.615384615384,4,2,1,80,1,1
73074,359.281437125748,4,2,1,80,1,1
73253,-66.6666666666667,4,2,1,80,0,1
73523,-66.6666666666667,4,2,1,5,0,1
73612,-66.6666666666667,4,2,1,80,0,1
73792,348.837209302326,4,2,1,80,1,1
74838,359.281437125748,4,2,1,80,1,0
74838,-133.333333333333,4,2,1,60,0,0
76275,-100,4,2,1,60,0,0
76903,-100,4,2,1,5,0,0
76993,-400,4,2,1,60,0,0
77622,-400,4,2,1,5,0,0
77712,-66.6666666666667,4,2,1,70,0,0
77981,-66.6666666666667,4,2,1,5,0,0
78071,-111.111111111111,4,2,1,70,0,0
78969,-76.9230769230769,4,2,1,70,0,0
79239,-76.9230769230769,4,2,1,5,0,0
79329,-76.9230769230769,4,2,1,70,0,0
80586,363.636363636363,4,2,1,80,1,0
80586,-66.6666666666667,4,2,1,70,0,0
80858,-66.6666666666667,4,2,1,5,0,0
80949,-100,4,2,1,70,0,0
81313,352.941176470588,4,2,1,80,1,0
81665,-66.6666666666667,4,2,1,70,0,0
81842,-156.25,4,2,2,70,0,0
82018,352.941176470588,4,2,1,80,1,0
82370,-156.25,4,2,2,60,0,0
83076,-156.25,4,2,1,50,0,0
83782,-156.25,4,2,2,40,0,0
84312,-156.25,4,2,1,30,0,0
84665,-156.25,4,2,2,20,0,0
84841,-156.25,4,2,1,5,0,0

[Colours]
Combo1 : 153,255,255
Combo2 : 248,208,135
Combo3 : 255,181,218
Combo4 : 203,203,228

[HitObjects]
137,286,317,5,2,0:0:0:0:
137,286,497,2,0,B|226:291|228:231|329:248,1,192,4|0,3:0|0:0,0:0:0:0:
481,48,1754,5,2,3:2:0:0:
481,48,1934,2,0,B|517:47|527:70|527:70|501:57|427:69|418:131,1,192,4|0,3:0|0:0,0:0:0:0:
428,338,3371,6,0,B|445:356|443:376|443:376|497:340|497:271|451:238,1,192,4|0,3:0|0:0,0:0:0:0:
395,203,4628,1,2,3:2:0:0:
321,246,4808,5,4,3:0:0:0:
321,246,4988,2,0,B|261:242|260:220|196:219,1,120,2|2,0:0|0:0,0:0:0:0:
143,281,5796,5,2,0:0:0:0:
193,345,6065,5,2,3:2:0:0:
0,301,6245,6,0,B|65:264|119:320|119:320|103:355,1,160,4|0,3:0|0:0,0:0:0:0:
107,345,7502,5,2,3:2:0:0:
107,345,7682,2,0,B|103:334|93:328|93:328|115:222,1,128,4|2,3:0|0:0,0:0:0:0:
9,18,9110,6,0,P|30:49|29:94,1,80,2|2,0:0|0:0,0:0:0:0:
26,100,10563,6,0,L|83:87,1,57.1999996508789,2|0,0:0|0:0,0:0:0:0:
223,109,11634,6,2,B|173:91|170:6|234:-10|234:-10|298:21,1,180.000006866455,6|0,3:1|0:0,0:1:0:0:
261,12,11992,2,2,P|227:37|185:33,1,71.9999978027344,2|0,1:0|3:0,0:1:0:0:
15,258,12350,5,8,0:1:0:0:
36,225,12439,1,8,0:1:0:0:
71,209,12529,1,10,0:1:0:0:
109,210,12619,1,2,1:1:0:0:
118,217,12708,6,0,L|154:226,1,35.9999989013672,2|0,1:1|0:0,0:0:0:0:
264,319,12887,2,2,B|339:312|310:277|394:266,1,132.00000402832,4|0,3:2|0:0,0:1:0:0:
398,276,13245,5,0,3:0:0:0:
368,185,13425,1,8,1:2:0:0:
418,106,13604,5,0,3:0:0:0:
366,358,13783,1,2,1:3:0:0:
202,31,13962,5,0,3:0:0:0:
239,163,14141,1,2,1:3:0:0:
325,72,14320,5,2,0:1:0:0:
318,86,14410,1,2,0:1:0:0:
331,111,14499,6,2,B|304:125|290:147|290:147|248:130|156:112,1,180.000006866455,6|0,3:1|0:0,0:1:0:0:
29,67,14857,2,0,P|65:61|100:47,1,71.9999978027344,2|0,1:0|3:0,0:0:0:0:
239,163,15216,5,10,0:1:0:0:
270,188,15305,1,8,0:1:0:0:
277,227,15395,1,10,0:1:0:0:
265,264,15484,1,0,1:1:0:0:
243,278,15574,6,0,L|257:224,1,35.9999989013672,2|0,1:1|0:0,0:0:0:0:
394,166,15753,2,2,B|457:152|496:209|496:209|471:221|465:253,1,155.999992858887,4|0,3:2|0:0,0:1:0:0:
476,250,16111,5,0,3:0:0:0:
340,0,16290,1,8,1:2:0:0:
394,166,16469,5,0,3:0:0:0:
382,170,16559,1,8,0:1:0:0:
357,150,16648,5,8,3:0:0:0:
390,66,16828,1,4,3:0:0:0:
252,243,17007,5,0,3:0:0:0:
282,324,17186,1,0,3:0:0:0:
78,384,17365,6,2,B|46:364|-4:360|-4:360|-21:295|40:291,1,180.000006866455,6|0,3:1|0:0,0:1:0:0:
95,241,17723,2,0,P|125:256|165:268,1,71.9999978027344,2|0,1:0|3:0,0:0:0:0:
456,345,18081,5,8,3:1:0:0:
418,333,18171,1,8,0:1:0:0:
379,341,18260,1,10,0:1:0:0:
353,370,18350,1,2,1:1:0:0:
358,384,18439,6,0,L|371:329,1,35.9999989013672,2|0,1:1|0:0,0:0:0:0:
298,157,18619,2,2,B|274:168|274:168|250:211|294:272|357:247,1,143.999995605469,4|0,3:2|0:0,0:1:0:0:
340,248,18977,5,0,3:0:0:0:
437,211,19156,1,8,1:2:0:0:
169,114,19335,5,0,3:0:0:0:
169,114,19425,1,0,3:0:0:0:
169,114,19514,1,2,1:3:0:0:
261,55,19693,5,0,3:0:0:0:
31,0,19872,1,2,1:3:0:0:
128,8,20051,5,2,0:1:0:0:
142,0,20141,1,2,0:1:0:0:
171,19,20231,6,2,P|154:84|136:196,1,180.000006866455,6|0,3:1|0:0,0:1:0:0:
34,257,20589,6,2,B|25:244|11:242|11:242|-11:191|43:168,1,107.999996704102,8|0,1:2|0:0,0:1:0:0:
146,205,20947,5,10,0:1:0:0:
188,196,21036,1,8,0:1:0:0:
228,212,21126,1,10,0:1:0:0:
250,250,21216,1,0,1:0:0:0:
243,263,21305,6,0,L|289:253,1,35.9999989013672,2|0,1:0|0:0,0:0:0:0:
371,384,21484,6,2,B|284:335|305:122|387:114|463:171|461:248|348:309,1,440,6|0,3:1|0:0,0:1:0:0:
359,302,22595,5,8,3:0:0:0:
303,354,22773,2,0,P|277:347|240:343,1,55.9999982910157,4|2,3:0|0:0,0:0:0:0:
0,290,23130,6,0,L|102:265,1,96,6|0,3:2|0:0,0:0:0:0:
101,276,23514,1,8,0:1:0:0:
74,366,23690,1,0,0:0:0:0:
24,203,23866,5,0,3:0:0:0:
24,203,24043,1,0,0:0:0:0:
211,147,24219,1,8,0:1:0:0:
125,134,24396,6,0,P|135:186|137:207,1,64,2|0,0:0|3:0,0:0:0:0:
303,354,24742,2,0,P|293:302|291:281,1,64,2|8,0:0|0:1,0:0:0:0:
367,221,25101,2,0,L|445:239,1,64,2|0,0:0|0:0,0:0:0:0:
486,288,25461,1,2,3:2:0:0:
316,145,25640,6,0,P|285:164|241:162,1,64,8|2,0:1|3:2,0:0:0:0:
250,160,25910,1,0,3:0:0:0:
242,154,26000,2,0,L|263:44,1,96,0|0,3:0|0:0,0:0:0:0:
211,4,26359,1,10,0:1:0:0:
100,92,26539,2,0,P|141:83|177:83,1,64,2|0,0:1|3:0,0:0:0:0:
356,44,26898,6,0,P|324:41|293:34,1,64,2|8,0:1|0:1,0:0:0:0:
416,102,27257,1,2,0:1:0:0:
486,53,27437,1,0,3:0:0:0:
486,53,27616,1,0,3:0:0:0:
421,0,27796,5,8,0:1:0:0:
479,155,27976,1,0,0:0:0:0:
368,225,28155,5,2,3:2:0:0:
373,211,28335,1,2,0:0:0:0:
472,297,28515,5,8,0:1:0:0:
467,283,28694,1,2,3:2:0:0:
305,350,28874,6,0,B|244:353|256:382|177:384,1,120,2|0,3:2|0:0,0:0:0:0:
133,333,29233,2,0,L|151:261,1,64,8|0,0:1|0:0,0:0:0:0:
28,144,29592,2,0,P|7:175|16:213,1,64,0|0,3:0|3:0,0:0:0:0:
205,31,29952,1,8,0:1:0:0:
135,80,30131,6,0,P|125:46|105:11,1,64,2|0,0:0|3:0,0:0:0:0:
253,144,30491,2,0,P|204:154|181:174,1,64,2|8,0:0|0:1,0:0:0:0:
355,31,30850,2,0,P|383:45|414:48,1,64,2|0,0:0|3:0,0:0:0:0:
485,99,31209,5,2,0:0:0:0:
436,263,31389,1,8,0:1:0:0:
507,196,31568,1,2,3:2:0:0:
498,193,31658,1,0,3:0:0:0:
482,179,31748,6,0,B|440:186|440:186|436:191|436:191|372:203,1,96,0|0,3:0|0:0,0:0:0:0:
330,148,32107,1,8,0:1:0:0:
181,327,32287,1,2,0:1:0:0:
196,323,32377,1,2,0:1:0:0:
212,307,32467,6,0,L|263:318,1,32,2|0,3:1|0:0,0:0:0:0:
305,350,32646,2,0,L|274:344,1,32,2|0,0:1|0:0,0:0:0:0:
145,264,32826,5,10,0:1:0:0:
139,262,32916,2,0,P|119:229|131:188,1,64,2|0,0:1|0:0,0:0:0:0:
177,155,33175,2,0,L|246:173,1,64,2|0,3:1|3:0,0:0:0:0:
72,97,33444,1,2,0:1:0:0:
68,87,33534,2,0,L|-4:68,1,64,8|2,0:1|3:1,0:0:0:0:
129,25,33893,1,0,3:0:0:0:
133,39,34073,1,2,0:0:0:0:
50,0,34252,5,8,0:1:0:0:
212,110,34432,2,0,L|206:75,1,32,2|0,0:0|0:0,0:0:0:0:
267,22,34612,6,0,P|325:25|361:57,1,96,2|0,3:2|0:0,0:0:0:0:
356,61,34971,1,8,0:1:0:0:
482,179,35151,2,0,P|484:150|501:95,1,64,2|0,0:0|3:0,0:0:0:0:
440,286,35510,5,0,3:0:0:0:
459,384,35689,1,8,0:1:0:0:
285,376,35869,5,2,0:0:0:0:
289,364,35959,1,2,0:0:0:0:
319,351,36049,6,2,B|324:341|324:341|303:250,1,96,2|0,3:2|0:0,0:1:0:0:
366,210,36408,1,8,0:1:0:0:
499,272,36588,2,0,P|457:290|433:282,1,64,2|0,0:0|3:0,0:0:0:0:
366,210,36947,5,0,3:0:0:0:
165,312,37127,2,0,P|212:298|248:296,1,64,8|2,0:1|0:0,0:0:0:0:
304,258,37396,5,2,0:0:0:0:
292,247,37486,2,2,L|309:150,1,96,2|0,3:2|0:0,0:1:0:0:
261,91,37845,1,8,0:1:0:0:
409,14,38025,2,0,P|394:62|389:91,1,64,2|0,0:0|3:0,0:0:0:0:
442,136,38384,1,0,3:0:0:0:
512,94,38564,5,8,0:1:0:0:
444,174,38743,2,0,L|437:143,1,32,2|0,0:0|0:0,0:0:0:0:
309,35,38923,6,2,B|249:34|254:73|175:70,1,120,2|0,3:2|0:0,0:1:0:0:
133,24,39282,1,8,0:1:0:0:
0,158,39462,2,0,P|30:136|77:137,1,64,2|0,0:0|3:0,0:0:0:0:
133,158,39821,5,2,0:0:0:0:
57,6,40001,1,8,0:1:0:0:
61,0,40091,1,2,0:0:0:0:
133,158,40360,6,2,L|101:300,1,128,2|8,3:2|0:1,0:1:0:0:
169,347,40899,1,0,0:0:0:0:
33,384,41079,1,0,3:0:0:0:
33,384,41258,1,0,3:0:0:0:
246,370,41438,5,8,0:1:0:0:
104,282,41618,1,0,3:0:0:0:
106,361,41797,6,0,P|167:347|186:347,1,64,0|0,3:0|0:0,0:0:0:0:
399,292,42157,2,0,P|338:278|319:278,1,64,8|2,0:1|0:0,0:0:0:0:
241,202,42516,1,2,3:2:0:0:
289,137,42695,1,0,3:0:0:0:
247,80,42875,6,0,L|258:124,1,32,8|0,0:1|0:0,0:0:0:0:
336,277,43055,1,2,3:2:0:0:
325,285,43145,1,0,3:2:0:0:
294,265,43234,5,2,3:0:0:0:
337,380,43414,1,0,3:0:0:0:
503,195,43594,5,2,1:3:0:0:
481,277,43773,1,0,3:0:0:0:
380,161,43953,5,2,3:0:0:0:
374,148,44133,1,0,3:0:0:0:
465,0,44323,6,0,L|460:14,1,20,0|0,1:0|0:0,0:0:0:0:
512,80,44504,6,0,B|435:72|455:31|360:34,1,143.999995605469,4|0,3:1|0:0,0:0:0:0:
348,49,44868,2,0,L|358:10,1,40,2|0,0:3|0:0,0:0:0:0:
133,158,45050,1,0,1:1:0:0:
60,149,45228,6,0,B|105:110|167:116|167:116|187:91|162:62,1,155.999992858887,4|0,3:2|0:0,0:0:0:0:
109,26,45585,6,0,P|105:54|94:97,1,51.999997619629,0|0,3:0|0:0,0:0:0:0:
231,253,45764,2,0,P|235:225|246:182,1,51.999997619629,4|0,1:2|0:0,0:0:0:0:
312,164,45942,1,0,3:0:0:0:
303,148,46032,1,0,3:0:0:0:
329,118,46121,5,6,3:2:0:0:
91,250,46299,1,2,0:0:0:0:
350,384,46478,1,8,0:1:0:0:
291,332,46657,6,0,P|240:326|174:386,1,132.00000402832,10|0,3:2|0:0,0:0:0:0:
179,373,47015,1,10,3:2:0:0:
412,249,47194,1,8,0:1:0:0:
208,135,47372,2,0,L|220:183,1,47.9999985351563,10|0,3:2|0:0,0:0:0:0:
277,241,47730,5,10,3:2:0:0:
120,143,47909,1,8,0:1:0:0:
274,18,48088,2,0,B|280:26|280:26|263:82,1,60,10|0,3:2|0:0,0:0:0:0:
208,135,48445,5,2,3:2:0:0:
160,59,48624,1,12,2:1:0:0:
337,117,48803,5,2,3:2:0:0:
331,132,48892,1,0,3:0:0:0:
346,154,48982,2,0,P|385:143|402:143,1,40,4|0,3:2|0:0,0:0:0:0:
450,98,49161,2,0,L|488:110,1,40,0|0,3:0|0:0,0:0:0:0:
511,182,49340,5,8,0:1:0:0:
370,12,49514,2,0,L|381:59,1,40,2|0,3:0|0:0,0:0:0:0:
232,238,49688,1,8,3:1:0:0:
196,230,49776,1,8,0:1:0:0:
173,202,49863,1,8,0:1:0:0:
175,166,49950,1,8,0:1:0:0:
208,135,50037,6,0,L|194:189,1,40,8|0,0:1|0:0,0:0:0:0:
335,342,50212,2,0,B|352:295|427:270|464:321|464:321|448:366,1,180.000006866455,4|0,3:2|0:0,0:0:0:0:
470,359,50577,5,4,3:0:0:0:
385,262,50760,2,0,P|391:243|395:218,1,40,8|0,0:1|0:0,0:0:0:0:
491,186,50932,6,0,L|510:180,1,20,2|0,3:0|0:0,0:0:0:0:
19,106,51277,6,0,L|0:111,1,20,2|0,3:0|0:0,0:0:0:0:
19,106,51634,1,2,0:0:0:0:
60,16,51812,6,0,P|99:56|183:50,1,120,4|0,3:1|0:0,0:0:0:0:
172,47,52177,1,2,1:2:0:0:
309,0,52357,2,0,L|289:92,1,80,2|0,0:3|3:0,0:0:0:0:
370,332,52719,2,0,L|390:243,1,80,2|0,0:3|1:0,0:0:0:0:
488,110,53080,5,2,3:3:0:0:
494,117,53170,1,2,3:2:0:0:
490,129,53272,2,0,P|443:150|405:142,1,80,2|2,3:2|0:3,0:0:0:0:
172,47,53635,5,2,1:2:0:0:
242,204,53817,1,2,0:3:0:0:
309,0,53999,5,0,3:0:0:0:
281,93,54181,1,2,0:3:0:0:
39,240,54362,6,0,P|87:213|120:215,1,80,0|2,1:0|0:3,0:0:0:0:
161,149,54635,5,2,0:0:0:0:
173,146,54726,2,0,P|166:90|148:60,1,80,2|2,3:2|0:3,0:0:0:0:
387,253,55090,1,2,1:2:0:0:
272,384,55272,2,0,P|274:344|290:308,1,80,2|0,0:3|3:0,0:0:0:0:
463,166,55635,6,0,L|509:178,1,40,2|0,0:3|0:0,0:0:0:0:
508,190,55817,1,0,1:0:0:0:
319,81,55999,2,0,L|268:97,1,40,2|0,0:3|0:0,0:0:0:0:
173,146,56181,5,2,3:2:0:0:
423,0,56356,2,0,P|409:69|406:88,1,80,2|0,0:3|1:0,0:0:0:0:
486,339,56707,2,0,P|506:296|479:249,1,80,2|0,0:3|3:0,0:0:0:0:
314,177,57057,5,2,3:3:0:0:
318,188,57145,1,2,3:2:0:0:
322,199,57233,1,0,1:0:0:0:
230,250,57409,2,0,P|206:237|182:238,1,40,2|0,0:3|0:0,0:0:0:0:
94,188,57584,6,0,L|-2:216,1,80,2|2,3:2|0:3,0:0:0:0:
344,23,57945,1,2,1:2:0:0:
411,79,58126,2,0,L|507:51,1,80,2|0,0:3|3:0,0:0:0:0:
303,284,58487,5,2,0:3:0:0:
322,199,58668,1,0,1:0:0:0:
173,19,58849,5,2,3:3:0:0:
176,30,58939,1,2,3:2:0:0:
179,41,59029,1,2,3:2:0:0:
109,93,59210,2,0,P|60:89|34:64,1,80,2|0,0:3|1:0,0:0:0:0:
322,199,59571,2,0,P|371:203|397:228,1,80,2|0,0:3|3:0,0:0:0:0:
487,56,59933,5,2,0:3:0:0:
381,90,60114,1,0,1:0:0:0:
320,39,60294,6,2,L|329:-8,1,40,2|0,0:3|0:0,0:1:0:0:
489,146,60475,1,2,3:1:0:0:
489,146,60564,2,0,L|479:193,2,40,2|2|2,0:1|0:3|0:1,0:0:0:0:
393,222,60832,5,2,1:0:0:0:
512,334,61010,1,2,0:3:0:0:
500,336,61100,1,2,0:1:0:0:
491,345,61189,2,2,L|402:322,1,80,2|2,3:1|0:3,0:1:0:0:
334,364,61457,5,2,0:1:0:0:
344,370,61546,2,2,P|389:357|400:359,1,40,2|0,1:0|0:0,0:1:0:0:
206,272,61725,2,2,P|173:284|156:284,1,40,2|2,3:3|0:1,0:1:0:0:
119,352,61903,5,2,3:1:0:0:
307,266,62082,1,2,3:3:0:0:
28,283,62260,5,2,1:0:0:0:
334,364,62439,1,2,3:3:0:0:
176,88,62617,5,2,3:1:0:0:
60,160,62796,2,0,P|80:154|98:151,1,40,2|0,3:3|0:0,0:0:0:0:
307,266,62975,6,0,B|330:200|257:155|205:182|205:182|192:234,1,180.000006866455,4|0,1:2|0:0,0:0:0:0:
208,202,63332,6,0,L|358:170,1,143.999995605469,4|0,3:1|0:0,0:0:0:0:
415,214,63700,1,2,1:2:0:0:
324,6,63884,2,0,P|299:42|306:90,1,80,2|0,0:3|3:0,0:0:0:0:
119,352,64252,2,0,P|144:316|137:268,1,80,2|0,0:3|1:0,0:0:0:0:
81,197,64620,5,2,3:3:0:0:
71,204,64712,1,2,3:2:0:0:
62,213,64804,2,0,L|-52:193,1,80,2|2,3:2|0:3,0:0:0:0:
300,76,65161,1,2,1:2:0:0:
135,5,65339,2,0,L|233:18,1,80,2|0,0:3|3:0,0:0:0:0:
453,222,65696,6,0,P|410:213|389:214,1,40,2|0,0:3|0:0,0:0:0:0:
405,197,65875,1,0,1:0:0:0:
223,354,66054,2,0,P|244:346|261:345,1,40,2|0,0:3|0:0,0:0:0:0:
295,257,66232,6,0,L|272:172,1,80,0|2,3:0|0:3,0:0:0:0:
413,0,66589,1,2,1:2:0:0:
364,120,66768,1,2,0:3:0:0:
405,197,66946,5,2,3:2:0:0:
206,47,67125,2,0,L|289:25,1,80,2|0,0:3|1:0,0:0:0:0:
31,127,67482,1,2,3:3:0:0:
19,124,67571,1,2,3:2:0:0:
7,121,67661,1,2,3:2:0:0:
152,0,67840,6,0,P|156:39|137:73,1,80,2|0,0:3|1:0,0:0:0:0:
127,354,68199,2,0,P|123:315|142:281,1,80,2|0,0:3|3:0,0:0:0:0:
236,167,68559,2,0,P|257:177|280:180,1,40,2|0,0:3|0:0,0:0:0:0:
334,238,68738,5,0,1:0:0:0:
475,195,68918,1,2,0:3:0:0:
88,223,69098,6,0,L|-1:244,1,80,2|2,3:2|0:3,0:0:0:0:
206,47,69457,1,2,1:2:0:0:
314,313,69637,2,0,P|320:263|344:224,1,80,2|0,0:3|3:0,0:0:0:0:
396,155,69996,5,2,0:3:0:0:
258,383,70175,1,0,1:0:0:0:
311,114,70355,5,2,3:3:0:0:
307,102,70445,1,2,3:2:0:0:
317,72,70535,5,2,3:2:0:0:
475,195,70714,1,2,0:3:0:0:
236,167,70894,5,0,1:0:0:0:
409,0,71074,2,0,L|391:84,1,80,2|0,0:3|3:0,0:0:0:0:
488,269,71433,2,0,P|490:221|459:183,1,80,2|0,0:3|1:0,0:0:0:0:
217,86,71792,6,2,L|173:98,1,40,2|0,0:3|0:0,0:1:0:0:
129,155,71972,1,0,3:0:0:0:
0,43,72152,1,2,0:3:0:0:
11,46,72241,1,2,0:1:0:0:
22,49,72331,1,2,1:0:0:0:
101,40,72511,6,0,P|94:23|87:-6,1,40,2|2,0:3|0:1,0:0:0:0:
1,168,72690,1,2,3:1:0:0:
1,168,72786,2,0,P|8:185|15:214,2,40,2|2|2,0:1|0:3|0:1,0:0:0:0:
78,250,73074,2,0,P|66:274|64:300,1,40,2|0,1:0|0:0,0:0:0:0:
4,384,73253,6,2,P|80:328|173:343,1,180.000006866455,6|0,3:1|0:0,0:1:0:0:
172,348,73612,1,2,3:1:0:0:
476,200,73792,2,2,L|388:177,1,80,4|0,1:2|3:0,0:1:0:0:
369,102,74053,5,0,3:0:0:0:
374,92,74140,1,2,1:2:0:0:
449,374,74315,1,2,3:2:0:0:
236,167,74489,5,2,1:3:0:0:
199,245,74664,1,2,3:2:0:0:
449,374,74838,6,0,B|389:275|453:151|551:168|571:289|452:322,1,360.000013732911,4|2,3:1|0:0,0:0:0:0:
58,367,76275,6,0,B|113:267|-6:180|-73:258|-47:290|5:316|38:274,1,280,4|0,3:1|0:0,0:0:0:0:
109,311,76993,6,0,P|148:318|175:332,1,70,2|0,0:0|0:0,0:0:0:0:
279,256,77712,6,2,B|328:224|331:162|277:129|277:129|238:149,1,180.000006866455,6|0,3:1|0:0,0:1:0:0:
251,152,78071,2,2,P|295:182|332:167,1,71.9999978027344,2|0,1:0|3:0,0:1:0:0:
482,56,78430,5,8,3:1:0:0:
450,26,78520,1,8,0:1:0:0:
406,24,78610,1,10,0:1:0:0:
370,48,78700,1,2,1:0:0:0:
363,61,78790,6,0,L|319:50,1,35.9999989013672,2|0,1:0|0:0,0:0:0:0:
184,207,78969,2,2,B|101:200|133:148|23:153,1,155.999992858887,4|0,3:2|0:0,0:1:0:0:
30,168,79329,5,0,3:0:0:0:
106,66,79508,1,8,1:2:0:0:
36,18,79688,5,0,3:0:0:0:
36,18,79778,1,8,0:1:0:0:
36,18,79867,1,8,3:0:0:0:
90,255,80047,1,4,3:0:0:0:
295,52,80227,5,0,3:0:0:0:
265,161,80406,1,2,0:1:0:0:
251,152,80496,1,2,0:1:0:0:
270,125,80586,6,2,B|324:86|373:136|373:136|377:182|439:185,1,180.000006866455,6|0,3:1|0:0,0:1:0:0:
512,249,80949,2,2,P|477:253|437:273,1,80,2|0,1:0|3:0,0:1:0:0:
151,371,81313,6,0,L|162:310,1,40,10|8,0:1|0:1,0:0:0:0:
90,255,81489,1,10,0:1:0:0:
87,247,81577,1,0,1:0:0:0:
71,244,81665,2,0,P|52:243|72:246,1,60.0000022888184,2|0,1:0|0:0,0:0:0:0:
184,207,81842,6,2,B|327:204|375:351|375:351|326:246|229:90|324:-12|470:-74|506:83|428:189|329:180,1,870.4,6|0,3:1|0:0,0:1:0:0:
256,192,85018,12,0,87665,0:0:0:0:
