osu file format v14

[General]
AudioFilename: audio.ogg
AudioLeadIn: 0
PreviewTime: 51544
Countdown: 0
SampleSet: Soft
StackLeniency: 1
Mode: 0
LetterboxInBreaks: 0
WidescreenStoryboard: 1

[Editor]
DistanceSpacing: 0.2
BeatDivisor: 4
GridSize: 32
TimelineZoom: 2.2

[Metadata]
Title:HANABI (TV Size)
TitleUnicode:HANABI (TV Size)
Artist:Ikimonogakari
ArtistUnicode:いきものがかり
Creator:-Mikan
Version:Hard
Source:BLEACH
Tags:djulus m3gb3g [NASRAL] -mikanmymommy mikan bazz_b bazz b aishiteiru- froskya Revialink anime japanese ikimono gakari jpop j-pop pop ending ed 7 ブリーチ
BeatmapID:3935920
BeatmapSetID:1462353

[Difficulty]
HPDrainRate:5
CircleSize:4
OverallDifficulty:7
ApproachRate:8
SliderMultiplier:1.4
SliderTickRate:1

[Events]
//Background and Video events
0,0,"FeuAXlGakAAfdnG.jpg",0,0
Video,-310,"output.mp4"
//Break Periods
//Storyboard Layer 0 (Background)
//Storyboard Layer 1 (Fail)
//Storyboard Layer 2 (Pass)
//Storyboard Layer 3 (Foreground)
//Storyboard Layer 4 (Overlay)
//Storyboard Sound Samples

[TimingPoints]
497,359.281437125748,4,2,1,40,1,0
497,-200,4,2,1,40,0,0
7682,357.142857142857,4,2,1,40,1,0
7682,-200,4,2,1,40,0,0
8396,-200,4,2,1,35,0,0
9110,375,4,2,1,30,1,0
9110,-200,4,2,1,30,0,0
9860,351.906158357771,4,2,1,25,1,0
10563,357.142857142857,4,2,1,20,1,0
11634,358.20895522388,4,2,1,70,1,0
21484,370.37037037037,4,2,1,60,1,0
22505,-100,4,2,1,5,0,0
22595,357.142857142857,4,2,1,60,1,0
22764,-125,4,2,1,50,0,0
23130,384.615384615385,4,2,1,50,1,0
23130,-125,4,2,1,50,0,0
23514,352.941176470588,4,2,1,50,1,0
23857,-125,4,2,1,50,0,0
24396,-118.343195266272,4,2,1,50,0,0
24563,359.281437125748,4,2,1,50,1,0
24742,-125,4,2,1,50,0,0
33175,359.281437125748,4,2,1,50,1,0
33175,-125,4,2,1,50,0,0
43234,-125,4,2,1,60,0,0
44323,363.636363636363,4,2,1,60,1,0
45050,357.142857142857,4,2,1,60,1,0
45496,-100,4,2,1,5,0,0
45585,-100,4,2,1,60,0,0
46121,357.675111773472,4,2,1,60,1,0
49340,348.837209302326,4,2,1,60,1,0
49688,-100,4,2,1,40,0,0
49775,-100,4,2,1,45,0,0
49862,-100,4,2,1,50,0,0
49949,-100,4,2,1,55,0,0
50037,-100,4,2,1,60,0,0
50212,365.853658536585,4,2,1,60,1,0
50760,344.827586206897,4,2,1,60,1,0
50943,-100,4,2,1,70,0,0
51277,357.142857142857,4,2,1,70,1,0
51812,365.853658536585,4,2,1,80,1,1
52177,361.44578313253,4,2,1,80,1,1
53272,363.636363636363,4,2,1,80,1,1
56181,350.877192982456,4,2,1,80,1,1
57584,361.44578313253,4,2,1,80,1,1
60475,357.142857142857,4,2,1,80,1,1
63332,368.098159509202,4,2,1,80,1,1
64804,357.142857142857,4,2,1,80,1,1
67661,359.281437125748,4,2,1,80,1,1
72690,384.615384615384,4,2,1,80,1,1
73074,359.281437125748,4,2,1,80,1,1
73792,348.837209302326,4,2,1,80,1,1
74838,359.281437125748,4,2,1,80,1,0
74838,-142.857142857143,4,2,1,60,0,0
76903,-142.857142857143,4,2,1,5,0,0
76993,-142.857142857143,4,2,1,60,0,0
77622,-142.857142857143,4,2,1,5,0,0
77712,-100,4,2,1,70,0,0
80586,363.636363636363,4,2,1,80,1,0
81313,352.941176470588,4,2,1,80,1,0
81842,-100,4,2,2,70,0,0
82018,352.941176470588,4,2,1,80,1,0
82393,-100,4,2,1,60,0,0
83112,-100,4,2,1,50,0,0
83831,-100,4,2,1,40,0,0
84369,-100,4,2,1,30,0,0
84729,-100,4,2,1,20,0,0
84908,-100,4,2,1,5,0,0

[Colours]
Combo1 : 153,255,255
Combo2 : 248,208,135
Combo3 : 255,181,218
Combo4 : 203,203,228

[HitObjects]
28,155,317,5,2,2:0:0:0:
28,155,497,2,0,P|4:122|11:81,1,70,4|0,3:0|2:0,2:0:0:0:
62,33,1035,1,0,2:0:0:0:
203,123,1395,2,0,L|275:105,1,70,0|2,2:0|3:2,2:0:0:0:
352,125,1934,6,0,L|335:201,1,70,4|0,3:0|2:0,2:0:0:0:
414,220,2473,1,0,2:0:0:0:
490,380,2832,2,0,L|507:307,1,70,0|0,2:0|2:0,2:0:0:0:
426,308,3371,6,0,P|378:312|350:332,1,70,4|0,3:0|2:0,2:0:0:0:
292,377,3910,2,0,L|217:363,2,70,0|0|2,2:0|2:0|3:2,2:0:0:0:
283,295,4808,5,4,3:0:0:0:
283,295,4988,2,0,L|266:217,2,70,2|0|0,2:0|2:0|2:0,2:0:0:0:
119,367,6065,1,2,3:2:0:0:
47,335,6245,6,0,L|30:257,1,70,4|0,3:0|2:0,2:0:0:0:
83,213,6784,2,0,P|117:219|159:234,2,70,0|0|2,2:0|2:0|3:2,2:0:0:0:
23,157,7682,6,0,P|3:142|6:27,1,140,4|2,3:0|2:0,2:0:0:0:
226,0,9110,2,0,P|246:15|243:130,1,140,2|2,2:0|2:0,2:0:0:0:
123,80,10563,5,2,2:0:0:0:
123,80,11634,6,2,P|193:90|258:123,1,140,6|2,3:1|1:0,2:1:0:0:
428,49,12350,1,8,2:1:0:0:
494,103,12529,1,10,2:1:0:0:
492,113,12619,1,2,1:0:0:0:
490,123,12708,1,2,1:0:0:0:
425,170,12887,6,2,L|454:318,1,140,4|0,3:2|3:0,2:1:0:0:
389,372,13425,2,0,P|351:345|304:349,1,70,8|0,1:2|3:0,2:0:0:0:
260,297,13783,2,0,L|185:316,1,70,2|0,1:3|3:0,2:0:0:0:
131,372,14141,1,2,1:3:0:0:
66,313,14320,5,2,2:1:0:0:
66,313,14410,1,2,2:1:0:0:
66,313,14499,2,2,B|76:299|90:289|90:289|52:168,1,140,6|2,3:1|1:0,2:1:0:0:
180,24,15216,1,10,2:1:0:0:
107,64,15395,1,10,2:1:0:0:
96,61,15484,1,0,1:0:0:0:
85,58,15574,1,2,1:0:0:0:
170,122,15753,6,2,B|236:109|232:75|306:72,1,140,4|0,3:2|3:0,2:1:0:0:
412,18,16290,2,0,L|396:92,1,70,8|0,1:2|3:0,2:0:0:0:
405,93,16559,1,8,2:1:0:0:
412,100,16648,2,0,L|486:87,1,70,8|4,3:0|3:0,2:0:0:0:
461,173,17007,1,0,3:0:0:0:
461,173,17186,1,0,3:0:0:0:
378,212,17365,6,2,P|322:182|233:189,1,140,6|2,3:1|1:0,2:1:0:0:
21,114,18081,1,8,3:1:0:0:
98,49,18260,1,10,2:1:0:0:
96,59,18350,1,2,1:0:0:0:
93,69,18439,1,2,1:0:0:0:
143,144,18619,6,2,P|124:196|110:302,1,140,4|0,3:2|3:0,2:1:0:0:
183,345,19156,2,0,L|269:361,1,70,8|0,1:2|3:0,2:0:0:0:
271,272,19514,2,0,L|189:257,1,70,2|0,1:3|3:0,2:0:0:0:
343,337,19872,1,2,1:3:0:0:
424,297,20051,5,2,2:1:0:0:
424,297,20141,1,2,2:1:0:0:
424,297,20231,2,2,B|445:269|445:269|400:151,1,140,6|8,3:1|1:2,2:1:0:0:
493,0,20947,1,10,2:1:0:0:
412,18,21126,1,10,2:1:0:0:
401,16,21216,1,0,1:0:0:0:
390,14,21305,1,2,1:0:0:0:
326,72,21484,6,2,B|279:96|174:95|199:3|55:-29|39:200|256:171|239:88,1,385,6|0,3:1|2:0,2:1:0:0:
239,101,22595,5,8,3:0:0:0:
309,185,22773,2,0,P|291:237|290:258,1,56,4|2,3:0|2:0,2:0:0:0:
256,312,23130,6,0,P|300:279|355:281,1,112,6|8,3:2|2:1,2:0:0:0:
431,242,23690,1,0,2:0:0:0:
486,310,23866,2,0,P|474:348|469:379,2,56,0|0|8,3:0|2:0|2:1,2:0:0:0:
431,242,24396,6,0,P|443:204|448:173,1,56,2|0,2:0|3:0,2:0:0:0:
506,134,24742,2,0,L|488:63,1,56,2|8,2:0|2:1,2:0:0:0:
422,31,25101,1,2,2:0:0:0:
292,116,25461,2,0,P|250:103|218:100,1,56,2|8,3:2|2:1,2:0:0:0:
186,39,25820,1,2,3:2:0:0:
186,39,26000,2,0,L|57:69,1,112,0|10,3:0|2:1,2:0:0:0:
30,207,26718,6,0,L|104:188,1,56,0|2,3:0|2:1,2:0:0:0:
155,238,27077,2,0,L|138:293,1,56,8|2,2:1|2:1,2:0:0:0:
204,343,27437,2,0,L|323:320,2,112,0|8|2,3:0|2:1|3:2,2:0:0:0:
139,291,28335,1,2,2:0:0:0:
203,231,28515,1,8,2:1:0:0:
203,231,28694,1,2,3:2:0:0:
162,148,28874,6,0,L|187:30,1,112,2|8,3:2|2:1,2:0:0:0:
271,8,29413,1,0,2:0:0:0:
271,8,29592,2,0,P|310:27|338:24,1,56,0|0,3:0|3:0,2:0:0:0:
379,79,29952,1,8,2:1:0:0:
464,38,30131,2,0,L|451:105,1,56,2|0,2:0|3:0,2:0:0:0:
502,197,30491,2,0,P|522:164|515:130,1,56,2|8,2:0|2:1,2:0:0:0:
419,172,30850,6,0,L|349:182,1,56,2|0,2:0|3:0,2:0:0:0:
291,229,31209,2,0,P|265:216|227:216,1,56,2|8,2:0|2:1,2:0:0:0:
182,154,31568,1,2,3:2:0:0:
105,196,31748,6,0,L|130:321,1,112,0|8,3:0|2:1,2:0:0:0:
53,383,32287,1,2,2:1:0:0:
53,383,32377,1,2,2:1:0:0:
53,383,32467,2,0,L|39:319,1,56,2|2,3:1|2:1,2:0:0:0:
126,305,32826,6,0,L|186:318,1,56,10|0,2:1|2:0,2:0:0:0:
239,379,33175,2,0,P|285:365|342:364,1,84,2|2,3:1|2:1,2:0:0:0:
326,353,33534,2,0,L|389:369,1,56,8|2,2:1|3:1,2:0:0:0:
457,330,33893,1,0,3:0:0:0:
457,330,34073,1,2,2:0:0:0:
395,272,34252,1,8,2:1:0:0:
464,222,34432,5,2,2:0:0:0:
464,222,34612,2,0,L|440:101,1,112,2|8,3:2|2:1,2:0:0:0:
470,38,35151,2,0,P|427:74|360:67,1,112,2|0,2:0|3:0,2:0:0:0:
309,21,35689,1,8,2:1:0:0:
254,99,35869,5,2,2:0:0:0:
254,99,36049,2,2,P|211:63|144:70,1,112,2|8,3:2|2:1,2:1:0:0:
97,126,36588,2,0,L|117:239,1,112,2|0,2:0|3:0,2:0:0:0:
57,303,37127,1,8,2:1:0:0:
129,358,37306,5,2,2:0:0:0:
129,358,37486,2,2,B|179:351|186:315|259:322,1,112,2|8,3:2|2:1,2:1:0:0:
299,272,38025,2,0,L|272:147,1,112,2|0,2:0|3:0,2:0:0:0:
332,101,38564,1,8,2:1:0:0:
296,30,38743,5,2,2:0:0:0:
296,30,38923,2,2,P|355:62|403:49,1,112,2|8,3:2|2:1,2:1:0:0:
472,95,39462,2,0,L|449:212,1,112,2|2,2:0|2:0,2:0:0:0:
504,269,40001,1,8,2:1:0:0:
433,318,40180,5,0,2:0:0:0:
433,318,40360,2,2,P|387:312|327:352,1,112,2|8,3:2|2:1,2:1:0:0:
262,380,40899,1,0,2:0:0:0:
200,326,41079,2,0,L|216:254,2,56,0|0|8,3:0|3:0|2:1,2:0:0:0:
126,370,41618,1,0,3:0:0:0:
70,313,41797,2,0,L|86:241,1,56,0|0,3:0|2:0,2:0:0:0:
15,207,42157,1,8,2:1:0:0:
68,142,42336,5,2,2:0:0:0:
68,142,42516,2,0,L|44:34,1,84,2|0,3:2|2:0,2:0:0:0:
56,54,42875,2,0,L|118:68,1,56,8|2,2:1|3:2,2:0:0:0:
196,127,43234,6,0,P|241:113|269:113,1,56,2|0,3:0|3:0,2:0:0:0:
312,47,43594,2,0,L|377:63,1,56,2|0,1:3|3:0,2:0:0:0:
439,107,43953,1,2,3:0:0:0:
439,107,44133,1,0,3:0:0:0:
376,164,44323,1,0,1:0:0:0:
428,231,44504,6,0,B|366:227|363:184|291:192,1,140,4|2,3:1|2:3,2:0:0:0:
229,245,45050,1,0,1:0:0:0:
149,229,45228,6,0,P|184:262|181:337,1,105,4|0,3:2|2:0,2:0:0:0:
184,325,45585,2,0,P|119:308|100:311,1,70,0|4,3:0|1:2,2:0:0:0:
40,256,45942,5,0,3:0:0:0:
32,259,46032,1,0,3:0:0:0:
25,262,46121,2,0,L|43:186,1,70,6|2,3:2|2:0,2:0:0:0:
4,119,46478,1,8,2:1:0:0:
66,65,46657,5,10,3:2:0:0:
218,2,47015,2,0,L|201:76,1,70,10|8,3:2|2:1,2:0:0:0:
259,130,47372,5,10,3:2:0:0:
360,232,47730,2,0,L|377:158,1,70,10|8,3:2|2:1,2:0:0:0:
453,152,48088,5,10,3:2:0:0:
346,22,48445,1,2,3:2:0:0:
346,22,48624,2,0,L|328:100,1,70,12|2,2:1|3:2,2:0:0:0:
259,130,48982,6,0,P|226:135|190:144,1,70,4|0,3:2|3:0,2:0:0:0:
114,102,49340,1,8,2:1:0:0:
114,102,49514,1,2,3:0:0:0:
41,193,49688,2,0,L|-2:186,3,35,8|8|8|8,3:1|2:1|2:1|2:1,2:0:0:0:
52,205,50037,1,8,2:1:0:0:
117,269,50212,6,0,B|178:259|190:214|257:221,1,140,4|4,3:2|3:0,2:0:0:0:
313,262,50760,1,8,2:1:0:0:
395,228,50932,5,2,3:0:0:0:
293,360,51277,1,2,3:0:0:0:
512,384,51634,5,2,2:0:0:0:
512,384,51812,2,0,P|473:339|487:243,1,140,4|2,3:1|1:2,2:0:0:0:
395,228,52357,2,0,L|412:151,1,70,2|0,2:3|3:0,2:0:0:0:
487,121,52719,2,0,L|508:39,1,70,2|0,2:3|1:0,2:0:0:0:
429,2,53080,1,2,3:0:0:0:
362,60,53272,6,0,P|304:48|240:100,1,140,2|2,3:2|1:2,2:0:0:0:
169,44,53817,2,0,L|96:33,1,70,2|0,2:3|3:0,2:0:0:0:
84,125,54181,2,0,L|160:136,1,70,2|0,2:3|1:0,2:0:0:0:
212,197,54544,1,2,2:3:0:0:
182,284,54726,6,0,B|235:262|306:271,1,105,2|0,3:2|2:0,2:0:0:0:
292,273,55090,1,2,1:2:0:0:
356,219,55272,2,0,L|368:149,1,70,2|0,2:3|3:0,2:0:0:0:
459,164,55635,2,0,L|447:234,1,70,2|0,2:3|1:0,2:0:0:0:
509,293,55999,1,2,2:3:0:0:
426,363,56181,5,2,3:2:0:0:
426,363,56356,2,0,P|376:342|340:344,1,70,2|0,2:3|1:0,2:0:0:0:
292,273,56707,2,0,L|216:299,1,70,2|0,2:3|3:0,2:0:0:0:
168,360,57058,1,2,3:0:0:0:
97,307,57233,1,0,1:0:0:0:
33,360,57409,5,2,2:3:0:0:
33,360,57584,2,0,L|61:220,1,140,2|2,3:2|1:2,2:0:0:0:
14,150,58126,2,0,P|0:103|18:74,1,70,2|0,2:3|3:0,2:0:0:0:
76,35,58487,2,0,L|144:54,1,70,2|0,2:3|1:0,2:0:0:0:
214,119,58849,5,2,3:0:0:0:
214,119,58939,1,2,3:2:0:0:
214,119,59029,2,0,P|267:98|297:97,1,70,2|2,3:2|2:3,2:0:0:0:
338,28,59391,1,0,1:0:0:0:
410,81,59571,2,0,P|422:126|393:167,1,70,2|0,2:3|3:0,2:0:0:0:
444,224,59933,2,0,L|540:246,1,70,2|0,2:3|1:0,2:0:0:0:
382,290,60294,5,2,2:3:0:0:
327,353,60475,2,0,P|274:357|247:379,1,70,2|2,3:1|2:3,2:0:0:0:
254,362,60742,1,2,2:1:0:0:
249,356,60832,1,2,1:0:0:0:
179,312,61009,5,2,2:3:0:0:
112,364,61189,2,2,P|72:351|25:348,1,70,2|2,3:1|2:3,2:1:0:0:
6,273,61546,1,2,1:0:0:0:
82,220,61725,2,2,P|122:233|169:236,1,70,2|2,3:0|3:1,2:1:0:0:
224,176,62082,5,2,3:0:0:0:
188,95,62260,2,0,P|148:82|101:79,2,70,2|2|2,1:0|3:0|3:1,2:0:0:0:
257,32,62796,1,2,3:0:0:0:
331,76,62975,2,0,P|380:57|416:54,1,70,4|2,1:2|2:0,2:0:0:0:
402,47,63242,1,0,3:0:0:0:
410,45,63332,6,0,P|476:115|460:166,1,140,4|2,3:1|1:2,2:0:0:0:
506,226,63884,2,0,P|494:275|485:316,1,70,2|0,2:3|3:0,2:0:0:0:
413,333,64252,2,0,P|374:314|342:318,1,70,2|0,2:3|1:0,2:0:0:0:
280,258,64620,5,2,3:0:0:0:
280,258,64804,2,0,L|310:121,1,140,2|2,3:2|1:2,2:0:0:0:
248,60,65339,2,0,P|193:80|175:79,1,70,2|0,2:3|3:0,2:0:0:0:
119,137,65696,2,0,P|83:120|38:116,1,70,2|0,2:3|1:0,2:0:0:0:
2,184,66054,1,2,2:3:0:0:
63,245,66232,6,0,P|53:295|34:354,1,105,0|0,3:0|2:0,2:0:0:0:
44,354,66589,2,0,L|120:336,1,70,2|2,1:2|2:3,2:0:0:0:
185,290,66946,1,2,3:2:0:0:
245,357,67125,2,0,L|323:380,1,70,2|0,2:3|1:0,2:0:0:0:
378,320,67482,5,2,3:0:0:0:
384,321,67571,1,2,3:2:0:0:
390,321,67661,2,0,B|376:250,1,70,2|2,3:2|2:3,2:0:0:0:
442,193,68020,1,0,1:0:0:0:
384,129,68199,2,0,L|311:142,1,70,2|0,2:3|3:0,2:0:0:0:
434,56,68559,2,0,L|507:42,1,70,2|0,2:3|1:0,2:0:0:0:
359,8,68918,5,2,2:3:0:0:
359,8,69098,2,0,B|297:16|279:-20|200:-2,1,140,2|2,3:2|1:2,2:0:0:0:
160,54,69637,2,0,P|180:98|178:122,1,70,2|0,2:3|3:0,2:0:0:0:
240,175,69996,2,0,L|218:245,1,70,2|0,2:3|1:0,2:0:0:0:
149,293,70355,1,2,3:0:0:0:
69,257,70535,5,2,3:2:0:0:
69,257,70714,2,0,L|-5:276,1,70,2|0,2:3|1:0,2:0:0:0:
19,359,71074,2,0,L|101:338,1,70,2|0,2:3|3:0,2:0:0:0:
149,293,71433,2,0,L|214:326,1,70,2|0,2:3|1:0,2:0:0:0:
296,384,71792,5,2,2:3:0:0:
296,384,71882,1,0,2:0:0:0:
296,384,71972,2,0,B|295:323|295:323|289:311|289:311|286:233,1,140,0|2,3:0|1:0,2:0:0:0:
358,188,72511,1,2,2:3:0:0:
289,140,72690,1,2,3:1:0:0:
289,140,72786,1,2,2:1:0:0:
289,140,72882,1,2,2:3:0:0:
340,66,73074,5,2,1:0:0:0:
294,0,73253,2,2,P|363:36|426:33,1,140,6|2,3:1|3:1,2:1:0:0:
489,88,73792,2,2,L|468:173,1,70,4|0,1:2|3:0,2:1:0:0:
508,230,74140,1,2,1:2:0:0:
434,269,74315,1,2,3:2:0:0:
474,341,74489,5,2,1:3:0:0:
358,188,74838,2,0,P|287:193|176:379,1,293.999991027832,4|2,3:1|2:0,2:0:0:0:
0,175,76275,6,0,P|14:221|131:226,1,171.499994766236,4|0,3:1|2:0,2:0:0:0:
128,227,76993,2,0,L|87:58,1,171.499994766236,2|0,2:0|2:0,2:0:0:0:
96,52,77712,6,2,B|172:59|172:100|233:99,1,140,6|2,3:1|1:0,2:1:0:0:
417,28,78430,1,8,3:1:0:0:
484,76,78610,1,10,2:1:0:0:
482,83,78700,1,2,1:0:0:0:
480,90,78790,1,2,1:0:0:0:
408,136,78969,6,2,P|431:215|441:276,1,140,4|0,3:2|3:0,2:1:0:0:
504,333,79508,1,8,1:2:0:0:
435,376,79688,1,0,3:0:0:0:
435,376,79778,1,8,2:1:0:0:
435,376,79867,2,0,P|388:358|348:367,1,70,8|4,3:0|3:0,2:0:0:0:
302,310,80227,1,0,3:0:0:0:
234,359,80406,5,2,2:1:0:0:
228,355,80496,1,2,2:1:0:0:
221,351,80586,2,2,P|172:370|89:329,1,140,6|2,3:1|1:0,2:1:0:0:
3,160,81313,1,10,2:1:0:0:
72,114,81489,1,10,2:1:0:0:
78,116,81577,1,0,1:0:0:0:
85,119,81665,1,2,1:0:0:0:
32,35,81842,5,6,3:1:0:0:
256,192,82018,12,0,87665,2:0:0:0:
