osu file format v14

[General]
AudioFilename: audio.ogg
AudioLeadIn: 0
PreviewTime: 51544
Countdown: 0
SampleSet: Soft
StackLeniency: 1
Mode: 0
LetterboxInBreaks: 0
WidescreenStoryboard: 1

[Editor]
Bookmarks: 17651,82034
DistanceSpacing: 1
BeatDivisor: 4
GridSize: 32
TimelineZoom: 2.2

[Metadata]
Title:HANABI (TV Size)
TitleUnicode:HANABI (TV Size)
Artist:Ikimonogakari
ArtistUnicode:いきものがかり
Creator:-Mikan
Version:Easy
Source:BLEACH
Tags:djulus m3gb3g [NASRAL] -mikanmymommy mikan bazz_b bazz b aishiteiru- froskya Revialink anime japanese ikimono gakari jpop j-pop pop ending ed 7 ブリーチ
BeatmapID:3939832
BeatmapSetID:1462353

[Difficulty]
HPDrainRate:3
CircleSize:3
OverallDifficulty:3
ApproachRate:4
SliderMultiplier:1
SliderTickRate:1

[Events]
//Background and Video events
0,0,"FeuAXlGakAAfdnG.jpg",0,0
Video,-310,"output.mp4"
//Break Periods
//Storyboard Layer 0 (Background)
//Storyboard Layer 1 (Fail)
//Storyboard Layer 2 (Pass)
//Storyboard Layer 3 (Foreground)
//Storyboard Layer 4 (Overlay)
//Storyboard Sound Samples

[TimingPoints]
497,359.281437125748,4,2,1,40,1,0
7682,357.142857142857,4,2,1,40,1,0
8396,-100,4,2,1,35,0,0
9110,375,4,2,1,30,1,0
9860,351.906158357771,4,2,1,25,1,0
10563,357.142857142857,4,2,1,20,1,0
11634,358.20895522388,4,2,1,70,1,0
21484,370.37037037037,4,2,1,60,1,0
22595,357.142857142857,4,2,1,60,1,0
23130,384.615384615385,4,2,1,50,1,0
23514,352.941176470588,4,2,1,50,1,0
24563,359.281437125748,4,2,1,50,1,0
33175,359.281437125748,4,2,1,50,1,0
43234,-100,4,2,1,60,0,0
43953,-103.092783505155,4,2,1,60,0,0
44323,363.636363636363,4,2,1,60,1,0
45050,357.142857142857,4,2,1,60,1,0
46121,357.675111773472,4,2,1,60,1,0
49340,348.837209302326,4,2,1,60,1,0
49688,-100,4,2,1,40,0,0
50212,365.853658536585,4,2,1,60,1,0
50760,344.827586206897,4,2,1,60,1,0
50932,-100,4,2,1,70,0,0
51277,357.142857142857,4,2,1,70,1,0
51812,365.853658536585,4,2,1,80,1,1
52177,361.44578313253,4,2,1,80,1,1
53272,363.636363636363,4,2,1,80,1,1
56181,350.877192982456,4,2,1,80,1,1
57584,361.44578313253,4,2,1,80,1,1
60475,357.142857142857,4,2,1,80,1,1
63332,368.098159509202,4,2,1,80,1,1
64804,357.142857142857,4,2,1,80,1,1
67661,359.281437125748,4,2,1,80,1,1
72690,384.615384615384,4,2,1,80,1,1
73074,359.281437125748,4,2,1,80,1,1
73792,348.837209302326,4,2,1,80,1,1
74838,359.281437125748,4,2,1,80,1,0
76275,-100,4,2,1,60,0,0
77712,-100,4,2,1,70,0,0
80586,363.636363636363,4,2,1,80,1,0
81313,352.941176470588,4,2,1,80,1,0
81842,-100,4,2,2,80,0,0
82018,352.941176470588,4,2,1,80,1,0
82393,-100,4,2,2,60,0,0
83112,-100,4,2,1,50,0,0
83831,-100,4,2,2,40,0,0
84369,-100,4,2,1,30,0,0
84729,-100,4,2,2,20,0,0
84908,-100,4,2,1,5,0,0

[Colours]
Combo1 : 153,255,255
Combo2 : 248,208,135
Combo3 : 255,181,218
Combo4 : 203,203,228

[HitObjects]
89,372,497,6,0,P|19:269|57:154,1,250,4|0,3:0|0:0,0:0:0:0:
202,136,1934,2,0,P|272:239|234:354,1,250,4|0,3:0|0:0,0:0:0:0:
89,372,3371,6,0,P|19:269|57:154,1,250,4|0,3:0|0:0,0:0:0:0:
202,136,4808,2,0,L|411:172,1,200,4|2,3:0|0:0,0:0:0:0:
474,236,5886,1,0,0:0:0:0:
395,298,6245,6,0,P|274:269|137:259,1,250,4|0,3:0|0:0,0:0:0:0:
48,146,7682,2,0,P|25:81|136:42,2,200,4|2|2,3:0|0:0|0:0,0:0:0:0:
256,192,9203,12,2,10563,0:0:0:0:
470,361,11634,6,2,P|480:306|495:253,1,100,6|2,3:1|1:0,0:1:0:0:
416,197,12350,1,8,0:1:0:0:
487,64,12887,2,2,B|429:72|406:30|337:40,1,150,4|8,3:2|1:2,0:1:0:0:
245,9,13783,1,2,1:3:0:0:
194,95,14141,1,2,1:3:0:0:
96,72,14499,6,2,B|74:103|74:103|105:174,1,100,6|2,3:1|1:0,0:1:0:0:
26,228,15216,1,10,0:1:0:0:
115,348,15753,2,2,P|167:318|264:318,1,150,4|8,3:2|1:2,0:1:0:0:
330,249,16648,1,8,3:0:0:0:
194,95,17365,6,2,L|176:205,1,100,6|2,3:1|1:0,0:1:0:0:
105,263,18081,1,8,3:1:0:0:
23,137,18619,2,2,P|31:80|125:47,1,150,4|8,3:2|1:2,0:1:0:0:
194,95,19514,1,2,1:3:0:0:
258,18,19872,1,2,1:3:0:0:
348,59,20231,6,2,P|330:152|331:171,1,100,6|8,3:1|1:2,0:1:0:0:
382,242,20947,1,10,0:1:0:0:
512,288,21484,2,2,P|443:272|241:384,1,300,6|8,3:1|3:0,0:1:0:0:
109,361,23130,6,0,L|123:247,1,100,6|8,3:2|0:1,0:0:0:0:
28,223,23866,2,0,P|8:170|43:124,1,100,0|8,3:0|0:1,0:0:0:0:
74,52,24563,2,0,P|158:44|123:136,1,200,0|0,3:0|3:0,0:0:0:0:
204,208,25640,1,8,0:1:0:0:
302,226,26000,6,0,L|289:327,1,100,0|10,3:0|0:1,0:0:0:0:
387,341,26718,2,0,L|398:242,1,100,0|8,3:0|0:1,0:0:0:0:
465,170,27437,2,0,P|508:125|420:30,1,200,0|2,3:0|3:2,0:0:0:0:
353,74,28515,1,8,0:1:0:0:
266,24,28874,6,0,L|161:49,1,100,2|8,3:2|0:1,0:0:0:0:
70,28,29592,2,0,B|43:57|43:57|73:117,1,100,0|8,3:0|0:1,0:0:0:0:
48,208,30311,2,0,P|25:260|125:257,1,200,0|0,3:0|3:0,0:0:0:0:
187,183,31389,1,8,0:1:0:0:
281,230,31748,6,0,P|305:282|314:340,1,100,0|8,3:0|0:1,0:0:0:0:
398,376,32467,2,0,L|495:355,1,100,2|10,3:1|0:1,0:0:0:0:
508,255,33175,2,0,P|482:191|470:110,2,150,2|2|8,3:1|3:1|0:1,0:0:0:0:
495,355,34612,6,0,L|398:376,1,100,2|8,3:2|0:1,0:0:0:0:
313,323,35330,1,0,3:0:0:0:
225,372,35689,1,8,0:1:0:0:
143,313,36049,2,2,L|170:156,1,150,2|2,3:2|0:0,0:1:0:0:
73,48,37127,1,8,0:1:0:0:
171,27,37486,6,2,L|271:50,1,100,2|8,3:2|0:1,0:1:0:0:
346,111,38204,1,0,3:0:0:0:
427,53,38564,1,8,0:1:0:0:
500,120,38923,2,2,B|485:181|485:181|494:196|494:196|470:285,2,150,2|2|8,3:2|0:0|0:1,0:1:0:0:
427,53,40360,6,2,B|344:46|315:116|226:119,1,200,2|0,3:2|3:0,0:1:0:0:
162,55,41438,1,8,0:1:0:0:
64,78,41797,2,0,P|25:116|30:178,1,100,0|8,3:0|0:1,0:0:0:0:
81,240,42516,2,0,L|65:361,1,100,2|8,3:2|0:1,0:0:0:0:
158,380,43234,5,2,3:0:0:0:
228,309,43594,1,2,1:3:0:0:
314,358,43953,2,0,P|371:337|412:336,1,100,2|0,3:0|1:0,0:0:0:0:
458,348,44504,6,0,P|483:304|469:240,1,100,4|2,3:1|0:3,0:0:0:0:
422,171,45228,2,0,P|397:127|411:63,1,100,4|0,3:2|3:0,0:0:0:0:
442,50,45764,1,4,1:2:0:0:
354,1,46121,6,0,L|204:25,1,150,6|10,3:2|3:2,0:0:0:0:
138,98,47015,1,10,3:2:0:0:
39,77,47372,2,0,B|28:128|28:128|70:178,1,100,10|10,3:2|3:2,0:0:0:0:
121,241,48088,2,0,P|206:205|267:204,1,150,10|12,3:2|2:1,0:0:0:0:
337,136,48982,5,4,3:2:0:0:
424,189,49340,1,8,0:1:0:0:
395,284,49688,1,8,3:1:0:0:
289,380,50212,6,0,P|214:356|132:362,1,150,4|8,3:2|0:1,0:0:0:0:
108,323,50932,2,0,L|1:352,1,100,2|2,3:0|3:0,0:0:0:0:
56,194,51812,6,0,L|23:91,1,100,4|2,3:1|1:2,0:0:0:0:
81,16,52538,1,0,3:0:0:0:
174,52,52899,1,0,1:0:0:0:
265,7,53272,2,0,L|295:102,1,100,2|2,3:2|1:2,0:0:0:0:
384,148,53999,1,0,3:0:0:0:
468,95,54362,1,0,1:0:0:0:
498,190,54726,6,0,P|486:237|482:304,1,100,2|2,3:2|1:2,0:0:0:0:
402,349,55453,2,0,P|357:330|296:328,1,100,0|0,3:0|1:0,0:0:0:0:
229,262,56181,5,2,3:2:0:0:
280,176,56531,1,0,1:0:0:0:
217,97,56882,1,0,3:0:0:0:
265,9,57233,1,0,1:0:0:0:
165,1,57584,6,0,L|60:19,1,100,2|2,3:2|1:2,0:0:0:0:
7,98,58306,2,0,P|29:152|32:196,1,100,0|0,3:0|1:0,0:0:0:0:
111,254,59029,1,2,3:2:0:0:
210,260,59391,2,0,P|188:308|185:363,2,100,0|0|0,1:0|3:0|1:0,0:0:0:0:
301,219,60475,6,0,L|247:16,1,200,2|2,3:1|3:1,0:0:0:0:
349,13,61546,1,2,1:0:0:0:
442,47,61903,2,0,L|420:157,1,100,2|2,3:1|1:0,0:0:0:0:
480,226,62617,2,0,L|499:324,1,100,2|4,3:1|1:2,0:0:0:0:
410,376,63332,6,0,P|377:359|299:354,1,100,4|2,3:1|1:2,0:0:0:0:
237,288,64068,1,0,3:0:0:0:
160,352,64436,1,0,1:0:0:0:
72,303,64804,2,0,L|84:200,1,100,2|2,3:2|1:2,0:0:0:0:
160,139,65518,1,0,3:0:0:0:
84,73,65875,1,0,1:0:0:0:
167,18,66232,6,0,P|245:28|280:24,1,100,0|2,3:0|1:2,0:0:0:0:
331,101,66946,2,0,L|313:205,1,100,2|0,3:2|1:0,0:0:0:0:
399,251,67661,2,0,P|454:233|502:234,2,100,2|0|0,3:2|1:0|3:0,0:0:0:0:
313,199,68738,5,0,1:0:0:0:
239,267,69098,2,0,L|266:368,1,100,2|2,3:2|1:2,0:0:0:0:
165,375,69816,2,0,P|113:360|48:362,1,100,0|0,3:0|1:0,0:0:0:0:
3,282,70535,1,2,3:2:0:0:
63,202,70894,1,0,1:0:0:0:
0,123,71253,2,0,L|21:20,2,100,0|0|0,3:0|1:0|3:0,0:0:0:0:
63,202,72331,5,2,1:0:0:0:
145,242,72690,2,0,P|201:216|247:223,1,100,2|2,3:1|1:0,0:0:0:0:
286,208,73253,2,2,B|247:316|247:316|269:352,1,150,6|4,3:1|1:2,0:1:0:0:
358,381,74140,1,2,1:2:0:0:
440,324,74489,1,2,1:3:0:0:
256,192,74838,12,4,76275,3:1:0:0:
440,324,77712,6,2,L|414:215,1,100,6|2,3:1|1:0,0:1:0:0:
330,176,78430,1,8,3:1:0:0:
224,282,78969,2,2,B|160:275|152:232|79:233,1,150,4|8,3:2|1:2,0:1:0:0:
19,156,79867,1,8,3:0:0:0:
89,85,80227,1,0,3:0:0:0:
14,18,80586,6,2,P|115:55|210:54,1,200,6|10,3:1|0:1,0:1:0:0:
335,14,81842,1,6,3:1:0:0:
256,192,82018,12,0,87665,0:0:0:0:
