osu file format v14

[General]
AudioFilename: audio.mp3
AudioLeadIn: 0
PreviewTime: 166007
Countdown: 0
SampleSet: Normal
StackLeniency: 0.7
Mode: 1
LetterboxInBreaks: 0
WidescreenStoryboard: 1

[Editor]
Bookmarks: 13244,25086,51346,63977,64362,82520,89226,101857
DistanceSpacing: 1
BeatDivisor: 4
GridSize: 16
TimelineZoom: 1.3

[Metadata]
Title:Blue Bird feat. k*chan [ dj-Jo Remix ]
TitleUnicode:Blue Bird feat. k*chan [ dj-Jo Remix ]
Artist:Ikimonogakari
ArtistUnicode:いきものがかり
Creator:Roxy-
Version:Ron's Muzukashii
Source:NARUTO-ナルト- 疾風伝
Tags:future bass jersey club trap experimental electronic japanese naruto shippuden op opening djjo kchan ブルーバード [r] ron KuroKuroKuro full version ver. ikimono-gakari j-pop jpop
BeatmapID:3471469
BeatmapSetID:1697508

[Difficulty]
HPDrainRate:6
CircleSize:5
OverallDifficulty:4.5
ApproachRate:5
SliderMultiplier:1.4
SliderTickRate:1

[Events]
//Background and Video events
0,0,"Mountain_Bluebird.jpg",0,75
//Break Periods
//Storyboard Layer 0 (Background)
//Storyboard Layer 1 (Fail)
//Storyboard Layer 2 (Pass)
//Storyboard Layer 3 (Foreground)
//Storyboard Layer 4 (Overlay)
//Storyboard Sound Samples

[TimingPoints]
810,394.736842105263,4,1,0,100,1,0
810,-100,4,1,0,60,0,0
13244,-100,4,1,0,85,0,0
26073,-100,4,1,0,80,0,0
48375,-100,4,1,0,95,0,0
50842,-100,4,1,0,80,0,0
64362,-100,4,1,0,90,0,1
82717,-100,4,1,0,85,0,0
104231,-100,4,1,0,90,0,0
105415,-100,4,1,0,85,0,0
114494,-100,4,1,0,90,0,1
139559,-100,4,1,0,80,0,0
152191,-100,4,1,0,65,0,0
158704,-100,4,1,0,60,0,0
163046,-100,4,1,0,80,0,0
166599,-100,4,1,0,90,0,1
179033,-100,4,1,0,90,0,0
179625,-100,4,1,0,90,0,1
199362,-100,4,1,0,85,0,0

[HitObjects]
252,192,810,5,0,0:0:0:0:
252,192,1599,1,0,0:0:0:0:
252,192,2388,1,8,0:0:0:0:
252,192,3967,1,8,0:0:0:0:
252,192,4757,1,8,0:0:0:0:
252,192,5546,1,0,0:0:0:0:
252,192,7125,1,0,0:0:0:0:
252,192,7915,1,0,0:0:0:0:
252,192,8704,1,8,0:0:0:0:
252,192,10283,1,8,0:0:0:0:
252,192,11073,1,0,0:0:0:0:
252,192,11665,1,8,0:0:0:0:
256,192,11862,12,0,12849,0:0:0:0:
252,192,13046,5,8,0:0:0:0:
252,192,13244,1,4,0:0:0:0:
252,192,13638,1,0,0:0:0:0:
252,192,13836,1,8,0:0:0:0:
252,192,14033,1,0,0:0:0:0:
252,192,14625,1,0,0:0:0:0:
252,192,14823,1,8,0:0:0:0:
252,192,15217,1,8,0:0:0:0:
252,192,15415,1,0,0:0:0:0:
252,192,15612,1,8,0:0:0:0:
252,192,16204,1,8,0:0:0:0:
252,192,16402,1,0,0:0:0:0:
252,192,16796,1,0,0:0:0:0:
252,192,16994,1,8,0:0:0:0:
252,192,17191,1,0,0:0:0:0:
252,192,17290,1,0,0:0:0:0:
252,192,17388,1,0,0:0:0:0:
252,192,17586,1,0,0:0:0:0:
252,192,17783,1,8,0:0:0:0:
252,192,17981,1,0,0:0:0:0:
252,192,18573,1,0,0:0:0:0:
252,192,18770,1,8,0:0:0:0:
252,192,19165,1,8,0:0:0:0:
252,192,19362,1,8,0:0:0:0:
252,192,19559,1,0,0:0:0:0:
252,192,19954,1,0,0:0:0:0:
252,192,20152,1,12,0:0:0:0:
252,192,20349,1,0,0:0:0:0:
252,192,20941,1,8,0:0:0:0:
252,192,21138,1,0,0:0:0:0:
252,192,21533,1,8,0:0:0:0:
252,192,21731,1,0,0:0:0:0:
252,192,21928,1,8,0:0:0:0:
252,192,22520,1,0,0:0:0:0:
252,192,22717,1,8,0:0:0:0:
252,192,23112,1,8,0:0:0:0:
252,192,23309,1,0,0:0:0:0:
252,192,23507,1,8,0:0:0:0:
252,192,23606,1,8,0:0:0:0:
252,192,23704,1,8,0:0:0:0:
252,192,23902,1,0,0:0:0:0:
252,192,24099,1,8,0:0:0:0:
252,192,24296,1,0,0:0:0:0:
252,192,24691,1,0,0:0:0:0:
252,192,25086,1,8,0:0:0:0:
252,192,26073,1,4,0:0:0:0:
252,192,26467,1,8,0:0:0:0:
252,192,26862,1,0,0:0:0:0:
252,192,27059,1,0,0:0:0:0:
252,192,27257,1,8,0:0:0:0:
252,192,27652,1,0,0:0:0:0:
252,192,28046,1,8,0:0:0:0:
252,192,28441,1,0,0:0:0:0:
252,192,28638,1,0,0:0:0:0:
252,192,28836,1,8,0:0:0:0:
252,192,29033,1,8,0:0:0:0:
252,192,29231,1,0,0:0:0:0:
252,192,29625,1,8,0:0:0:0:
252,192,30020,1,0,0:0:0:0:
252,192,30217,1,0,0:0:0:0:
252,192,30415,1,8,0:0:0:0:
252,192,30809,1,0,0:0:0:0:
252,192,31204,1,8,0:0:0:0:
252,192,31796,1,8,0:0:0:0:
252,192,32191,1,8,0:0:0:0:
252,192,32388,1,4,0:0:0:0:
252,192,32783,1,8,0:0:0:0:
252,192,33178,1,0,0:0:0:0:
252,192,33474,1,8,0:0:0:0:
252,192,33671,1,8,0:0:0:0:
252,192,33770,1,8,0:0:0:0:
252,192,33967,1,0,0:0:0:0:
252,192,34362,1,8,0:0:0:0:
252,192,34757,1,0,0:0:0:0:
252,192,35053,1,8,0:0:0:0:
252,192,35250,1,8,0:0:0:0:
252,192,35349,1,8,0:0:0:0:
252,192,35546,1,0,0:0:0:0:
252,192,35941,1,8,0:0:0:0:
252,192,36138,1,0,0:0:0:0:
252,192,36336,1,8,0:0:0:0:
252,192,36434,1,8,0:0:0:0:
252,192,36632,1,0,0:0:0:0:
252,192,36731,1,0,0:0:0:0:
252,192,36928,1,8,0:0:0:0:
252,192,37125,1,0,0:0:0:0:
252,192,37520,1,8,0:0:0:0:
252,192,37717,1,0,0:0:0:0:
252,192,37915,1,8,0:0:0:0:
252,192,38112,1,0,0:0:0:0:
252,192,38309,1,8,0:0:0:0:
252,192,38507,1,8,0:0:0:0:
252,192,38704,1,4,0:0:0:0:
252,192,39494,1,8,0:0:0:0:
252,192,39691,1,0,0:0:0:0:
252,192,39888,1,0,0:0:0:0:
252,192,40020,1,0,0:0:0:0:
252,192,40152,1,0,0:0:0:0:
252,192,40283,1,8,0:0:0:0:
252,192,41073,1,8,0:0:0:0:
252,192,41270,1,0,0:0:0:0:
252,192,41467,1,0,0:0:0:0:
252,192,41665,1,0,0:0:0:0:
252,192,41862,1,8,0:0:0:0:
252,192,42652,1,0,0:0:0:0:
252,192,42849,1,8,0:0:0:0:
252,192,43046,1,8,0:0:0:0:
252,192,43178,1,8,0:0:0:0:
252,192,43309,1,8,0:0:0:0:
252,192,43441,1,0,0:0:0:0:
252,192,44231,1,0,0:0:0:0:
252,192,44428,1,8,0:0:0:0:
252,192,44625,1,8,0:0:0:0:
252,192,44823,1,8,0:0:0:0:
252,192,45020,1,4,0:0:0:0:
252,192,45415,1,8,0:0:0:0:
252,192,45809,1,0,0:0:0:0:
252,192,46106,1,0,0:0:0:0:
252,192,46204,1,8,0:0:0:0:
252,192,46402,1,8,0:0:0:0:
252,192,46599,1,0,0:0:0:0:
252,192,46994,1,8,0:0:0:0:
252,192,47388,1,0,0:0:0:0:
252,192,47684,1,0,0:0:0:0:
252,192,47783,1,8,0:0:0:0:
252,192,47981,1,0,0:0:0:0:
252,192,48375,1,4,0:0:0:0:
252,192,48573,1,4,0:0:0:0:
252,192,48770,1,4,0:0:0:0:
252,192,48967,1,4,0:0:0:0:
252,192,49165,1,4,0:0:0:0:
252,192,49362,1,4,0:0:0:0:
252,192,49559,1,12,0:0:0:0:
252,192,49954,1,12,0:0:0:0:
252,192,50152,1,12,0:0:0:0:
252,192,50349,1,12,0:0:0:0:
252,192,50546,1,12,0:0:0:0:
252,192,50941,1,8,0:0:0:0:
252,192,51336,1,4,0:0:0:0:
252,192,52125,1,8,0:0:0:0:
252,192,52717,1,0,0:0:0:0:
252,192,53112,1,0,0:0:0:0:
252,192,53408,1,0,0:0:0:0:
252,192,53704,1,0,0:0:0:0:
252,192,53902,1,8,0:0:0:0:
252,192,54099,1,0,0:0:0:0:
252,192,54296,1,0,0:0:0:0:
252,192,54494,1,8,0:0:0:0:
252,192,55283,1,0,0:0:0:0:
252,192,55678,1,8,0:0:0:0:
252,192,55875,1,0,0:0:0:0:
252,192,56270,1,8,0:0:0:0:
252,192,56369,1,8,0:0:0:0:
252,192,56467,1,8,0:0:0:0:
252,192,56862,1,0,0:0:0:0:
252,192,57059,1,8,0:0:0:0:
252,192,57257,1,8,0:0:0:0:
252,192,57454,1,8,0:0:0:0:
252,192,57652,1,0,0:0:0:0:
252,192,58441,1,8,0:0:0:0:
252,192,59033,1,0,0:0:0:0:
252,192,59428,1,0,0:0:0:0:
252,192,59724,1,0,0:0:0:0:
252,192,60020,1,0,0:0:0:0:
252,192,60217,1,8,0:0:0:0:
252,192,60415,1,0,0:0:0:0:
252,192,60612,1,0,0:0:0:0:
252,192,60809,1,8,0:0:0:0:
252,192,61204,1,0,0:0:0:0:
252,192,61599,1,8,0:0:0:0:
252,192,61895,1,8,0:0:0:0:
252,192,62191,1,0,0:0:0:0:
252,192,62388,1,8,0:0:0:0:
252,192,62586,1,8,0:0:0:0:
252,192,62783,1,0,0:0:0:0:
252,192,63178,1,12,0:0:0:0:
252,192,63474,1,12,0:0:0:0:
252,192,63770,1,12,0:0:0:0:
252,192,64362,1,4,0:0:0:0:
252,192,64757,1,8,0:0:0:0:
252,192,64954,1,0,0:0:0:0:
252,192,65152,1,0,0:0:0:0:
252,192,65546,1,0,0:0:0:0:
252,192,65744,1,8,0:0:0:0:
252,192,65842,1,8,0:0:0:0:
252,192,66040,1,8,0:0:0:0:
252,192,66138,1,8,0:0:0:0:
252,192,66336,1,0,0:0:0:0:
252,192,66731,1,8,0:0:0:0:
252,192,67125,1,0,0:0:0:0:
252,192,67323,1,8,0:0:0:0:
252,192,67520,1,0,0:0:0:0:
252,192,67915,1,8,0:0:0:0:
252,192,68112,1,0,0:0:0:0:
252,192,68211,1,0,0:0:0:0:
252,192,68309,1,0,0:0:0:0:
252,192,68507,1,8,0:0:0:0:
252,192,68902,1,12,0:0:0:0:
252,192,69099,1,12,0:0:0:0:
252,192,69296,1,12,0:0:0:0:
252,192,69494,1,0,0:0:0:0:
252,192,69592,1,0,0:0:0:0:
252,192,69691,1,0,0:0:0:0:
252,192,69888,1,0,0:0:0:0:
252,192,70086,1,8,0:0:0:0:
252,192,70283,1,0,0:0:0:0:
252,192,71073,1,8,0:0:0:0:
252,192,71270,1,0,0:0:0:0:
252,192,71467,1,0,0:0:0:0:
252,192,71862,1,8,0:0:0:0:
252,192,72059,1,0,0:0:0:0:
252,192,72158,1,0,0:0:0:0:
252,192,72356,1,0,0:0:0:0:
252,192,72454,1,0,0:0:0:0:
252,192,72652,1,8,0:0:0:0:
252,192,73046,1,0,0:0:0:0:
252,192,73441,1,8,0:0:0:0:
252,192,73638,1,0,0:0:0:0:
252,192,73836,1,8,0:0:0:0:
252,192,74231,1,0,0:0:0:0:
252,192,74428,1,8,0:0:0:0:
252,192,74527,1,8,0:0:0:0:
252,192,74625,1,8,0:0:0:0:
252,192,74823,1,0,0:0:0:0:
252,192,75217,1,4,0:0:0:0:
252,192,75415,1,4,0:0:0:0:
252,192,75612,1,4,0:0:0:0:
252,192,75809,1,8,0:0:0:0:
252,192,76007,1,0,0:0:0:0:
252,192,76204,1,8,0:0:0:0:
252,192,76402,1,8,0:0:0:0:
252,192,76599,1,0,0:0:0:0:
252,192,76994,1,0,0:0:0:0:
252,192,77389,1,8,0:0:0:0:
252,192,77586,1,0,0:0:0:0:
252,192,77684,1,0,0:0:0:0:
252,192,77783,1,0,0:0:0:0:
252,192,77981,1,8,0:0:0:0:
252,192,78375,1,0,0:0:0:0:
252,192,78770,1,8,0:0:0:0:
252,192,78967,1,8,0:0:0:0:
252,192,79165,1,0,0:0:0:0:
252,192,79362,1,8,0:0:0:0:
252,192,79461,1,8,0:0:0:0:
252,192,79559,1,8,0:0:0:0:
252,192,79954,1,0,0:0:0:0:
252,192,80152,1,8,0:0:0:0:
252,192,80250,1,8,0:0:0:0:
252,192,80349,1,8,0:0:0:0:
252,192,80744,1,8,0:0:0:0:
252,192,80941,1,8,0:0:0:0:
252,192,81138,1,0,0:0:0:0:
252,192,81731,1,8,0:0:0:0:
252,192,82520,1,8,0:0:0:0:
252,192,82718,1,4,0:0:0:0:
252,192,83112,1,0,0:0:0:0:
252,192,83310,1,8,0:0:0:0:
252,192,83704,1,0,0:0:0:0:
252,192,83902,1,0,0:0:0:0:
252,192,84099,1,8,0:0:0:0:
252,192,84297,1,0,0:0:0:0:
252,192,84691,1,8,0:0:0:0:
252,192,84889,1,8,0:0:0:0:
252,192,85283,1,0,0:0:0:0:
252,192,85481,1,8,0:0:0:0:
252,192,85678,1,8,0:0:0:0:
252,192,85876,1,0,0:0:0:0:
252,192,86270,1,0,0:0:0:0:
252,192,86468,1,8,0:0:0:0:
252,192,86665,1,0,0:0:0:0:
252,192,86764,1,0,0:0:0:0:
252,192,86862,1,0,0:0:0:0:
252,192,87060,1,0,0:0:0:0:
252,192,87257,1,8,0:0:0:0:
252,192,87652,1,0,0:0:0:0:
252,192,87849,1,8,0:0:0:0:
252,192,88046,1,8,0:0:0:0:
252,192,88244,1,0,0:0:0:0:
252,192,88342,1,0,0:0:0:0:
252,192,88441,1,0,0:0:0:0:
252,192,88639,1,8,0:0:0:0:
252,192,89231,1,4,0:0:0:0:
252,192,89625,1,8,0:0:0:0:
252,192,90020,1,8,0:0:0:0:
252,192,90217,1,0,0:0:0:0:
252,192,90415,1,8,0:0:0:0:
252,192,90612,1,8,0:0:0:0:
252,192,90809,1,0,0:0:0:0:
252,192,91204,1,8,0:0:0:0:
252,192,91402,1,0,0:0:0:0:
252,192,91500,1,0,0:0:0:0:
252,192,91599,1,0,0:0:0:0:
252,192,91796,1,8,0:0:0:0:
252,192,92191,1,8,0:0:0:0:
252,192,92388,1,0,0:0:0:0:
252,192,92783,1,8,0:0:0:0:
252,192,93178,1,0,0:0:0:0:
252,192,93375,1,0,0:0:0:0:
252,192,93573,1,8,0:0:0:0:
252,192,93967,1,8,0:0:0:0:
252,192,94165,1,0,0:0:0:0:
252,192,94362,1,8,0:0:0:0:
252,192,94757,1,0,0:0:0:0:
252,192,94856,1,0,0:0:0:0:
252,192,94954,1,0,0:0:0:0:
252,192,95546,1,0,0:0:0:0:
252,192,95941,1,8,0:0:0:0:
252,192,96336,1,0,0:0:0:0:
252,192,96533,1,0,0:0:0:0:
252,192,96731,1,8,0:0:0:0:
252,192,96928,1,0,0:0:0:0:
252,192,97125,1,8,0:0:0:0:
252,192,97520,1,0,0:0:0:0:
252,192,97717,1,8,0:0:0:0:
252,192,97816,1,8,0:0:0:0:
252,192,97915,1,8,0:0:0:0:
252,192,98112,1,0,0:0:0:0:
252,192,98507,1,8,0:0:0:0:
252,192,98704,1,0,0:0:0:0:
252,192,98902,1,0,0:0:0:0:
252,192,99099,1,8,0:0:0:0:
252,192,99296,1,0,0:0:0:0:
252,192,99691,1,8,0:0:0:0:
252,192,99888,1,0,0:0:0:0:
252,192,100086,1,0,0:0:0:0:
252,192,100283,1,8,0:0:0:0:
252,192,100481,1,0,0:0:0:0:
252,192,100678,1,8,0:0:0:0:
252,192,101073,1,0,0:0:0:0:
252,192,101171,1,0,0:0:0:0:
252,192,101270,1,0,0:0:0:0:
252,192,101467,1,8,0:0:0:0:
252,192,101665,1,8,0:0:0:0:
252,192,101862,1,4,0:0:0:0:
252,192,102257,1,8,0:0:0:0:
252,192,102849,1,8,0:0:0:0:
252,192,103441,1,8,0:0:0:0:
252,192,104033,1,8,0:0:0:0:
252,192,104428,1,12,0:0:0:0:
252,192,104625,1,12,0:0:0:0:
252,192,104823,1,12,0:0:0:0:
252,192,105020,1,4,0:0:0:0:
252,192,105415,1,8,0:0:0:0:
252,192,106007,1,8,0:0:0:0:
252,192,106599,1,8,0:0:0:0:
252,192,107191,1,8,0:0:0:0:
252,192,107586,1,0,0:0:0:0:
252,192,107684,1,0,0:0:0:0:
252,192,107783,1,0,0:0:0:0:
252,192,107981,1,8,0:0:0:0:
252,192,108178,1,4,0:0:0:0:
252,192,108474,1,0,0:0:0:0:
252,192,108573,1,8,0:0:0:0:
252,192,108770,1,8,0:0:0:0:
252,192,109066,1,0,0:0:0:0:
252,192,109362,1,0,0:0:0:0:
252,192,109658,1,8,0:0:0:0:
252,192,109954,1,8,0:0:0:0:
252,192,110250,1,0,0:0:0:0:
252,192,110546,1,0,0:0:0:0:
252,192,110842,1,8,0:0:0:0:
252,192,111336,1,0,0:0:0:0:
252,192,111533,1,8,0:0:0:0:
252,192,111731,1,8,0:0:0:0:
252,192,111928,1,0,0:0:0:0:
252,192,112125,1,0,0:0:0:0:
252,192,112224,1,0,0:0:0:0:
252,192,112323,1,0,0:0:0:0:
252,192,112520,1,8,0:0:0:0:
252,192,112717,1,0,0:0:0:0:
252,192,113112,1,8,0:0:0:0:
252,192,113310,1,12,0:0:0:0:
252,192,113704,1,0,0:0:0:0:
252,192,113902,1,8,0:0:0:0:
252,192,114099,1,0,0:0:0:0:
252,192,114296,1,0,0:0:0:0:
252,192,114494,1,12,0:0:0:0:
252,192,114888,1,8,0:0:0:0:
252,192,115086,1,0,0:0:0:0:
252,192,115283,1,8,0:0:0:0:
252,192,115481,1,8,0:0:0:0:
252,192,115678,1,0,0:0:0:0:
252,192,116073,1,0,0:0:0:0:
252,192,116270,1,8,0:0:0:0:
252,192,116369,1,8,0:0:0:0:
252,192,116467,1,8,0:0:0:0:
252,192,116665,1,0,0:0:0:0:
252,192,117059,1,8,0:0:0:0:
252,192,117651,1,0,0:0:0:0:
252,192,117849,1,0,0:0:0:0:
252,192,118046,1,8,0:0:0:0:
252,192,118244,1,8,0:0:0:0:
252,192,118441,1,0,0:0:0:0:
252,192,118836,1,8,0:0:0:0:
252,192,119230,1,0,0:0:0:0:
252,192,119428,1,8,0:0:0:0:
252,192,119625,1,8,0:0:0:0:
252,192,119823,1,0,0:0:0:0:
252,192,120020,1,0,0:0:0:0:
252,192,120119,1,0,0:0:0:0:
252,192,120217,1,0,0:0:0:0:
252,192,120415,1,8,0:0:0:0:
252,192,120612,1,0,0:0:0:0:
252,192,120809,1,12,0:0:0:0:
252,192,121204,1,8,0:0:0:0:
252,192,121401,1,0,0:0:0:0:
252,192,121599,1,0,0:0:0:0:
252,192,121796,1,8,0:0:0:0:
252,192,121994,1,0,0:0:0:0:
252,192,122388,1,0,0:0:0:0:
252,192,122586,1,8,0:0:0:0:
252,192,122783,1,8,0:0:0:0:
252,192,122981,1,0,0:0:0:0:
252,192,123375,1,8,0:0:0:0:
252,192,123573,1,0,0:0:0:0:
252,192,123671,1,0,0:0:0:0:
252,192,123770,1,0,0:0:0:0:
252,192,123967,1,8,0:0:0:0:
252,192,124165,1,0,0:0:0:0:
252,192,124362,1,8,0:0:0:0:
252,192,124757,1,0,0:0:0:0:
252,192,124954,1,0,0:0:0:0:
252,192,125152,1,8,0:0:0:0:
252,192,125546,1,0,0:0:0:0:
252,192,125941,1,8,0:0:0:0:
252,192,126138,1,0,0:0:0:0:
252,192,126336,1,0,0:0:0:0:
252,192,126533,1,8,0:0:0:0:
252,192,126731,1,0,0:0:0:0:
252,192,126928,1,8,0:0:0:0:
252,192,127125,1,0,0:0:0:0:
252,192,127915,1,12,0:0:0:0:
252,192,128704,1,0,0:0:0:0:
252,192,129494,1,12,0:0:0:0:
252,192,130283,1,0,0:0:0:0:
252,192,131073,1,12,0:0:0:0:
252,192,131862,1,0,0:0:0:0:
252,192,132652,1,12,0:0:0:0:
252,192,133046,1,12,0:0:0:0:
252,192,133441,1,0,0:0:0:0:
252,192,134033,1,0,0:0:0:0:
252,192,134231,1,12,0:0:0:0:
252,192,135020,1,0,0:0:0:0:
252,192,135809,1,12,0:0:0:0:
252,192,136599,1,0,0:0:0:0:
252,192,137388,1,12,0:0:0:0:
252,192,138178,1,0,0:0:0:0:
252,192,138474,1,0,0:0:0:0:
252,192,138770,1,0,0:0:0:0:
252,192,138967,1,8,0:0:0:0:
252,192,139362,1,8,0:0:0:0:
252,192,139559,1,0,0:0:0:0:
252,192,140546,1,0,0:0:0:0:
252,192,140744,1,8,0:0:0:0:
252,192,140941,1,8,0:0:0:0:
252,192,141138,1,8,0:0:0:0:
252,192,141336,1,0,0:0:0:0:
252,192,141731,1,0,0:0:0:0:
252,192,141928,1,8,0:0:0:0:
252,192,142125,1,0,0:0:0:0:
252,192,142323,1,8,0:0:0:0:
252,192,142421,1,8,0:0:0:0:
252,192,142520,1,8,0:0:0:0:
252,192,142717,1,0,0:0:0:0:
252,192,143309,1,0,0:0:0:0:
252,192,143507,1,8,0:0:0:0:
252,192,143704,1,0,0:0:0:0:
252,192,143902,1,8,0:0:0:0:
252,192,144099,1,8,0:0:0:0:
252,192,144296,1,0,0:0:0:0:
252,192,144494,1,0,0:0:0:0:
252,192,144691,1,8,0:0:0:0:
252,192,145086,1,8,0:0:0:0:
252,192,145283,1,0,0:0:0:0:
252,192,145481,1,0,0:0:0:0:
252,192,145678,1,0,0:0:0:0:
252,192,145875,1,8,0:0:0:0:
252,192,146467,1,8,0:0:0:0:
252,192,146566,1,8,0:0:0:0:
252,192,146665,1,8,0:0:0:0:
252,192,146862,1,0,0:0:0:0:
252,192,147059,1,8,0:0:0:0:
252,192,147257,1,0,0:0:0:0:
252,192,147454,1,0,0:0:0:0:
252,192,147652,1,8,0:0:0:0:
252,192,147849,1,0,0:0:0:0:
252,192,148046,1,8,0:0:0:0:
252,192,148244,1,0,0:0:0:0:
252,192,148441,1,8,0:0:0:0:
252,192,148638,1,8,0:0:0:0:
252,192,148836,1,8,0:0:0:0:
252,192,149033,1,0,0:0:0:0:
252,192,149625,1,8,0:0:0:0:
252,192,150020,1,0,0:0:0:0:
252,192,150415,1,8,0:0:0:0:
252,192,150809,1,8,0:0:0:0:
252,192,151007,1,8,0:0:0:0:
252,192,151204,1,0,0:0:0:0:
252,192,151402,1,8,0:0:0:0:
252,192,151599,1,0,0:0:0:0:
252,192,152191,1,12,0:0:0:0:
252,192,152783,1,0,0:0:0:0:
252,192,153178,1,0,0:0:0:0:
252,192,153573,1,0,0:0:0:0:
252,192,153967,1,0,0:0:0:0:
252,192,154362,1,0,0:0:0:0:
252,192,154757,1,0,0:0:0:0:
252,192,155152,1,0,0:0:0:0:
252,192,155349,1,8,0:0:0:0:
252,192,155546,1,0,0:0:0:0:
252,192,155941,1,0,0:0:0:0:
252,192,156336,1,0,0:0:0:0:
252,192,156731,1,0,0:0:0:0:
252,192,157125,1,0,0:0:0:0:
252,192,157520,1,0,0:0:0:0:
252,192,157915,1,0,0:0:0:0:
252,192,158112,1,8,0:0:0:0:
252,192,158309,1,0,0:0:0:0:
252,192,158507,1,8,0:0:0:0:
252,192,158704,1,0,0:0:0:0:
252,192,159099,1,0,0:0:0:0:
252,192,159494,1,0,0:0:0:0:
252,192,159691,1,0,0:0:0:0:
252,192,159790,1,0,0:0:0:0:
252,192,159888,1,0,0:0:0:0:
252,192,160086,1,8,0:0:0:0:
252,192,160283,1,0,0:0:0:0:
252,192,160678,1,8,0:0:0:0:
252,192,160875,1,8,0:0:0:0:
252,192,161073,1,0,0:0:0:0:
252,192,161467,1,0,0:0:0:0:
252,192,161665,1,8,0:0:0:0:
252,192,161862,1,0,0:0:0:0:
252,192,162257,1,8,0:0:0:0:
252,192,162454,1,8,0:0:0:0:
252,192,162652,1,0,0:0:0:0:
252,192,163046,1,8,0:0:0:0:
252,192,163244,1,8,0:0:0:0:
252,192,163638,1,0,0:0:0:0:
252,192,163836,1,0,0:0:0:0:
252,192,164033,1,0,0:0:0:0:
252,192,164231,1,0,0:0:0:0:
252,192,164329,1,0,0:0:0:0:
252,192,164428,1,0,0:0:0:0:
252,192,164625,1,0,0:0:0:0:
252,192,164823,1,8,0:0:0:0:
252,192,165217,1,12,0:0:0:0:
252,192,165415,1,12,0:0:0:0:
252,192,165612,1,12,0:0:0:0:
252,192,165809,1,12,0:0:0:0:
252,192,166599,1,4,0:0:0:0:
252,192,166994,1,8,0:0:0:0:
252,192,167191,1,0,0:0:0:0:
252,192,167388,1,8,0:0:0:0:
252,192,167684,1,0,0:0:0:0:
252,192,167783,1,0,0:0:0:0:
252,192,167981,1,8,0:0:0:0:
252,192,168375,1,8,0:0:0:0:
252,192,168573,1,0,0:0:0:0:
252,192,168671,1,0,0:0:0:0:
252,192,168967,1,8,0:0:0:0:
252,192,169165,1,0,0:0:0:0:
252,192,169362,1,8,0:0:0:0:
252,192,169559,1,8,0:0:0:0:
252,192,169757,1,0,0:0:0:0:
252,192,170152,1,8,0:0:0:0:
252,192,170546,1,0,0:0:0:0:
252,192,170842,1,8,0:0:0:0:
252,192,170941,1,8,0:0:0:0:
252,192,171138,1,0,0:0:0:0:
252,192,171336,1,0,0:0:0:0:
252,192,171533,1,8,0:0:0:0:
252,192,171632,1,8,0:0:0:0:
252,192,171731,1,8,0:0:0:0:
252,192,172323,1,0,0:0:0:0:
252,192,172520,1,8,0:0:0:0:
252,192,172717,1,8,0:0:0:0:
252,192,172915,1,0,0:0:0:0:
252,192,173309,1,8,0:0:0:0:
252,192,173704,1,0,0:0:0:0:
252,192,173803,1,0,0:0:0:0:
252,192,174000,1,8,0:0:0:0:
252,192,174099,1,8,0:0:0:0:
252,192,174296,1,0,0:0:0:0:
252,192,174691,1,8,0:0:0:0:
252,192,174987,1,8,0:0:0:0:
252,192,175283,1,0,0:0:0:0:
252,192,175481,1,8,0:0:0:0:
252,192,175678,1,8,0:0:0:0:
252,192,175875,1,8,0:0:0:0:
252,192,176073,1,0,0:0:0:0:
252,192,176467,1,8,0:0:0:0:
252,192,176862,1,0,0:0:0:0:
252,192,177059,1,8,0:0:0:0:
252,192,177158,1,8,0:0:0:0:
252,192,177454,1,8,0:0:0:0:
252,192,177652,1,0,0:0:0:0:
252,192,177849,1,0,0:0:0:0:
252,192,178046,1,8,0:0:0:0:
252,192,178441,1,12,0:0:0:0:
252,192,178737,1,12,0:0:0:0:
252,192,179033,1,12,0:0:0:0:
252,192,179625,1,4,0:0:0:0:
252,192,180020,1,8,0:0:0:0:
252,192,180415,1,0,0:0:0:0:
252,192,180809,1,0,0:0:0:0:
252,192,180941,1,0,0:0:0:0:
252,192,181073,1,0,0:0:0:0:
252,192,181204,1,8,0:0:0:0:
252,192,181599,1,8,0:0:0:0:
252,192,181796,1,0,0:0:0:0:
252,192,181994,1,8,0:0:0:0:
252,192,182092,1,8,0:0:0:0:
252,192,182191,1,8,0:0:0:0:
252,192,182388,1,0,0:0:0:0:
252,192,182586,1,0,0:0:0:0:
252,192,182783,1,8,0:0:0:0:
252,192,183178,1,0,0:0:0:0:
252,192,183474,1,0,0:0:0:0:
252,192,183572,1,8,0:0:0:0:
252,192,183770,1,0,0:0:0:0:
252,192,184165,1,0,0:0:0:0:
252,192,184362,1,8,0:0:0:0:
252,192,184559,1,0,0:0:0:0:
252,192,184757,1,8,0:0:0:0:
252,192,184954,1,8,0:0:0:0:
252,192,185152,1,0,0:0:0:0:
252,192,185349,1,8,0:0:0:0:
252,192,185546,1,0,0:0:0:0:
252,192,186336,1,8,0:0:0:0:
252,192,186533,1,0,0:0:0:0:
252,192,186730,1,0,0:0:0:0:
252,192,187125,1,0,0:0:0:0:
252,192,187322,1,8,0:0:0:0:
252,192,187421,1,8,0:0:0:0:
252,192,187618,1,8,0:0:0:0:
252,192,187717,1,8,0:0:0:0:
252,192,187915,1,0,0:0:0:0:
252,192,188309,1,8,0:0:0:0:
252,192,188704,1,0,0:0:0:0:
252,192,188902,1,8,0:0:0:0:
252,192,189099,1,0,0:0:0:0:
252,192,189494,1,8,0:0:0:0:
252,192,189691,1,0,0:0:0:0:
252,192,189790,1,0,0:0:0:0:
252,192,189888,1,0,0:0:0:0:
252,192,190086,1,8,0:0:0:0:
252,192,190480,1,4,0:0:0:0:
252,192,190678,1,4,0:0:0:0:
252,192,191072,1,8,0:0:0:0:
252,192,191270,1,0,0:0:0:0:
252,192,191467,1,8,0:0:0:0:
252,192,191665,1,8,0:0:0:0:
252,192,191862,1,0,0:0:0:0:
252,192,192257,1,0,0:0:0:0:
252,192,192652,1,8,0:0:0:0:
252,192,192849,1,0,0:0:0:0:
252,192,192948,1,0,0:0:0:0:
252,192,193046,1,0,0:0:0:0:
252,192,193244,1,8,0:0:0:0:
252,192,193638,1,8,0:0:0:0:
252,192,193737,1,8,0:0:0:0:
252,192,193836,1,8,0:0:0:0:
252,192,194033,1,0,0:0:0:0:
252,192,194230,1,8,0:0:0:0:
252,192,194428,1,0,0:0:0:0:
252,192,194625,1,8,0:0:0:0:
252,192,194822,1,0,0:0:0:0:
252,192,195217,1,0,0:0:0:0:
252,192,195415,1,8,0:0:0:0:
252,192,195612,1,0,0:0:0:0:
252,192,196007,1,0,0:0:0:0:
252,192,196204,1,8,0:0:0:0:
252,192,196401,1,0,0:0:0:0:
252,192,196994,1,8,0:0:0:0:
256,192,197191,8,0,198967,0:0:0:0:
256,187,199362,5,12,0:0:0:0:
252,192,199559,1,4,0:0:0:0:
252,192,199954,1,0,0:0:0:0:
252,192,200151,1,8,0:0:0:0:
252,192,200349,1,0,0:0:0:0:
252,192,200546,1,8,0:0:0:0:
252,192,200940,1,0,0:0:0:0:
252,192,201138,1,8,0:0:0:0:
252,192,201532,1,0,0:0:0:0:
252,192,201731,1,0,0:0:0:0:
252,192,202125,1,8,0:0:0:0:
252,192,202322,1,0,0:0:0:0:
252,192,202717,1,0,0:0:0:0:
252,192,203111,1,0,0:0:0:0:
252,192,203309,1,8,0:0:0:0:
252,192,203703,1,8,0:0:0:0:
252,192,203901,1,0,0:0:0:0:
252,192,204098,1,8,0:0:0:0:
252,192,204296,1,8,0:0:0:0:
252,192,204690,1,0,0:0:0:0:
252,192,205085,1,8,0:0:0:0:
252,192,205283,1,8,0:0:0:0:
252,192,205480,1,0,0:0:0:0:
252,192,206073,1,0,0:0:0:0:
252,192,206171,1,0,0:0:0:0:
252,192,206270,1,0,0:0:0:0:
252,192,206467,1,12,0:0:0:0:
252,192,206862,1,8,0:0:0:0:
252,192,207059,1,0,0:0:0:0:
252,192,207453,1,0,0:0:0:0:
252,192,207848,1,0,0:0:0:0:
252,192,208046,1,8,0:0:0:0:
252,192,208441,1,0,0:0:0:0:
252,192,208638,1,0,0:0:0:0:
252,192,208835,1,8,0:0:0:0:
252,192,209032,1,0,0:0:0:0:
252,192,209427,1,0,0:0:0:0:
252,192,209624,1,8,0:0:0:0:
252,192,210019,1,8,0:0:0:0:
252,192,210217,1,0,0:0:0:0:
252,192,210612,1,0,0:0:0:0:
252,192,211006,1,0,0:0:0:0:
252,192,211203,1,0,0:0:0:0:
252,192,211402,1,8,0:0:0:0:
252,192,211599,1,0,0:0:0:0:
252,192,211796,1,12,0:0:0:0:
252,192,211993,1,12,0:0:0:0:
252,192,212191,1,4,0:0:0:0:
252,192,213178,1,8,0:0:0:0:
252,192,213375,1,4,0:0:0:0:
252,192,213573,1,4,0:0:0:0:
252,192,213770,1,12,0:0:0:0:
256,192,213967,8,0,217125,0:0:0:0:
