osu file format v14

[General]
AudioFilename: audio.ogg
AudioLeadIn: 0
PreviewTime: 45210
Countdown: 0
SampleSet: Soft
StackLeniency: 0.7
Mode: 3
LetterboxInBreaks: 0
SpecialStyle: 0
WidescreenStoryboard: 1

[Editor]
Bookmarks: 14078,20568,33217,39526,45806,51962,67169,77207
DistanceSpacing: 0.5
BeatDivisor: 4
GridSize: 8
TimelineZoom: 1.4

[Metadata]
Title:Blue Bird (TV Size)
TitleUnicode:ブルーバード (TV Size)
Artist:Ikimonogakari
ArtistUnicode:いきものがかり
Creator:keksikosu
Version:Maxim's Normal
Source:NARUTO -ナルト- 疾風伝
Tags:naruto uzumaki ずまきナルト uchiha sasuke うちはサスケ jiraiya 自来也 shippuuden shipuuden shippuden shipuden rock jrock j-rock j-pop jpop op opening 3 three anime japanese 岸本斉史 Masashi Kishimoto 水野良樹 Mizuno Yoshiki 山下穂尊 Yamashita Hotaka 吉岡聖恵 Yoshioka Kiyoe female vocal ESCL-3083 10th single Maxim-Miau albionshallah randelman4ik katagiri k_a_t_a_g_i_r_i
BeatmapID:4017610
BeatmapSetID:1942218

[Difficulty]
HPDrainRate:7
CircleSize:4
OverallDifficulty:7
ApproachRate:5
SliderMultiplier:1.4
SliderTickRate:1

[Events]
//Background and Video events
0,0,"BG.jpg",0,0
Video,-40,"Blue bird.mp4"
//Break Periods
//Storyboard Layer 0 (Background)
//Storyboard Layer 1 (Fail)
//Storyboard Layer 2 (Pass)
//Storyboard Layer 3 (Foreground)
//Storyboard Layer 4 (Overlay)
//Storyboard Sound Samples
Sample,38757,0,"Hat Open2.wav",40
Sample,40336,0,"Hat Open2.wav",35
Sample,40533,0,"Hat Open2.wav",35
Sample,41125,0,"Hat Open2.wav",35
Sample,41915,0,"Hat Open2.wav",35
Sample,42112,0,"Hat Open2.wav",35
Sample,81387,0,"Hat Open2.wav",35
Sample,82571,0,"tom2.wav",40
Sample,82966,0,"tom3.wav",40

[TimingPoints]
1076,810.810810810811,4,2,1,40,1,0
1076,-48.780487804878,4,2,1,40,0,0
1685,750,4,2,1,40,1,0
1685,-52.6315789473684,4,2,1,40,0,0
2444,779.220779220779,4,2,1,40,1,0
2444,-50.761421319797,4,2,1,40,0,0
3231,800,4,2,1,40,1,0
3231,-49.2610837438424,4,2,1,40,0,0
4836,800,4,2,1,40,1,0
4836,-49.2610837438424,4,2,1,40,0,0
6626,750,4,2,1,40,1,0
6626,-52.6315789473684,4,2,1,40,0,0
7170,779.220779220779,4,2,1,40,1,0
7170,-50.761421319797,4,2,1,40,0,0
7980,800,4,2,1,40,1,0
7980,-49.2610837438424,4,2,1,40,0,0
8766,769.230769230769,4,2,1,40,1,0
8766,-51.2820512820513,4,2,1,40,0,0
9555,779.220779220779,4,2,1,40,1,0
9555,-50.761421319797,4,2,1,40,0,0
11129,789.473684210526,4,2,1,40,1,0
11129,-50,4,2,1,40,0,0
14078,394.736842105263,4,2,1,40,1,0
14078,-100,4,2,1,40,0,1
14288,394.736842105263,4,2,1,40,1,0
14288,-100,4,2,1,40,0,1
17235,392.156862745098,4,2,1,40,1,0
17235,-101.010101010101,4,2,1,40,0,1
17447,392.156862745098,4,2,1,40,1,0
17447,-101.010101010101,4,2,1,40,0,1
20588,397.350993377483,4,2,1,40,1,0
20588,-99.009900990099,4,2,1,40,0,0
20985,405.405405405405,4,2,1,40,1,0
20985,-97.0873786407767,4,2,1,40,0,0
22191,397.350993377483,4,2,1,40,1,0
22191,-99.009900990099,4,2,1,40,0,0
22975,392.156862745098,4,2,1,40,1,0
22975,-101.010101010101,4,2,1,40,0,0
23759,392.156862745098,4,2,1,40,1,0
23759,-101.010101010101,4,2,1,40,0,0
26927,394.736842105263,4,2,1,40,1,0
26927,-100,4,2,1,40,0,0
30070,394.736842105263,4,2,1,40,1,0
30070,-100,4,2,1,40,0,0
33626,389.61038961039,4,2,1,40,1,0
33626,-101.010101010101,4,2,1,40,0,0
34016,394.736842105263,4,2,1,40,1,0
34016,-100,4,2,1,40,0,0
34810,394.736842105263,4,2,1,40,1,0
34810,-100,4,2,1,40,0,0
42487,387.096774193548,4,2,1,40,1,0
42487,-102.040816326531,4,2,1,40,0,0
42680,387.096774193548,4,2,1,40,1,0
42680,-102.040816326531,4,2,1,40,0,0
43087,387.096774193548,4,2,1,40,1,0
43087,-102.040816326531,4,2,1,40,0,0
43472,394.736842105263,4,2,1,40,1,0
43472,-100,4,2,1,40,0,0
44263,387.096774193548,4,2,1,40,1,0
44263,-102.040816326531,4,2,1,40,0,0
45425,394.736842105263,4,2,1,40,1,0
45425,-100,4,2,1,40,0,0
45830,416.666666666667,4,2,1,40,1,0
45830,-94.3396226415094,4,2,1,40,0,1
46248,394.736842105263,4,2,1,40,1,0
46248,-100,4,2,1,40,0,1
47208,405.405405405405,4,2,1,40,1,0
47208,-97.0873786407767,4,2,1,40,0,1
47435,405.405405405405,4,2,1,40,1,0
47435,-97.0873786407767,4,2,1,40,0,1
48233,394.736842105263,4,2,1,40,1,0
48233,-100,4,2,1,40,0,1
49022,394.736842105263,4,2,1,40,1,0
49022,-100,4,2,1,40,0,1
49807,394.736842105263,4,2,1,40,1,0
49807,-100,4,2,1,40,0,1
50598,394.736842105263,4,2,1,40,1,0
50598,-100,4,2,1,40,0,1
54545,-100,4,2,1,40,0,0
58492,-100,4,2,1,40,0,1
60864,405.405405405405,4,2,1,40,1,0
60864,-97.0873786407767,4,2,1,40,0,1
61264,394.736842105263,4,2,1,40,1,0
61264,-100,4,2,1,40,0,1
61661,394.736842105263,4,2,1,40,1,0
61661,-100,4,2,1,40,0,1
67186,387.096774193548,4,2,1,40,1,0
67186,-102.040816326531,4,2,1,40,0,0
67960,394.736842105263,4,2,1,40,1,0
67960,-100,4,2,1,40,0,0
68754,410.958904109589,4,2,1,40,1,0
68754,-96.1538461538461,4,2,1,40,0,0
69158,389.61038961039,4,2,1,40,1,0
69158,-101.010101010101,4,2,1,40,0,0
70323,384.615384615385,4,2,1,40,1,0
70323,-103.092783505155,4,2,1,40,0,0
70723,389.61038961039,4,2,1,40,1,0
70723,-101.010101010101,4,2,1,40,0,0
71110,413.793103448276,4,2,1,40,1,0
71110,-95.2380952380952,4,2,1,40,0,0
71523,400,4,2,1,40,1,0
71523,-99.009900990099,4,2,1,40,0,0
72316,392.156862745098,4,2,1,40,1,0
72316,-101.010101010101,4,2,1,40,0,0
72704,394.736842105263,4,2,1,40,1,0
72704,-100,4,2,1,40,0,0
75664,394.736842105263,4,2,1,40,1,0
75664,-100,4,2,1,40,0,0
76455,384.615384615385,4,2,1,40,1,0
76455,-103.092783505155,4,2,1,40,0,0
77235,400,4,2,1,40,1,0
77235,-99.009900990099,4,2,1,40,0,1
77424,400,4,2,1,40,1,0
77424,-99.009900990099,4,2,1,40,0,1
78832,394.736842105263,4,2,1,40,1,0
78832,-100,4,2,1,40,0,1
79019,394.736842105263,4,2,1,40,1,0
79019,-100,4,2,1,40,0,1
83556,410.958904109589,4,2,1,40,1,0
83556,-96.1538461538461,4,2,1,40,0,0
83982,375,4,2,1,40,1,0
83982,-105.263157894737,4,2,1,40,0,0
84372,375,4,2,1,40,1,0
84372,-105.263157894737,4,2,1,40,0,0
84550,379.746835443038,4,2,1,40,1,0
84550,-104.166666666667,4,2,1,40,0,0
85135,394.736842105263,4,2,1,40,1,0
85135,-100,4,2,1,40,0,0

[HitObjects]
320,192,1076,5,0,0:0:0:0:
192,192,1278,1,0,0:0:0:0:
448,192,1481,1,0,0:0:0:0:
64,192,1685,128,0,2444:0:0:0:0:
320,192,2444,128,0,3028:0:0:0:0:
192,192,3028,128,0,3831:0:0:0:0:
448,192,3231,1,0,0:0:0:0:
64,192,3831,1,0,0:0:0:0:
320,192,4031,1,0,0:0:0:0:
64,192,4231,1,0,0:0:0:0:
448,192,4431,1,0,0:0:0:0:
192,192,4631,1,0,0:0:0:0:
320,192,4836,128,0,5636:0:0:0:0:
64,192,5636,128,0,6036:0:0:0:0:
192,192,6036,1,0,0:0:0:0:
448,192,6236,128,0,6626:0:0:0:0:
320,192,6436,1,0,0:0:0:0:
192,192,6626,128,0,7001:0:0:0:0:
64,192,7001,1,0,0:0:0:0:
448,192,7170,1,0,0:0:0:0:
192,192,7364,1,0,0:0:0:0:
320,192,7559,1,0,0:0:0:0:
64,192,7754,1,0,0:0:0:0:
448,192,7980,128,0,8766:0:0:0:0:
192,192,8766,128,0,9342:0:0:0:0:
320,192,9342,128,0,9944:0:0:0:0:
64,192,9555,1,0,0:0:0:0:
448,192,9944,1,0,0:0:0:0:
64,192,10139,1,0,0:0:0:0:
192,192,10334,1,0,0:0:0:0:
448,192,10529,1,0,0:0:0:0:
64,192,10723,1,0,0:0:0:0:
320,192,10918,1,0,0:0:0:0:
192,192,11129,1,0,0:0:0:0:
448,192,11326,1,0,0:0:0:0:
64,192,11523,1,0,0:0:0:0:
320,192,11721,1,0,0:0:0:0:
192,192,11918,1,0,0:0:0:0:
448,192,12115,128,0,12510:0:0:0:0:
64,192,12510,128,0,12905:0:0:0:0:
320,192,12905,1,0,0:0:0:0:
192,192,13102,128,0,13497:0:0:0:0:
448,192,13497,1,0,0:0:0:0:
64,192,13694,1,0,0:0:0:0:
320,192,13892,1,8,0:0:0:0:
448,192,13892,1,0,0:0:0:0:
64,192,14078,128,2,14485:0:0:0:0:
192,192,14078,1,4,0:0:0:0:
448,192,14485,1,2,0:0:0:0:
192,192,14682,1,8,0:0:0:0:
320,192,14682,1,0,0:0:0:0:
64,192,14880,1,0,0:0:0:0:
448,192,15077,1,2,0:0:0:0:
320,192,15274,1,2,0:0:0:0:
64,192,15472,1,8,0:0:0:0:
192,192,15472,1,0,0:0:0:0:
320,192,15669,128,2,16064:0:0:0:0:
192,192,16064,1,2,0:0:0:0:
320,192,16261,1,8,0:0:0:0:
448,192,16261,1,0,0:0:0:0:
64,192,16459,1,0,0:0:0:0:
448,192,16656,1,2,0:0:0:0:
320,192,16853,1,2,0:0:0:0:
64,192,17051,1,8,0:0:0:0:
192,192,17051,1,0,0:0:0:0:
320,192,17235,1,2,0:0:0:0:
448,192,17235,128,4,17643:0:0:0:0:
64,192,17643,1,2,0:0:0:0:
192,192,17839,1,8,0:0:0:0:
320,192,17839,1,0,0:0:0:0:
448,192,18035,1,0,0:0:0:0:
64,192,18231,1,2,0:0:0:0:
192,192,18427,1,2,0:0:0:0:
64,192,18623,1,8,0:0:0:0:
320,192,18623,1,0,0:0:0:0:
192,192,18819,128,2,19211:0:0:0:0:
448,192,18819,1,4,0:0:0:0:
448,192,19211,1,8,0:0:0:0:
320,192,19309,1,8,0:0:0:0:
192,192,19407,1,2,0:0:0:0:
448,192,19603,1,8,0:0:0:0:
320,192,19701,1,8,0:0:0:0:
192,192,19799,1,2,0:0:0:0:
64,192,19996,1,8,0:0:0:0:
448,192,19996,1,0,0:0:0:0:
192,192,20192,1,2,0:0:0:0:
320,192,20388,1,0,0:0:0:0:
64,192,20588,1,2,0:0:0:0:
448,192,20588,1,4,0:0:0:0:
192,192,20786,1,2,0:0:0:0:
448,192,20985,1,0,0:0:0:35:LR_J Hit.wav
64,192,21187,1,0,0:0:0:0:
448,192,21390,1,0,0:0:0:35:LR_J Hit.wav
448,192,21795,1,0,0:0:0:35:LR_J Hit.wav
64,192,22191,1,2,0:0:0:0:
192,192,22191,1,0,0:0:0:35:LR_J Hit.wav
320,192,22389,1,2,0:0:0:0:
192,192,22588,1,0,0:0:0:35:LR_J Hit.wav
448,192,22787,1,0,0:0:0:0:
192,192,22975,1,0,0:0:0:35:LR_J Hit.wav
192,192,23367,1,0,0:0:0:35:LR_J Hit.wav
64,192,23759,1,2,0:0:0:0:
448,192,23759,1,0,0:0:0:35:LR_J Hit.wav
320,192,23955,1,2,0:0:0:0:
64,192,24151,1,0,0:0:0:35:LR_J Hit.wav
448,192,24347,1,0,0:0:0:0:
64,192,24543,1,0,0:0:0:35:LR_J Hit.wav
64,192,24935,1,0,0:0:0:35:LR_J Hit.wav
448,192,25131,1,2,0:0:0:0:
192,192,25327,1,2,0:0:0:0:
320,192,25327,1,0,0:0:0:35:LR_J Hit.wav
320,192,25719,1,0,0:0:0:35:LR_J Hit.wav
64,192,25915,1,0,0:0:0:0:
320,192,26111,1,0,0:0:0:35:LR_J Hit.wav
192,192,26406,1,0,0:0:0:35:LR_J Hit.wav
320,192,26504,1,0,0:0:0:0:
192,192,26700,1,0,0:0:0:35:LR_J Hit.wav
64,192,26927,1,2,0:0:0:0:
448,192,26927,1,0,0:0:0:0:
320,192,27124,1,2,0:0:0:0:
64,192,27321,1,0,0:0:0:35:LR_J Hit.wav
448,192,27519,1,0,0:0:0:0:
64,192,27716,1,0,0:0:0:35:LR_J Hit.wav
64,192,28111,1,0,0:0:0:35:LR_J Hit.wav
320,192,28505,1,2,0:0:0:0:
448,192,28505,1,0,0:0:0:35:LR_J Hit.wav
192,192,28703,1,2,0:0:0:0:
320,192,28900,1,0,0:0:0:35:LR_J Hit.wav
64,192,29098,1,0,0:0:0:0:
320,192,29295,1,0,0:0:0:35:LR_J Hit.wav
320,192,29690,1,0,0:0:0:35:LR_J Hit.wav
64,192,30070,1,2,0:0:0:0:
448,192,30070,1,0,0:0:0:35:LR_J Hit.wav
192,192,30267,1,2,0:0:0:0:
448,192,30464,1,0,0:0:0:35:LR_J Hit.wav
64,192,30662,1,0,0:0:0:0:
448,192,30859,1,0,0:0:0:35:LR_J Hit.wav
448,192,31254,1,0,0:0:0:35:LR_J Hit.wav
64,192,31451,128,2,31846:0:0:0:0:
320,192,31451,1,0,0:0:0:35:Hat Open2.wav
448,192,31846,1,0,0:0:0:0:
320,192,32043,1,0,0:0:0:0:
64,192,32241,1,0,0:0:0:0:
192,192,32339,1,0,0:0:0:0:
448,192,32438,1,0,0:0:0:100:Hat Open2.wav
320,192,32635,1,0,0:0:0:0:
64,192,32833,1,0,0:0:0:0:
448,192,33030,1,0,0:0:0:0:
192,192,33227,128,2,33626:0:0:0:0:
320,192,33227,1,4,0:0:0:0:
448,192,33626,1,0,0:0:0:0:
64,192,33626,1,8,0:0:0:0:
320,192,33820,1,2,0:0:0:0:
192,192,34016,1,2,0:0:0:0:
320,192,34213,1,8,0:0:0:0:
448,192,34213,1,0,0:0:0:20:Hat Open2.wav
64,192,34410,1,0,0:0:0:0:
448,192,34608,1,2,0:0:0:0:
192,192,34810,1,2,0:0:0:0:
320,192,34810,128,0,35204:0:0:0:0:
64,192,35204,1,8,0:0:0:0:
448,192,35204,1,0,0:0:0:0:
192,192,35402,1,2,0:0:0:0:
448,192,35599,1,2,0:0:0:0:
64,192,35796,1,8,0:0:0:0:
320,192,35796,1,0,0:0:0:30:Hat Open2.wav
192,192,35994,1,0,0:0:0:0:
320,192,36191,1,2,0:0:0:0:
64,192,36388,1,2,0:0:0:0:
448,192,36388,128,0,36783:0:0:0:0:
192,192,36783,1,8,0:0:0:0:
320,192,36783,1,0,0:0:0:0:
64,192,36981,1,2,0:0:0:0:
448,192,37178,1,2,0:0:0:0:
64,192,37375,1,8,0:0:0:0:
192,192,37375,1,0,0:0:0:35:Hat Open2.wav
320,192,37573,1,0,0:0:0:0:
192,192,37770,1,2,0:0:0:0:
64,192,37967,128,2,38362:0:0:0:0:
448,192,37967,1,0,0:0:0:0:
192,192,38362,1,8,0:0:0:0:
320,192,38362,1,0,0:0:0:0:
448,192,38560,1,2,0:0:0:0:
64,192,38757,1,2,0:0:0:0:
448,192,38954,1,8,0:0:0:0:
320,192,39053,1,8,0:0:0:0:
192,192,39152,128,10,39349:0:0:0:0:
448,192,39349,128,8,39546:0:0:0:0:
64,192,39546,128,2,39941:0:0:0:0:
192,192,39546,1,4,0:0:0:0:
320,192,39941,1,8,0:0:0:0:
448,192,39941,1,0,0:0:0:0:
192,192,40138,1,0,0:0:0:0:
448,192,40336,1,2,0:0:0:0:
64,192,40533,1,2,0:0:0:0:
192,192,40731,1,8,0:0:0:0:
320,192,40731,1,0,0:0:0:35:Hat Open2.wav
448,192,40928,1,0,0:0:0:0:
64,192,41125,1,2,0:0:0:0:
320,192,41323,1,2,0:0:0:0:
192,192,41520,1,8,0:0:0:0:
448,192,41520,1,0,0:0:0:35:Hat Open2.wav
320,192,41717,1,0,0:0:0:0:
64,192,41915,1,2,0:0:0:0:
448,192,42112,1,2,0:0:0:0:
64,192,42310,1,8,0:0:0:0:
192,192,42310,1,0,0:0:0:35:Hat Open2.wav
320,192,42487,128,0,42873:0:0:0:0:
64,192,42873,1,8,0:0:0:0:
192,192,42873,1,0,0:0:0:0:
64,192,43087,1,8,0:0:0:0:
192,192,43087,1,4,0:0:0:0:
320,192,43280,1,0,0:0:0:0:
64,192,43472,1,2,0:0:0:0:
192,192,43669,1,8,0:0:0:0:
448,192,43669,1,0,0:0:0:0:
320,192,43866,1,2,0:0:0:0:
64,192,44064,1,4,0:0:0:0:
192,192,44064,128,8,44456:0:0:0:0:
448,192,44456,1,0,0:0:0:0:
320,192,44456,1,8,0:0:0:0:
64,192,44650,1,8,0:0:0:0:
192,192,44650,1,0,0:0:0:0:
320,192,44843,1,8,0:0:0:0:
448,192,44843,1,0,0:0:0:0:
64,192,45037,1,8,0:0:0:0:
192,192,45037,1,0,0:0:0:0:
448,192,45425,1,8,0:0:0:0:
320,192,45523,1,8,0:0:0:0:
192,192,45622,1,8,0:0:0:0:
64,192,45721,1,8,0:0:0:0:
448,192,45830,1,4,0:0:0:0:
320,192,45830,1,2,0:0:0:0:
192,192,46038,1,2,0:0:0:0:
64,192,46248,1,8,0:0:0:0:
448,192,46248,1,0,0:0:0:0:
320,192,46642,1,2,0:0:0:0:
192,192,46840,1,2,0:0:0:0:
320,192,47037,1,8,0:0:0:0:
448,192,47037,1,0,0:0:0:0:
64,192,47208,1,0,0:0:0:0:
448,192,47435,1,2,0:0:0:0:
192,192,47637,1,2,0:0:0:0:
64,192,47840,1,8,0:0:0:0:
320,192,47840,1,0,0:0:0:0:
448,192,48233,1,2,0:0:0:0:
192,192,48430,1,2,0:0:0:0:
320,192,48627,1,8,0:0:0:0:
448,192,48627,1,0,0:0:0:0:
64,192,48825,1,0,0:0:0:0:
320,192,49022,1,2,0:0:0:0:
192,192,49219,1,2,0:0:0:0:
64,192,49416,1,8,0:0:0:0:
448,192,49416,1,0,0:0:0:0:
192,192,49807,1,2,0:0:0:0:
320,192,50004,1,2,0:0:0:0:
64,192,50201,1,8,0:0:0:0:
192,192,50201,1,0,0:0:0:0:
448,192,50399,1,0,0:0:0:0:
64,192,50598,1,2,0:0:0:0:
320,192,50795,1,2,0:0:0:0:
192,192,50992,1,8,0:0:0:0:
448,192,50992,1,0,0:0:0:0:
320,192,51387,1,2,0:0:0:0:
64,192,51584,1,2,0:0:0:0:
320,192,51782,1,8,0:0:0:0:
448,192,51782,1,0,0:0:0:0:
192,192,51979,1,0,0:0:0:0:
320,192,52078,1,0,0:0:0:20:soft-hitclap.wav
64,192,52176,1,2,0:0:0:0:
448,192,52176,1,4,0:0:0:0:
192,192,52374,1,2,0:0:0:0:
64,192,52571,1,8,0:0:0:0:
320,192,52571,1,0,0:0:0:0:
448,192,52966,1,2,0:0:0:0:
192,192,53163,1,2,0:0:0:0:
448,192,53361,1,8,0:0:0:0:
320,192,53361,1,0,0:0:0:0:
64,192,53558,1,0,0:0:0:0:
192,192,53755,1,2,0:0:0:0:
320,192,53953,1,2,0:0:0:0:
64,192,54150,1,8,0:0:0:0:
192,192,54150,1,0,0:0:0:0:
448,192,54545,1,2,0:0:0:0:
320,192,54742,1,2,0:0:0:0:
192,192,54940,1,8,0:0:0:0:
448,192,54940,1,0,0:0:0:0:
64,192,55137,1,0,0:0:0:0:
192,192,55236,1,0,0:0:0:20:soft-hitclap.wav
320,192,55334,1,2,0:0:0:0:
448,192,55334,1,4,0:0:0:0:
64,192,55532,1,2,0:0:0:0:
192,192,55729,1,8,0:0:0:0:
448,192,55729,1,0,0:0:0:0:
320,192,55926,1,0,0:0:0:0:
64,192,56124,1,2,0:0:0:0:
448,192,56321,1,2,0:0:0:0:
192,192,56519,1,8,0:0:0:0:
320,192,56519,1,0,0:0:0:0:
64,192,56716,1,0,0:0:0:0:
448,192,56913,1,2,0:0:0:0:
192,192,57111,1,2,0:0:0:0:
320,192,57308,128,8,57703:0:0:0:0:
448,192,57308,1,0,0:0:0:0:
64,192,57703,1,2,0:0:0:0:
192,192,57900,1,2,0:0:0:0:
64,192,58098,1,8,0:0:0:0:
320,192,58098,1,0,0:0:0:0:
448,192,58295,1,8,0:0:0:0:
320,192,58394,1,8,0:0:0:0:
64,192,58492,1,2,0:0:0:0:
192,192,58492,1,4,0:0:0:0:
320,192,58690,1,2,0:0:0:0:
64,192,58887,1,8,0:0:0:0:
448,192,58887,1,4,0:0:0:0:
192,192,59282,1,2,0:0:0:0:
320,192,59479,1,2,0:0:0:0:
64,192,59676,1,8,0:0:0:0:
192,192,59676,1,0,0:0:0:0:
448,192,59874,1,0,0:0:0:0:
64,192,60071,1,2,0:0:0:0:
320,192,60269,1,2,0:0:0:0:
192,192,60466,1,8,0:0:0:0:
448,192,60466,1,0,0:0:0:0:
64,192,60864,1,2,0:0:0:0:
320,192,61066,1,2,0:0:0:0:
64,192,61264,1,8,0:0:0:0:
192,192,61264,1,0,0:0:0:0:
448,192,61461,1,0,0:0:0:0:
192,192,61661,1,2,0:0:0:0:
320,192,61858,1,2,0:0:0:0:
64,192,62055,1,8,0:0:0:0:
448,192,62055,1,0,0:0:0:0:
320,192,62450,1,2,0:0:0:0:
192,192,62647,1,2,0:0:0:0:
320,192,62845,1,8,0:0:0:0:
448,192,62845,1,0,0:0:0:0:
64,192,63042,1,0,0:0:0:0:
448,192,63239,1,2,0:0:0:0:
192,192,63437,1,2,0:0:0:0:
64,192,63634,1,8,0:0:0:0:
320,192,63634,1,0,0:0:0:0:
192,192,64029,1,2,0:0:0:0:
448,192,64226,1,2,0:0:0:0:
64,192,64424,1,8,0:0:0:0:
192,192,64424,1,0,0:0:0:0:
320,192,64621,1,0,0:0:0:0:
192,192,64720,1,0,0:0:0:20:soft-hitclap.wav
64,192,64818,1,2,0:0:0:0:
448,192,64818,1,4,0:0:0:0:
320,192,65016,1,2,0:0:0:0:
192,192,65213,1,8,0:0:0:0:
448,192,65213,1,0,0:0:0:0:
64,192,65608,1,2,0:0:0:0:
320,192,65805,1,2,0:0:0:0:
192,192,66003,1,8,0:0:0:0:
64,192,66003,1,0,0:0:0:0:
448,192,66200,1,0,0:0:0:0:
320,192,66397,1,2,0:0:0:0:
192,192,66595,1,2,0:0:0:0:
320,192,66792,1,8,0:0:0:0:
448,192,66792,1,0,0:0:0:0:
64,192,67186,1,2,0:0:0:0:
192,192,67379,1,2,0:0:0:0:
64,192,67573,1,8,0:0:0:0:
320,192,67573,1,0,0:0:0:0:
448,192,67766,1,0,0:0:0:0:
64,192,67960,1,2,0:0:0:0:
192,192,67960,1,4,0:0:0:0:
448,192,68157,1,2,0:0:0:0:
64,192,68354,1,8,0:0:0:0:
320,192,68354,1,0,0:0:0:0:
192,192,68552,1,0,0:0:0:0:
448,192,68754,1,2,0:0:0:0:
64,192,68959,1,2,0:0:0:0:
192,192,69158,1,8,0:0:0:0:
320,192,69158,1,0,0:0:0:0:
448,192,69352,1,0,0:0:0:0:
64,192,69547,1,2,0:0:0:0:
320,192,69742,1,2,0:0:0:0:
64,192,69937,1,8,0:0:0:0:
192,192,69937,128,0,70323:0:0:0:0:
448,192,70323,1,2,0:0:0:0:
320,192,70515,1,2,0:0:0:0:
192,192,70723,1,8,0:0:0:0:
448,192,70723,1,0,0:0:0:0:
64,192,70917,1,0,0:0:0:0:
320,192,71110,1,2,0:0:0:0:
448,192,71110,1,4,0:0:0:0:
192,192,71316,1,2,0:0:0:0:
64,192,71523,1,8,0:0:0:0:
320,192,71523,1,0,0:0:0:0:
448,192,71723,1,0,0:0:0:0:
64,192,71923,1,2,0:0:0:0:
192,192,72123,1,2,0:0:0:0:
320,192,72316,1,8,0:0:0:0:
448,192,72316,1,0,0:0:0:0:
64,192,72512,1,8,0:0:0:0:
192,192,72512,1,4,0:0:0:0:
320,192,72704,1,2,0:0:0:0:
192,192,72901,1,2,0:0:0:0:
320,192,73098,1,8,0:0:0:0:
448,192,73098,128,0,73493:0:0:0:0:
64,192,73493,1,10,0:0:0:0:
192,192,73592,1,8,0:0:0:0:
320,192,73690,1,8,0:0:0:0:
448,192,73789,1,8,0:0:0:0:
64,192,73888,1,10,0:0:0:0:
192,192,74085,1,8,0:0:0:0:
448,192,74085,1,4,0:0:0:0:
320,192,74282,1,2,0:0:0:0:
64,192,74480,1,8,0:0:0:0:
192,192,74480,1,0,0:0:0:35:Hat Open2.wav
448,192,74677,1,2,0:0:0:0:
64,192,74875,1,8,0:0:0:0:
192,192,74875,1,4,0:0:0:0:
320,192,75072,1,2,0:0:0:0:
192,192,75269,1,8,0:0:0:0:
448,192,75269,1,0,0:0:0:35:Hat Open2.wav
64,192,75467,1,2,0:0:0:0:
320,192,75664,1,8,0:0:0:0:
448,192,75664,1,4,0:0:0:0:
192,192,75861,1,2,0:0:0:0:
320,192,76058,1,8,0:0:0:0:
64,192,76256,1,8,0:0:0:0:
192,192,76256,1,2,0:0:0:0:
448,192,76455,1,2,0:0:0:0:
320,192,76455,1,8,0:0:0:0:
64,192,76647,1,8,0:0:0:0:
192,192,76647,1,2,0:0:0:0:
448,192,76839,1,0,0:0:0:0:
320,192,76935,1,2,0:0:0:0:
64,192,77031,1,2,0:0:0:0:
192,192,77031,1,8,0:0:0:0:
448,192,77235,128,4,77624:0:0:0:0:
320,192,77235,1,8,0:0:0:0:
64,192,77624,1,2,0:0:0:0:
192,192,77824,1,8,0:0:0:0:
320,192,77824,1,0,0:0:0:35:Hat Open2.wav
448,192,78024,1,2,0:0:0:0:
64,192,78224,1,0,0:0:0:35:Hat Open2.wav
320,192,78424,1,2,0:0:0:0:
64,192,78624,1,8,0:0:0:0:
448,192,78624,1,0,0:0:0:35:Hat Open2.wav
320,192,78832,1,4,0:0:0:0:
192,192,78832,128,2,79216:0:0:0:0:
448,192,79216,1,2,0:0:0:0:
64,192,79413,1,8,0:0:0:0:
192,192,79413,1,0,0:0:0:35:Hat Open2.wav
448,192,79611,1,2,0:0:0:0:
64,192,79808,1,0,0:0:0:35:Hat Open2.wav
192,192,80005,1,2,0:0:0:0:
320,192,80203,1,8,0:0:0:0:
448,192,80203,1,0,0:0:0:35:Hat Open2.wav
64,192,80400,128,2,80795:0:0:0:0:
192,192,80400,1,4,0:0:0:0:
448,192,80795,1,2,0:0:0:0:
192,192,80992,1,8,0:0:0:0:
320,192,80992,1,0,0:0:0:35:Hat Open2.wav
64,192,81190,1,0,0:0:0:0:
448,192,81387,1,2,0:0:0:0:
320,192,81584,1,2,0:0:0:0:
64,192,81782,1,8,0:0:0:0:
448,192,81782,1,0,0:0:0:35:Hat Open2.wav
192,192,81979,1,2,0:0:0:0:
320,192,81979,128,4,82374:0:0:0:0:
64,192,82374,1,8,0:0:0:0:
192,192,82472,1,8,0:0:0:0:
320,192,82571,1,8,0:0:0:0:
64,192,82769,1,8,0:0:0:0:
192,192,82867,1,8,0:0:0:0:
320,192,82966,1,8,0:0:0:0:
64,192,83163,1,0,0:0:0:40:tom2.wav
448,192,83361,1,0,0:0:0:40:tom3.wav
192,192,83556,1,8,0:0:0:0:
320,192,83556,1,4,0:0:0:0:
64,192,83761,1,2,0:0:0:0:
448,192,83982,1,8,0:0:0:0:
320,192,84075,1,8,0:0:0:0:
192,192,84169,1,10,0:0:0:0:
448,192,84372,1,8,0:0:0:0:
320,192,84465,1,8,0:0:0:0:
192,192,84550,1,10,0:0:0:0:
64,192,84739,1,8,0:0:0:0:
448,192,84739,1,0,0:0:0:0:
192,192,84929,1,8,0:0:0:0:
320,192,84929,1,2,0:0:0:0:
64,192,85135,128,2,89477:0:0:0:0:
448,192,85135,128,4,89477:0:0:0:0:
