osu file format v14

[General]
AudioFilename: audio.mp3
AudioLeadIn: 0
PreviewTime: 63184
Countdown: 0
SampleSet: Soft
StackLeniency: 0.7
Mode: 0
LetterboxInBreaks: 0
WidescreenStoryboard: 1

[Editor]
DistanceSpacing: 1
BeatDivisor: 4
GridSize: 32
TimelineZoom: 2.899999

[Metadata]
Title:BAKU (TV Size)
TitleUnicode:BAKU (TV Size)
Artist:Ikimonogakari
ArtistUnicode:いきものがかり
Creator:Smoke
Version:Nymphe's Expert
Source:BORUTO-ボルト- NARUTO NEXT GENERATIONS
Tags:anime pop jpop j-pop rock jrock j-rock japanese uzumaki boruto Kuki1537 Nymphe Kiyoshi Guarden 吉岡聖恵 Kiyoe Yoshioka 山下穂尊 Hotaka Yamashita 水野良樹 Yoshiki Mizuno op opening 8
BeatmapID:3035155
BeatmapSetID:1479509

[Difficulty]
HPDrainRate:5
CircleSize:4.2
OverallDifficulty:8.5
ApproachRate:9.2
SliderMultiplier:1.9
SliderTickRate:1

[Events]
//Background and Video events
0,0,"boruto wallpaper.png",0,0
Video,460,"video.mp4"
//Break Periods
//Storyboard Layer 0 (Background)
//Storyboard Layer 1 (Fail)
//Storyboard Layer 2 (Pass)
//Storyboard Layer 3 (Foreground)
//Storyboard Layer 4 (Overlay)
//Storyboard Sound Samples

[TimingPoints]
528,243.90243902439,4,2,1,70,1,0
649,232.558139534884,4,2,1,70,1,0
881,258.620689655172,4,2,1,70,1,0
1010,-111.111111111111,4,2,1,70,0,0
1273,209.059233449477,4,2,1,70,1,0
1273,-111.111111111111,4,2,1,70,0,0
1691,240,4,2,1,75,1,0
2062,240,4,2,1,75,1,0
2062,-111.111111111111,4,2,1,75,0,0
2302,218.181818181818,4,2,1,75,1,0
2302,-111.111111111111,4,2,1,75,0,0
2738,270.27027027027,4,2,1,75,1,0
2738,-111.111111111111,4,2,1,75,0,0
3278,238.095238095238,4,2,1,75,1,0
3397,245.901639344262,4,2,1,80,1,0
3397,-111.111111111111,4,2,1,80,0,0
3643,256.410256410256,4,2,1,80,1,0
3643,-142.857142857143,4,2,1,80,0,0
4284,265.486725663717,4,2,1,65,1,0
4284,-76.9230769230769,4,2,1,65,0,0
4483,-76.9230769230769,4,2,1,5,0,0
4549,256.410256410256,4,2,1,65,1,0
4549,-76.9230769230769,4,2,1,65,0,0
4613,-76.9230769230769,4,2,1,65,0,0
4677,269.058295964126,4,2,1,80,1,0
4677,-83.3333333333333,4,2,1,80,0,0
4812,267.857142857143,4,2,1,80,1,0
5080,263.157894736842,4,2,1,80,1,0
5080,-83.3333333333333,4,2,1,80,0,0
5277,-83.3333333333333,4,2,1,5,0,0
5343,270.27027027027,4,2,1,80,1,0
5748,-79.3650793650794,4,2,1,80,0,0
5879,263.157894736842,4,2,1,80,1,0
6273,-83.3333333333333,4,2,1,80,0,0
6409,259.74025974026,4,2,1,80,1,0
6798,-83.3333333333333,4,2,1,80,0,0
7188,265.486725663717,4,2,1,80,1,0
7188,-83.3333333333333,4,2,1,80,0,0
7453,264.31718061674,4,2,1,80,1,0
7453,-83.3333333333333,4,2,1,80,0,0
7651,-83.3333333333333,4,2,1,5,0,0
7717,-83.3333333333333,4,2,1,80,0,0
7981,263.157894736842,4,2,1,80,1,0
7981,-83.3333333333333,4,2,1,80,0,0
9230,-83.3333333333333,4,2,1,5,0,0
9296,-83.3333333333333,4,2,1,80,0,0
10283,-83.3333333333333,4,2,1,5,0,0
10349,267.857142857143,4,2,1,80,1,0
10349,-83.3333333333333,4,2,1,80,0,0
10616,270.27027027027,4,2,1,80,1,0
10751,-83.3333333333333,4,2,1,80,0,0
11148,263.157894736842,4,2,1,80,1,0
11148,-83.3333333333333,4,2,1,80,0,0
11345,-83.3333333333333,4,2,1,5,0,0
11411,-83.3333333333333,4,2,1,80,0,0
11921,266.666666666667,4,2,1,80,1,0
11921,-83.3333333333333,4,2,1,80,0,0
12187,-83.3333333333333,4,2,1,80,0,0
12321,272.727272727273,4,2,1,80,1,0
12457,265.486725663717,4,2,1,80,1,0
12712,259.74025974026,4,2,1,80,1,0
13101,-84.0336134453781,4,2,1,80,0,0
13231,263.157894736842,4,2,1,80,1,0
13494,-83.3333333333333,4,2,1,80,0,0
13691,-83.3333333333333,4,2,1,5,0,0
13757,-83.3333333333333,4,2,1,80,0,0
14743,-83.3333333333333,4,2,1,5,0,0
14809,-83.3333333333333,4,2,1,80,0,0
15204,-93.4579439252336,4,2,1,80,0,0
15351,263.157894736842,4,2,1,80,1,0
15351,-92.5925925925926,4,2,1,80,0,0
15614,258.620689655172,4,2,1,80,1,0
15614,-83.3333333333333,4,2,1,80,0,0
15872,264.31718061674,4,2,1,80,1,0
15872,-83.3333333333333,4,2,1,80,0,0
16070,-83.3333333333333,4,2,1,5,0,0
16136,-83.3333333333333,4,2,1,80,0,0
16400,258.620689655172,4,2,1,80,1,0
16400,-83.3333333333333,4,2,1,80,0,0
16917,291.26213592233,4,2,1,80,1,0
17062,241.935483870968,4,2,1,80,1,0
17062,-83.3333333333333,4,2,1,80,0,0
17182,270.27027027027,4,2,1,80,1,0
17452,263.157894736842,4,2,1,80,1,0
17452,-83.3333333333333,4,2,1,80,0,0
17649,-83.3333333333333,4,2,1,5,0,0
17715,-83.3333333333333,4,2,1,80,0,0
18701,-83.3333333333333,4,2,1,5,0,0
18767,-83.3333333333333,4,2,1,80,0,0
18964,-83.3333333333333,4,2,1,80,0,0
19030,-83.3333333333333,4,2,1,80,0,0
19425,-90.9090909090909,4,2,1,80,0,0
20280,-90.9090909090909,4,2,1,5,0,0
20346,-90.9090909090909,4,2,1,80,0,0
20806,-90.9090909090909,4,2,1,5,0,0
20873,-90.9090909090909,4,2,1,80,0,0
21662,283.018867924528,4,2,1,80,1,0
21662,-90.9090909090909,4,2,1,80,0,0
21874,-90.9090909090909,4,2,1,5,0,0
21945,263.157894736842,4,2,1,80,1,0
21945,-90.9090909090909,4,2,1,80,0,0
22405,-90.9090909090909,4,2,1,5,0,0
22471,269.058295964126,4,2,1,80,1,0
22471,-90.9090909090909,4,2,1,80,0,0
22729,260.869565217391,4,2,1,80,1,0
22729,-90.9090909090909,4,2,1,80,0,0
22924,-90.9090909090909,4,2,1,5,0,0
22989,-90.9090909090909,4,2,1,80,0,0
23120,263.157894736842,4,2,1,80,1,0
23120,-90.9090909090909,4,2,1,80,0,0
23777,265.486725663717,4,2,1,80,1,0
23777,-90.9090909090909,4,2,1,80,0,0
23976,-90.9090909090909,4,2,1,5,0,0
24043,269.058295964126,4,2,1,80,1,0
24043,-90.9090909090909,4,2,1,80,0,0
24312,250,4,2,1,80,1,0
24312,-90.9090909090909,4,2,1,80,0,0
24499,-90.9090909090909,4,2,1,5,0,0
24562,267.857142857143,4,2,1,80,1,0
24562,-90.9090909090909,4,2,1,80,0,0
25029,-90.9090909090909,4,2,1,5,0,0
25097,-90.9090909090909,4,2,1,80,0,0
25365,263.157894736842,4,2,1,80,1,0
25628,-90.9090909090909,4,2,1,80,0,0
25891,263.157894736842,4,2,1,80,1,0
26943,-100,4,2,1,70,0,0
27075,230.769230769231,4,2,1,70,1,0
27190,263.157894736842,4,2,1,70,1,0
27584,-111.111111111111,4,2,1,70,0,0
27847,275.229357798165,4,2,1,70,1,0
27847,-111.111111111111,4,2,1,70,0,0
28235,265.486725663717,4,2,1,70,1,0
28500,-111.111111111111,4,2,1,70,0,0
28899,269.058295964126,4,2,1,70,1,0
28899,-111.111111111111,4,2,1,70,0,0
29169,263.157894736842,4,2,1,70,1,0
29432,-111.111111111111,4,2,1,70,0,0
29695,270.27027027027,4,2,1,70,1,0
29965,263.157894736842,4,2,1,70,1,0
29965,-111.111111111111,4,2,1,70,0,0
30228,254.237288135593,4,2,1,70,1,0
30482,263.157894736842,4,2,1,70,1,0
30482,-111.111111111111,4,2,1,70,0,0
31139,263.157894736842,4,2,1,70,1,0
31402,-90.9090909090908,4,2,1,70,0,0
31599,-90.9090909090908,4,2,1,5,0,0
31665,-111.111111111111,4,2,1,70,0,0
34823,-83.3333333333333,4,2,1,70,0,0
35020,-83.3333333333333,4,2,1,5,0,0
35086,-83.3333333333333,4,2,1,70,0,0
35283,-83.3333333333333,4,2,1,5,0,0
35349,-83.3333333333333,4,2,1,70,0,0
35546,-83.3333333333333,4,2,1,5,0,0
35612,270.27027027027,4,2,1,70,1,0
35612,-500.000000000003,4,2,1,70,0,0
36422,265.486725663717,4,2,1,65,1,0
36422,-125,4,2,1,65,0,0
36940,263.157894736842,4,2,1,65,1,0
37137,-100,4,2,1,5,0,0
37203,-125,4,2,1,65,0,0
37729,260.869565217391,4,2,1,65,1,0
37989,263.157894736842,4,2,1,65,1,0
37989,-125,4,2,1,65,0,0
39041,-100,4,2,1,65,0,0
39238,-100,4,2,1,5,0,0
39304,-125,4,2,1,65,0,0
39567,259.74025974026,4,2,1,65,1,0
40086,-133.333333333333,4,2,1,65,0,0
40360,257.510729613734,4,2,1,65,1,0
40617,263.157894736842,4,2,1,65,1,0
40617,-125,4,2,1,65,0,0
41143,-100,4,2,1,65,0,0
41340,-100,4,2,1,5,0,0
41406,-125,4,2,1,65,0,0
43248,-100,4,2,1,65,0,0
43445,-100,4,2,1,5,0,0
43511,-125,4,2,1,65,0,0
43765,269.058295964126,4,2,1,65,1,0
44303,259.74025974026,4,2,1,65,1,0
44562,-125,4,2,1,65,0,0
44827,263.157894736842,4,2,1,55,1,0
44827,-142.857142857143,4,2,1,55,0,0
45813,-142.857142857143,4,2,1,55,0,0
45879,-142.857142857143,4,2,1,55,0,0
46405,256.410256410256,4,2,1,55,1,0
46661,263.157894736842,4,2,1,55,1,0
46924,263.157894736842,4,2,1,55,1,0
46924,-142.857142857143,4,2,1,55,0,0
47910,-142.857142857143,4,2,1,55,0,0
47976,-142.857142857143,4,2,1,55,0,0
48963,-142.857142857143,4,2,1,55,0,0
49029,-142.857142857143,4,2,1,55,0,0
50015,-142.857142857143,4,2,1,55,0,0
50081,-142.857142857143,4,2,1,55,0,0
51924,275.229357798165,4,2,1,55,1,0
51924,-142.857142857143,4,2,1,55,0,0
52199,263.157894736842,4,2,1,55,1,0
52396,-100,4,2,1,55,0,0
52462,-100,4,2,1,55,0,0
52725,259.74025974026,4,2,1,55,1,0
53244,263.157894736842,4,2,1,60,1,0
55349,275.229357798165,4,2,1,60,1,0
55624,258.620689655172,4,2,1,60,1,0
55882,263.157894736842,4,2,1,60,1,0
56408,263.157894736842,4,2,1,60,1,0
57131,-100,4,2,1,5,0,0
57197,-100,4,2,1,60,0,0
57460,-90.9090909090909,4,2,1,65,0,0
57986,258.620689655172,4,2,1,65,1,0
57986,-90.9090909090909,4,2,1,65,0,0
58179,-90.9090909090909,4,2,1,5,0,0
58244,-90.9090909090909,4,2,1,65,0,0
58503,263.157894736842,4,2,1,65,1,0
58503,-90.9090909090909,4,2,1,65,0,0
58700,-90.9090909090909,4,2,1,5,0,0
58766,-90.9090909090909,4,2,1,65,0,0
59029,255.31914893617,4,2,1,65,1,0
59029,-90.9090909090909,4,2,1,65,0,0
59220,-90.9090909090909,4,2,1,5,0,0
59284,271.493212669683,4,2,1,65,1,0
59284,-90.9090909090909,4,2,1,65,0,0
59555,263.157894736842,4,2,1,45,1,0
59555,-111.111111111111,4,2,1,45,0,0
59818,-111.111111111111,4,2,1,50,0,0
60081,-111.111111111111,4,2,1,55,0,0
60344,275.229357798165,4,2,1,60,1,0
60344,-111.111111111111,4,2,1,60,0,0
60619,263.157894736842,4,2,1,65,1,0
60619,-111.111111111111,4,2,1,65,0,0
60816,-111.111111111111,4,2,1,5,0,0
60882,-111.111111111111,4,2,1,70,0,0
61145,-111.111111111111,4,2,1,75,0,0
61408,-111.111111111111,4,2,1,80,0,0
61671,-200,4,2,1,55,0,0
62724,-333.333333333332,4,2,1,65,0,0
63184,-333.333333333332,4,2,1,5,0,0
63250,-76.9230769230769,4,2,1,65,0,0
63447,-76.9230769230769,4,2,1,5,0,0
63513,-76.9230769230769,4,2,1,65,0,0
63578,-76.9230769230769,4,2,1,65,0,0
63645,-83.3333333333333,4,2,1,80,0,0
64237,-83.3333333333333,4,2,1,5,0,0
64303,-83.3333333333333,4,2,1,80,0,0
65355,258.620689655172,4,2,1,80,1,0
65613,263.157894736842,4,2,1,80,1,0
65744,-83.3333333333333,4,2,1,80,0,0
65876,263.157894736842,4,2,1,80,1,0
66139,-83.3333333333333,4,2,1,80,0,0
66402,253.164556962025,4,2,1,80,1,0
66402,-83.3333333333333,4,2,1,80,0,0
66591,-83.3333333333333,4,2,1,5,0,0
66655,263.157894736842,4,2,1,80,1,0
66655,-83.3333333333333,4,2,1,80,0,0
66918,263.157894736842,4,2,1,80,1,0
67181,-83.3333333333333,4,2,1,80,0,0
67970,270.27027027027,4,2,1,80,1,0
67970,-83.3333333333333,4,2,1,80,0,0
68172,-83.3333333333333,4,2,1,5,0,0
68240,263.157894736842,4,2,1,80,1,0
68240,-83.3333333333333,4,2,1,80,0,0
69029,263.157894736842,4,2,1,80,1,0
69029,-83.3333333333333,4,2,1,80,0,0
69226,-83.3333333333333,4,2,1,5,0,0
69292,-83.3333333333333,4,2,1,80,0,0
69555,257.510729613734,4,2,1,80,1,0
69683,-83.3333333333333,4,2,1,80,0,0
69812,263.157894736842,4,2,1,80,1,0
70075,-83.3333333333333,4,2,1,80,0,0
70272,-83.3333333333333,4,2,1,5,0,0
70338,-83.3333333333333,4,2,1,80,0,0
70601,272.727272727273,4,2,1,80,1,0
70601,-83.3333333333333,4,2,1,80,0,0
70873,266.666666666667,4,2,1,80,1,0
70873,-83.3333333333333,4,2,1,80,0,0
71272,279.06976744186,4,2,1,80,1,0
71411,275.229357798165,4,2,1,80,1,0
71686,251.046025104603,4,2,1,80,1,0
72062,260.869565217391,4,2,1,80,1,0
72062,-83.3333333333333,4,2,1,80,0,0
72193,260.869565217391,4,2,1,80,1,0
72453,263.157894736842,4,2,1,80,1,0
72453,-83.3333333333333,4,2,1,80,0,0
72650,-83.3333333333333,4,2,1,5,0,0
72716,263.157894736842,4,2,1,80,1,0
73110,-83.3333333333333,4,2,1,80,0,0
73702,-83.3333333333333,4,2,1,5,0,0
73768,256.410256410256,4,2,1,80,1,0
74024,263.157894736842,4,2,1,80,1,0
74155,-83.3333333333333,4,2,1,80,0,0
74550,267.857142857143,4,2,1,80,1,0
74550,-83.3333333333333,4,2,1,80,0,0
74817,255.31914893617,4,2,1,80,1,0
74817,-83.3333333333333,4,2,1,80,0,0
75008,-83.3333333333333,4,2,1,5,0,0
75072,263.157894736842,4,2,1,80,1,0
75072,-83.3333333333333,4,2,1,80,0,0
75861,285.714285714286,4,2,1,80,1,0
76003,262.008733624454,4,2,1,80,1,0
76003,-83.3333333333333,4,2,1,80,0,0
76134,263.157894736842,4,2,1,80,1,0
76397,263.157894736842,4,2,1,80,1,0
76397,-83.3333333333333,4,2,1,80,0,0
76594,-83.3333333333333,4,2,1,5,0,0
76660,-83.3333333333333,4,2,1,80,0,0
77646,-83.3333333333333,4,2,1,5,0,0
77712,-83.3333333333333,4,2,1,80,0,0
77909,-83.3333333333333,4,2,1,5,0,0
77976,260.869565217391,4,2,1,80,1,0
78367,263.157894736842,4,2,1,80,1,0
78367,-90.9090909090909,4,2,1,80,0,0
78498,263.157894736842,4,2,1,80,1,0
78761,-90.9090909090909,4,2,1,80,0,0
79221,-90.9090909090909,4,2,1,5,0,0
79287,-90.9090909090909,4,2,1,80,0,0
79550,250,4,2,1,80,1,0
79550,-90.9090909090909,4,2,1,80,0,0
79737,-90.9090909090909,4,2,1,5,0,0
79800,272.727272727273,4,2,1,80,1,0
80072,269.058295964126,4,2,1,80,1,0
80341,-90.9090909090909,4,2,1,80,0,0
80610,263.157894736842,4,2,1,80,1,0
80610,-90.9090909090909,4,2,1,80,0,0
80807,-90.9090909090909,4,2,1,5,0,0
80873,-90.9090909090909,4,2,1,80,0,0
81333,-90.9090909090909,4,2,1,5,0,0
81399,-90.9090909090909,4,2,1,80,0,0
81859,-90.9090909090909,4,2,1,5,0,0
81925,-90.9090909090909,4,2,1,80,0,0
82912,-90.9090909090909,4,2,1,5,0,0
82978,-90.9090909090909,4,2,1,80,0,0
83438,-90.9090909090909,4,2,1,5,0,0
83504,-90.9090909090909,4,2,1,80,0,0
83964,-90.9090909090909,4,2,1,5,0,0
84031,-90.9090909090909,4,2,1,80,0,0
85881,256.410256410256,4,2,1,70,1,0
86265,-111.111111111111,4,2,1,70,0,0
86522,271.493212669683,4,2,1,70,1,0
86522,-111.111111111111,4,2,1,70,0,0
86929,258.620689655172,4,2,1,75,1,0
87316,275.229357798165,4,2,1,75,1,0
87316,-111.111111111111,4,2,1,75,0,0
87592,271.493212669683,4,2,1,75,1,0
87592,-111.111111111111,4,2,1,75,0,0
87999,257.510729613734,4,2,1,80,1,0
87999,-83.3333333333333,4,2,1,80,0,0
88449,-83.3333333333333,4,2,1,5,0,0
88514,-83.3333333333333,4,2,1,80,0,0
88771,-54.054054054054,4,2,1,80,0,0
89157,-54.054054054054,4,2,1,5,0,0

[Colours]
Combo1 : 244,217,21
Combo2 : 232,45,82
Combo3 : 40,132,232

[HitObjects]
34,224,528,5,8,3:3:0:0:
34,224,588,1,8,3:3:0:0:
34,224,649,1,8,0:0:0:0:
140,157,765,1,8,0:0:0:0:
7,59,881,1,8,0:0:0:0:
73,14,1010,2,0,P|100:55|80:108,1,85.4999973907472,0|0,3:2|0:0,0:0:0:0:
137,241,1273,2,0,B|177:262|220:224|193:198|232:161|290:187,1,170.999994781494,10|0,3:2|0:0,0:0:0:0:
402,373,1691,5,8,0:0:0:0:
288,282,1811,1,8,0:0:0:0:
405,177,1931,1,8,0:0:0:0:
464,241,2062,2,0,L|368:217,1,85.4999973907472,0|0,3:2|0:0,0:0:0:0:
257,82,2302,2,0,B|299:58|339:95|339:95|398:65|363:7,1,170.999994781494,14|0,3:2|0:0,0:0:0:0:
0,23,2738,6,0,B|52:58|94:9|94:9|41:76|88:154|88:154|74:109|113:72,1,341.999989562989,2|0,3:2|3:2,0:0:0:0:
242,190,3397,6,0,P|213:145|166:141,1,85.4999973907472,10|0,0:0|3:2,0:0:0:0:
36,266,3643,2,0,B|17:294|-19:288|-19:288|11:316|97:305|48:236|111:206|162:233,1,265.999991882324,10|0,0:0|0:0,0:0:0:0:
372,245,4284,6,0,B|317:217|317:217|359:79,1,185.249991519928,2|0,0:0|0:0,0:0:0:0:
371,86,4549,1,10,0:0:0:0:
438,288,4677,6,0,B|404:249|361:274|350:306|350:306|345:327|345:327|327:352|294:373|263:347,1,227.999993041992,14|0,3:2|0:0,0:0:0:0:
108,290,5080,2,0,B|211:253|211:253|168:269|166:310,1,170.999994781494,8|0,0:0|0:0,0:0:0:0:
180,316,5343,1,2,3:2:0:0:
294,227,5478,1,2,3:2:0:0:
197,107,5613,1,10,0:0:0:0:
129,161,5748,6,0,B|175:121|225:172|225:172|308:143|265:62,1,231.799990450135,2|0,0:0|0:0,0:0:0:0:
47,20,6142,2,0,P|91:42|75:95,1,95,8|0,0:0|0:0,0:0:0:0:
73,227,6409,1,2,3:2:0:0:
174,73,6538,1,2,3:2:0:0:
7,167,6668,1,10,0:0:0:0:
180,316,6798,6,0,B|214:355|257:330|268:298|268:298|273:277|273:277|291:252|324:231|355:257,1,227.999993041992,2|0,0:0|0:0,0:0:0:0:
479,373,7188,2,0,B|447:340|447:340|484:245,1,113.999996520996,10|0,0:0|0:0,0:0:0:0:
327,135,7453,2,0,B|364:76|438:108|438:108|398:151,1,170.999994781494,2|0,3:2|0:0,0:0:0:0:
408,140,7717,2,0,B|392:83|392:83|388:86|388:86|372:15,1,113.999996520996,10|0,0:0|0:0,0:0:0:0:
248,196,7981,6,0,P|200:226|149:195,1,113.999996520996,2|0,3:2|0:0,0:0:0:0:
0,48,8244,2,0,P|49:24|94:54,1,113.999996520996,10|0,0:0|0:0,0:0:0:0:
84,250,8507,1,2,3:2:0:0:
27,315,8638,2,0,L|46:185,1,113.999996520996,2|8,3:2|0:0,0:0:0:0:
2,136,8902,1,2,0:0:0:0:
167,58,9033,6,0,B|208:32|248:60|248:60|262:117|324:109,1,170.999994781494,0|0,3:2|0:0,0:0:0:0:
307,109,9296,2,0,B|322:55|322:55|323:50|323:50|339:-1,1,113.999996520996,10|0,0:0|0:0,0:0:0:0:
364,217,9559,2,0,B|310:229|310:229|309:235|309:235|252:244,1,113.999996520996,2|0,3:2|3:2,0:0:0:0:
437,103,9823,2,0,B|475:141|475:141|473:145|473:145|515:186,1,113.999996520996,10|0,0:0|0:0,0:0:0:0:
384,341,10086,6,0,B|421:324|435:290|435:290|435:362|499:365,1,170.999994781494,2|0,3:2|0:0,0:0:0:0:
383,357,10349,2,0,P|314:371|288:335,1,113.999996520996,10|0,0:0|0:0,0:0:0:0:
141,159,10616,1,2,3:2:0:0:
198,111,10751,2,0,P|238:152|223:208,1,113.999996520996,2|8,3:2|0:0,0:0:0:0:
242,278,11021,1,2,0:0:0:0:
0,303,11148,6,0,B|38:265|73:313|73:313|73:321|73:321|92:364|157:343,1,170.999994781494,0|0,3:2|0:0,0:0:0:0:
136,348,11411,2,0,P|160:299|125:247,1,113.999996520996,10|0,0:0|0:0,0:0:0:0:
60,107,11674,2,0,P|86:155|143:157,1,113.999996520996,2|0,3:2|3:2,0:0:0:0:
297,163,11921,2,0,P|242:161|212:209,1,113.999996520996,10|0,0:0|0:0,0:0:0:0:
344,361,12187,5,2,3:2:0:0:
424,247,12321,2,0,L|437:197,2,47.5,8|8|8,0:0|0:0|0:0,0:0:0:0:
470,370,12589,5,10,0:0:0:0:
336,282,12712,1,10,0:0:0:0:
230,279,12841,5,2,3:2:0:0:
288,192,12971,1,2,3:2:0:0:
246,356,13101,6,0,B|212:395|169:370|158:338|158:338|153:317|153:317|135:292|102:271|71:297,1,227.999993041992,6|0,3:2|0:0,0:0:0:0:
163,124,13494,2,0,B|156:101|180:81|180:81|130:84|106:154|156:201,1,170.999994781494,8|0,0:0|0:0,0:0:0:0:
149,201,13757,1,2,3:2:0:0:
288,117,13888,1,2,3:2:0:0:
361,167,14020,1,10,0:0:0:0:
281,194,14152,6,0,B|255:167|226:160|226:160|405:197,1,227.999993041992,2|0,0:0|0:0,0:0:0:0:
481,11,14546,2,0,B|531:53|531:53|487:157,1,170.999994781494,8|0,0:0|0:0,0:0:0:0:
479,173,14809,1,2,3:2:0:0:
372,282,14941,1,2,3:2:0:0:
453,352,15073,1,10,0:0:0:0:
298,335,15204,6,0,B|368:308|368:308|429:351|429:351|506:330,1,214.700000655212,2|0,0:0|0:0,0:0:0:0:
214,384,15614,2,0,B|185:334|185:334|213:285,1,113.999996520996,10|0,0:0|0:0,0:0:0:0:
124,175,15872,2,0,B|70:126|8:170|8:170|60:202,1,170.999994781494,2|0,3:2|0:0,0:0:0:0:
45,192,16136,2,0,L|30:63,1,113.999996520996,10|0,0:0|0:0,0:0:0:0:
9,322,16400,6,0,P|63:341|106:291,1,113.999996520996,2|0,3:2|0:0,0:0:0:0:
293,156,16658,2,0,P|241:138|196:187,1,113.999996520996,10|0,0:0|0:0,0:0:0:0:
374,321,16917,1,2,3:2:0:0:
421,383,17062,2,0,L|433:263,1,113.999996520996,2|8,3:2|0:0,0:0:0:0:
497,222,17317,1,2,0:0:0:0:
364,31,17452,6,0,B|419:51|419:51|381:183,1,170.999994781494,0|0,3:2|0:0,0:0:0:0:
356,20,17715,2,0,B|298:-7|298:-7|224:20,1,113.999996520996,10|0,0:0|0:0,0:0:0:0:
79,147,17978,1,2,3:2:0:0:
132,200,18109,1,0,3:2:0:0:
136,0,18241,2,0,L|152:135,1,113.999996520996,10|0,0:0|0:0,0:0:0:0:
25,321,18504,6,0,B|63:287|108:317|108:317|126:374|208:359,1,170.999994781494,10|0,0:0|0:0,0:0:0:0:
167,361,18767,2,0,P|203:316|175:263,1,113.999996520996,10|0,0:0|3:2,0:0:0:0:
65,115,19030,1,8,3:3:0:0:
0,157,19162,2,0,P|19:211|80:212,1,113.999996520996,8|0,3:3|3:2,0:0:0:0:
329,65,19425,6,0,P|249:60|235:170,1,209.000006378174,10|0,3:2|0:0,0:0:0:0:
446,98,19820,2,0,P|473:52|416:8,1,104.500003189087,10|0,0:0|0:0,0:0:0:0:
332,231,20083,2,0,B|383:281|442:238|442:238|398:206,1,156.750004783631,6|0,1:1|0:0,0:0:0:0:
414,217,20346,2,0,L|430:336,1,104.500003189087,10|0,0:0|0:0,0:0:0:0:
169,366,20609,6,0,B|125:381|91:345|117:320|80:285|31:310,1,156.750004783631,2|0,3:2|0:0,0:0:0:0:
26,322,20873,1,10,0:0:0:0:
137,253,21004,2,0,P|171:210|151:162,1,104.500003189087,2|8,3:1|0:0,0:0:0:0:
98,18,21267,1,2,3:1:0:0:
26,52,21399,2,0,L|163:83,1,104.500003189087,0|0,3:2|3:2,0:0:0:0:
343,51,21662,6,0,B|297:54|284:10|284:10|220:15|233:65,1,156.750004783631,10|0,3:2|0:0,0:0:0:0:
357,31,21945,2,0,B|362:91|362:91|364:88|364:88|370:159,1,104.500003189087,10|0,0:0|0:0,0:0:0:0:
282,258,22208,2,0,B|324:223|362:269|362:269|374:318|449:305,1,156.750004783631,6|0,1:1|0:0,0:0:0:0:
268,278,22471,2,0,B|263:218|263:218|261:221|261:221|255:150,1,104.500003189087,10|0,0:0|3:2,0:0:0:0:
85,68,22729,6,0,B|76:42|47:34|47:34|173:66,1,156.750004783631,10|0,3:2|0:0,0:0:0:0:
169,81,22989,1,10,0:0:0:0:
57,249,23120,2,0,P|29:202|47:155,1,104.500003189087,2|0,3:1|3:2,0:0:0:0:
161,326,23383,1,2,3:1:0:0:
107,378,23514,2,0,L|-18:353,1,104.500003189087,8|0,0:0|0:0,0:0:0:0:
185,227,23777,6,0,B|214:223|229:188|229:188|225:250|282:272,1,156.750004783631,10|0,3:2|0:0,0:0:0:0:
270,266,24043,2,0,P|321:242|308:182,1,104.500003189087,10|0,0:0|0:0,0:0:0:0:
189,50,24312,2,0,B|223:79|267:35|246:12|290:-28|361:29,1,156.750004783631,6|0,1:1|0:0,0:0:0:0:
176,36,24562,2,0,P|141:90|166:127,1,104.500003189087,10|0,0:0|0:0,0:0:0:0:
423,136,24829,6,0,B|459:114|459:114|402:53|335:109,1,156.750004783631,10|0,3:2|0:0,0:0:0:0:
341,114,25097,1,10,0:0:0:0:
453,301,25231,2,0,L|484:175,1,104.500003189087,2|8,3:1|0:0,0:0:0:0:
302,292,25496,1,2,3:1:0:0:
266,360,25628,2,0,P|311:328|371:362,1,104.500003189087,8|8,0:0|0:0,0:0:0:0:
512,384,25891,5,6,1:1:0:0:
0,189,26943,5,2,0:0:0:0:
52,136,27075,1,2,0:0:0:0:
146,234,27190,5,10,0:0:0:0:
211,274,27321,1,2,0:0:0:0:
268,227,27453,1,8,3:3:0:0:
132,245,27584,2,0,P|118:203|138:168,1,85.4999973907472,8|0,3:3|3:2,0:0:0:0:
277,321,27847,6,0,B|323:349|359:303|339:283|379:241|427:270,1,170.999994781494,14|2,3:2|0:0,0:0:0:0:
499,384,28235,1,2,3:2:0:0:
434,347,28367,1,2,0:0:0:0:
512,200,28500,2,0,L|499:291,1,85.4999973907472,8|0,0:0|0:0,0:0:0:0:
317,126,28765,1,0,3:2:0:0:
249,172,28899,6,0,B|307:154|307:154|351:194|351:194|413:174,1,170.999994781494,2|10,3:2|0:0,0:0:0:0:
491,66,29300,1,2,3:2:0:0:
430,19,29432,1,2,0:0:0:0:
399,178,29563,2,0,L|405:91,1,85.4999973907472,8|0,0:0|0:0,0:0:0:0:
219,14,29830,1,0,3:2:0:0:
272,73,29965,6,0,B|281:46|305:35|305:35|165:67,1,170.999994781494,14|2,0:0|0:0,0:0:0:0:
56,175,30355,1,2,3:2:0:0:
102,242,30482,2,0,P|136:205|132:157,1,85.4999973907472,10|0,0:0|0:0,0:0:0:0:
22,19,30745,2,0,P|34:66|80:87,1,85.4999973907472,2|0,0:0|3:2,0:0:0:0:
298,49,31008,6,0,B|245:62|219:20|219:20|146:36|182:108,1,170.999994781494,10|8,0:0|0:0,0:0:0:0:
346,236,31402,2,0,B|399:191|359:130|359:130|324:166,1,156.750004783631,0|0,3:2|0:0,0:0:0:0:
332,156,31665,2,0,L|442:138,1,85.4999973907472,8|0,0:0|0:0,0:0:0:0:
472,74,31928,1,0,3:2:0:0:
504,282,32060,6,0,B|460:238|417:275|430:304|385:338|344:301,1,170.999994781494,6|0,3:2|0:0,0:0:0:0:
232,372,32454,1,2,3:2:0:0:
281,316,32586,1,0,0:0:0:0:
197,204,32717,2,0,P|179:245|200:286,1,85.4999973907472,10|0,0:0|0:0,0:0:0:0:
270,150,32981,1,0,3:2:0:0:
193,280,33112,6,0,B|133:262|133:262|92:294|92:294|36:275,1,170.999994781494,2|8,3:2|0:0,0:0:0:0:
97,85,33507,2,0,L|111:189,1,85.4999973907472,2|0,3:2|0:0,0:0:0:0:
285,56,33770,2,0,B|296:39|332:36|332:36|192:9,1,170.999994781494,8|2,0:0|3:2,0:0:0:0:
193,106,34165,1,8,0:0:0:0:
383,137,34296,5,2,3:2:0:0:
412,60,34428,1,8,0:0:0:0:
284,144,34560,2,0,L|297:250,1,85.4999973907472,2|0,3:2|0:0,0:0:0:0:
494,304,34823,6,0,B|446:291|453:242|453:242|423:182|347:238,1,170.999994781494,10|0,0:0|0:0,0:0:0:0:
320,369,35086,2,0,B|355:333|394:364|394:364|461:368|450:274,1,170.999994781494,8|0,0:0|0:0,0:0:0:0:
367,176,35349,2,0,B|379:224|333:242|333:242|296:298|383:336,1,170.999994781494,2|0,3:2|0:0,0:0:0:0:
378,160,35612,6,0,L|296:178,1,76,4|0,3:1|0:0,0:0:0:0:
55,375,36422,6,0,B|0:351|0:351|26:253,1,152,6|2,3:2|0:0,0:0:0:0:
23,262,36820,1,2,3:2:0:0:
95,201,36940,2,0,B|137:186|169:219|152:239|173:282|246:262,1,142.5,10|0,0:0|0:0,0:0:0:0:
208,266,37203,2,0,P|240:229|218:178,1,76,2|0,0:0|3:2,0:0:0:0:
182,34,37466,5,2,3:2:0:0:
128,90,37597,2,0,L|224:69,1,76,10|0,0:0|3:2,0:0:0:0:
388,93,37859,1,2,3:2:0:0:
337,34,37989,2,0,P|309:74|314:122,1,76,8|0,0:0|0:0,0:0:0:0:
464,221,38252,6,0,B|495:191|495:191|370:217,1,152,2|0,3:2|0:0,0:0:0:0:
374,371,38646,1,10,0:0:0:0:
374,371,38778,2,0,P|403:311|384:274,1,76,2|2,3:2|0:0,0:0:0:0:
277,207,39041,2,0,B|235:248|268:308|268:308|299:258,1,142.5,10|0,0:0|0:0,0:0:0:0:
284,280,39304,2,0,B|245:285|245:285|243:288|243:288|184:294,1,76,2|0,0:0|3:2,0:0:0:0:
26,324,39567,5,2,0:0:0:0:
85,369,39696,2,0,P|114:326|98:279,1,95,10|2,0:0|3:2,0:0:0:0:
49,131,39956,1,2,3:2:0:0:
3,189,40086,2,0,L|94:173,1,71.2500027179719,10|2,0:0|0:0,0:0:0:0:
212,78,40360,1,8,0:0:0:0:
87,21,40488,1,8,0:0:0:0:
143,125,40617,6,0,B|177:93|223:126|204:149|242:180|299:147,1,152,6|2,3:2|0:0,0:0:0:0:
276,156,41011,1,0,3:2:0:0:
345,66,41143,2,0,B|364:59|374:36|374:36|419:88|382:134,1,142.5,10|0,0:0|0:0,0:0:0:0:
387,126,41406,2,0,P|432:141|464:116,1,76,2|0,0:0|3:2,0:0:0:0:
327,213,41669,5,2,3:2:0:0:
277,157,41801,2,0,L|289:263,1,76,8|0,0:0|3:2,0:0:0:0:
346,366,42064,1,2,3:2:0:0:
417,332,42195,2,0,P|390:297|333:298,1,76,8|0,0:0|0:0,0:0:0:0:
238,350,42459,6,0,B|199:365|169:329|189:317|159:261|107:291,1,152,10|0,0:0|0:0,0:0:0:0:
0,382,42853,2,0,P|34:380|66:330,1,76,10|0,0:0|0:0,0:0:0:0:
152,208,43117,1,2,3:2:0:0:
48,98,43248,6,0,B|-7:125|-7:125|15:225,1,142.5,10|0,0:0|0:0,0:0:0:0:
68,101,43511,2,0,B|82:62|82:62|57:15,1,76,2|2,3:2|0:0,0:0:0:0:
152,208,43765,6,0,L|261:187,1,95,10|8,0:0|0:0,0:0:0:0:
360,7,44034,1,2,3:2:0:0:
301,121,44168,1,2,3:2:0:0:
453,191,44303,1,10,0:0:0:0:
406,91,44432,1,10,0:0:0:0:
337,204,44562,2,0,P|325:246|356:283,1,76,8|8,3:3|3:3,0:0:0:0:
502,312,44827,6,0,L|430:295,1,66.4999979705811,6|0,3:2|0:0,0:0:0:0:
333,374,45090,2,0,L|410:358,1,66.4999979705811,2|0,0:0|3:2,0:0:0:0:
512,302,45353,2,0,L|440:285,1,66.4999979705811,2|0,0:0|0:0,0:0:0:0:
329,384,45616,2,0,L|406:368,1,66.4999979705811,2|0,3:2|0:0,0:0:0:0:
208,326,45879,6,0,B|256:293|256:293|233:206,2,132.999995941162,10|2|2,0:0|0:0|0:0,0:0:0:0:
22,226,46661,1,10,0:0:0:0:
120,165,46792,1,8,0:0:0:0:
27,80,46924,6,0,L|38:162,1,66.4999979705811,6|0,3:2|0:0,0:0:0:0:
116,21,47187,2,0,B|160:-11|211:38|187:63|219:111|294:79,1,199.499993911743,2|0,0:0|0:0,0:0:0:0:
394,31,47713,2,0,L|375:117,1,66.4999979705811,2|0,3:2|0:0,0:0:0:0:
466,215,47976,6,0,B|430:181|430:181|344:206,2,132.999995941162,8|2|2,0:0|0:0|0:0,0:0:0:0:
288,347,48766,2,0,P|274:306|299:269,1,66.4999979705811,2|0,3:2|0:0,0:0:0:0:
205,375,49029,6,0,L|131:360,1,66.4999979705811,6|0,3:2|0:0,0:0:0:0:
26,298,49292,2,0,L|100:283,1,66.4999979705811,2|0,0:0|3:2,0:0:0:0:
191,215,49555,2,0,L|175:301,1,66.4999979705811,2|0,0:0|0:0,0:0:0:0:
82,191,49818,2,0,L|69:125,1,66.4999979705811,2|0,3:2|0:0,0:0:0:0:
178,64,50081,6,0,B|138:73|117:46|131:33|96:2|54:22,2,132.999995941162,10|2|2,0:0|0:0|0:0,0:0:0:0:
341,209,50871,1,10,0:0:0:0:
251,141,51002,1,8,0:0:0:0:
325,53,51134,6,0,L|318:124,1,66.4999979705811,4|0,3:2|0:0,0:0:0:0:
408,27,51397,2,0,P|443:19|481:43,1,66.4999979705811,2|0,0:0|3:2,0:0:0:0:
467,196,51660,2,0,L|475:116,1,66.4999979705811,2|0,0:0|0:0,0:0:0:0:
399,247,51924,2,0,P|366:257|322:225,1,66.4999979705811,2|0,3:2|0:0,0:0:0:0:
211,148,52199,6,0,B|237:192|237:192|215:263,1,95,8|0,0:0|0:0,0:0:0:0:
88,364,52462,2,0,B|62:320|62:320|84:249,1,95,2|0,3:2|0:0,0:0:0:0:
302,327,52725,1,8,0:0:0:0:
238,370,52854,1,8,0:0:0:0:
189,313,52984,2,0,L|299:335,1,95,8|0,3:3|0:0,0:0:0:0:
487,327,53244,6,0,B|448:371|448:371|381:299|444:231,1,190,12|2,0:0|3:2,0:0:0:0:
512,109,53770,2,0,P|455:107|432:69,1,95,10|0,0:0|0:0,0:0:0:0:
283,0,54033,2,0,P|327:24|328:81,1,95,2|0,3:2|3:2,0:0:0:0:
293,207,54296,6,0,B|237:192|237:192|234:195|234:195|182:179,1,95,8|0,0:0|0:0,0:0:0:0:
63,40,54559,2,0,B|119:25|119:25|122:28|122:28|174:12,1,95,0|0,3:2|0:0,0:0:0:0:
50,263,54822,1,8,0:0:0:0:
25,170,54954,1,0,0:0:0:0:
149,219,55086,2,0,P|153:278|114:306,1,95,2|0,3:2|0:0,0:0:0:0:
15,357,55349,6,0,B|60:398|115:355|87:327|127:289|201:336,1,190,10|2,0:0|3:2,0:0:0:0:
381,384,55882,2,0,P|408:344|386:288,1,95,10|0,0:0|0:0,0:0:0:0:
255,145,56145,2,0,P|228:186|255:240,1,95,2|0,3:2|0:0,0:0:0:0:
495,93,56408,6,0,B|437:83|437:83|435:86|435:86|388:77,1,95,10|0,0:0|0:0,0:0:0:0:
198,20,56671,2,0,B|256:10|256:10|258:13|258:13|305:4,1,95,2|0,3:2|0:0,0:0:0:0:
332,263,56934,2,0,B|358:215|358:215|337:157,1,95,10|0,0:0|0:0,0:0:0:0:
158,250,57197,2,0,B|131:297|131:297|152:355,1,95,2|0,3:2|3:2,0:0:0:0:
83,55,57460,6,0,B|54:24|99:-3|99:-3|166:61|78:138,1,209.000006378174,10|0,0:0|3:2,0:0:0:0:
158,250,57855,1,0,0:0:0:0:
31,182,57986,2,0,B|71:213|114:172|87:135|145:115|183:150,1,156.750004783631,10|0,0:0|0:0,0:0:0:0:
20,172,58244,2,0,B|-11:220|-11:220|18:277,1,104.500003189087,0|0,3:2|3:2,0:0:0:0:
115,366,58503,6,0,B|86:332|86:332|226:358,1,156.750004783631,10|0,0:0|0:0,0:0:0:0:
201,354,58766,2,0,P|232:307|213:264,1,104.500003189087,2|0,3:2|3:2,0:0:0:0:
408,158,59029,2,0,B|374:127|336:161|336:161|318:207|272:192,1,156.750004783631,10|0,0:0|0:0,0:0:0:0:
276,193,59284,2,0,P|243:145|276:97,1,104.500003189087,10|0,0:0|0:0,0:0:0:0:
476,270,59555,6,0,L|390:255,1,85.4999973907472,2|0,3:2|0:0,0:0:0:0:
287,345,59818,2,0,L|374:363,1,85.4999973907472,2|0,3:2|0:0,0:0:0:0:
487,277,60081,2,0,L|478:181,1,85.4999973907472,2|0,3:2|0:0,0:0:0:0:
385,58,60344,2,0,L|377:143,1,85.4999973907472,10|0,3:2|0:0,0:0:0:0:
221,289,60619,6,0,B|179:232|222:196|222:196|247:233,1,128.249996086121,10|0,3:2|0:0,0:0:0:0:
235,215,60882,2,0,B|189:207|189:207|190:210|190:210|133:203,1,85.4999973907472,10|0,3:2|3:2,0:0:0:0:
59,110,61145,5,10,3:2:0:0:
133,281,61276,1,0,3:2:0:0:
119,44,61408,5,10,3:2:0:0:
0,189,61540,1,0,3:2:0:0:
161,350,61671,6,0,L|111:363,3,47.5,2|2|2|2,0:0|0:0|0:0|0:0,0:0:0:0:
242,265,62329,2,0,L|293:276,2,47.5,2|2|2,0:0|0:0|0:0,0:0:0:0:
193,227,62724,2,0,L|301:252,1,99.7499969558717,2|0,3:2|0:0,0:0:0:0:
384,218,63250,6,0,B|321:250|321:250|355:368,1,185.249991519928,2|0,0:0|0:0,0:0:0:0:
370,384,63513,1,10,0:0:0:0:
467,201,63645,6,0,B|429:223|390:201|379:169|379:169|374:148|374:148|356:123|321:100|281:132,1,227.999993041992,14|0,3:2|0:0,0:0:0:0:
143,44,64040,2,0,B|161:32|165:1|165:1|234:50|180:132,1,170.999994781494,8|0,0:0|0:0,0:0:0:0:
178,126,64303,1,2,3:2:0:0:
64,208,64434,1,2,3:2:0:0:
134,320,64566,1,10,0:0:0:0:
242,256,64697,6,0,B|267:237|305:259|305:259|267:201|194:199|142:277,1,227.999993041992,2|0,0:0|0:0,0:0:0:0:
357,338,65092,2,0,P|396:302|379:238,1,113.999996520996,8|0,0:0|0:0,0:0:0:0:
281,377,65355,1,2,3:2:0:0:
440,304,65484,1,2,3:2:0:0:
290,178,65613,1,10,0:0:0:0:
500,70,65744,6,0,B|351:34|351:34|400:47|412:109,1,227.999993041992,2|0,0:0|0:0,0:0:0:0:
204,191,66139,2,0,P|207:124|256:95,1,113.999996520996,10|0,0:0|0:0,0:0:0:0:
487,276,66402,2,0,B|439:240|395:272|422:306|374:341|328:308,1,170.999994781494,2|0,3:2|0:0,0:0:0:0:
497,291,66655,2,0,B|533:244|533:244|497:172,1,113.999996520996,10|0,0:0|0:0,0:0:0:0:
301,235,66918,5,2,3:2:0:0:
383,167,67049,1,0,0:0:0:0:
341,315,67181,2,0,P|285:331|236:286,1,113.999996520996,10|0,0:0|0:0,0:0:0:0:
29,243,67444,1,2,3:2:0:0:
83,187,67575,2,0,L|58:308,1,113.999996520996,2|8,3:2|0:0,0:0:0:0:
92,368,67839,1,2,0:0:0:0:
282,199,67970,6,0,B|238:141|165:181|165:181|222:215,1,170.999994781494,0|0,3:2|0:0,0:0:0:0:
198,201,68240,2,0,B|189:141|189:141|192:137|192:137|179:66,1,113.999996520996,10|0,0:0|0:0,0:0:0:0:
364,240,68503,2,0,B|316:278|316:278|311:278|311:278|275:309,1,113.999996520996,2|0,3:2|3:2,0:0:0:0:
311,81,68766,2,0,B|368:102|368:102|370:107|370:107|415:123,1,113.999996520996,10|0,0:0|0:0,0:0:0:0:
485,325,69029,6,0,B|442:342|412:291|437:267|405:220|363:239,1,170.999994781494,2|0,3:2|0:0,0:0:0:0:
497,332,69292,2,0,P|540:282|501:227,1,113.999996520996,10|0,0:0|0:0,0:0:0:0:
271,289,69555,1,2,3:2:0:0:
216,342,69683,2,0,P|259:375|327:355,1,113.999996520996,2|8,3:2|0:0,0:0:0:0:
391,373,69943,1,2,0:0:0:0:
216,215,70075,6,0,B|108:185|108:185|143:200|147:242,1,170.999994781494,0|0,3:2|0:0,0:0:0:0:
226,232,70338,2,0,B|264:179|264:179|236:124,1,113.999996520996,10|0,0:0|0:0,0:0:0:0:
72,8,70601,1,2,3:2:0:0:
151,120,70737,1,0,3:2:0:0:
4,67,70873,2,0,L|128:40,1,113.999996520996,10|0,0:0|0:0,0:0:0:0:
298,174,71139,5,2,3:2:0:0:
238,53,71272,2,0,L|252:2,2,47.5,8|8|8,0:0|0:0|0:0,0:0:0:0:
221,210,71548,5,10,0:0:0:0:
349,105,71686,1,10,0:0:0:0:
418,263,71811,5,2,3:2:0:0:
370,199,71937,1,2,3:2:0:0:
316,362,72062,6,0,B|278:384|239:362|228:330|228:330|223:309|223:309|205:284|170:261|130:293,1,227.999993041992,6|0,3:2|0:0,0:0:0:0:
1,383,72453,2,0,B|61:353|61:353|19:206,1,170.999994781494,8|0,0:0|0:0,0:0:0:0:
11,241,72716,1,2,3:2:0:0:
151,145,72847,1,2,3:2:0:0:
51,50,72979,1,10,0:0:0:0:
0,113,73110,6,0,B|52:64|110:114|110:114|179:68|120:-2,1,227.999993041992,2|0,0:0|0:0,0:0:0:0:
293,202,73505,2,0,B|261:195|243:157|243:157|239:241|176:247,1,170.999994781494,8|0,0:0|0:0,0:0:0:0:
172,246,73768,1,2,3:2:0:0:
41,341,73896,1,2,3:2:0:0:
14,207,74024,1,10,0:0:0:0:
140,340,74155,6,0,B|221:323|221:323|268:378|268:378|371:362,1,227.999993041992,2|0,0:0|0:0,0:0:0:0:
417,193,74550,2,0,P|430:244|377:299,1,113.999996520996,10|0,0:0|0:0,0:0:0:0:
267,149,74817,2,0,B|217:94|271:34|271:34|296:87,1,170.999994781494,2|0,3:2|0:0,0:0:0:0:
288,71,75072,2,0,B|228:64|228:64|223:61|223:61|161:52,1,113.999996520996,10|0,0:0|0:0,0:0:0:0:
101,248,75335,2,0,B|139:199|139:199|145:197|145:197|182:147,1,113.999996520996,2|0,3:2|0:0,0:0:0:0:
31,15,75598,2,0,B|51:71|51:71|55:75|55:75|77:135,1,113.999996520996,10|0,0:0|0:0,0:0:0:0:
160,335,75861,5,2,3:2:0:0:
226,380,76003,2,0,P|260:326|233:271,1,113.999996520996,2|8,3:2|0:0,0:0:0:0:
192,228,76265,1,2,0:0:0:0:
350,332,76397,2,0,B|406:359|443:316|412:281|460:245|516:275,1,170.999994781494,0|0,3:2|0:0,0:0:0:0:
487,265,76660,2,0,P|510:215|481:169,1,113.999996520996,10|0,0:0|0:0,0:0:0:0:
356,108,76923,1,2,3:2:0:0:
468,38,77054,1,0,3:2:0:0:
390,209,77186,2,0,L|266:188,1,113.999996520996,10|0,0:0|0:0,0:0:0:0:
1,89,77449,6,0,B|29:105|58:89|66:65|66:65|70:49|70:49|84:30|110:13|140:37,1,170.999994781494,10|0,0:0|0:0,0:0:0:0:
169,204,77712,2,0,B|169:171|140:154|115:158|115:158|99:163|99:163|76:161|48:147|54:109,1,170.999994781494,10|0,0:0|0:0,0:0:0:0:
74,96,77975,1,8,3:3:0:0:
161,44,78106,2,0,P|188:100|153:145,1,95,8|0,3:3|3:2,0:0:0:0:
22,273,78367,6,0,P|45:362|164:321,1,209.000006378174,10|0,3:2|0:0,0:0:0:0:
294,200,78761,2,0,P|250:225|243:274,1,104.500003189087,10|0,0:0|0:0,0:0:0:0:
468,341,79024,2,0,B|502:307|483:257|462:280|420:231|461:174,1,156.750004783631,6|0,1:1|0:0,0:0:0:0:
476,353,79287,2,0,P|423:379|384:346,1,104.500003189087,10|0,0:0|0:0,0:0:0:0:
291,120,79550,6,0,B|394:92|394:92|365:106|357:142,1,156.750004783631,2|0,3:2|0:0,0:0:0:0:
366,148,79800,1,10,0:0:0:0:
207,0,79936,2,0,P|184:45|215:96,1,95,2|8,3:1|0:0,0:0:0:0:
82,197,80206,1,2,3:1:0:0:
167,179,80341,2,0,L|48:151,1,104.500003189087,8|0,3:3|0:0,0:0:0:0:
343,333,80610,6,0,B|297:330|284:374|284:374|220:369|233:319,1,156.750004783631,10|0,3:2|0:0,0:0:0:0:
357,353,80873,2,0,B|362:293|362:293|364:296|364:296|370:225,1,104.500003189087,10|0,0:0|0:0,0:0:0:0:
329,83,81136,2,0,B|384:76|384:76|423:118|423:118|490:107,1,156.750004783631,6|0,1:1|0:0,0:0:0:0:
320,67,81399,2,0,B|315:127|315:127|313:124|313:124|307:195,1,104.500003189087,10|0,0:0|3:2,0:0:0:0:
177,37,81662,6,0,B|141:34|129:5|129:5|122:74|53:93,1,156.750004783631,10|0,3:2|0:0,0:0:0:0:
50,71,81925,1,10,0:0:0:0:
173,235,82057,2,0,P|221:256|266:216,1,104.500003189087,2|0,3:1|3:2,0:0:0:0:
21,314,82320,1,2,3:1:0:0:
70,380,82452,2,0,L|52:261,1,104.500003189087,8|0,0:0|0:0,0:0:0:0:
227,140,82715,6,0,B|263:106|305:142|305:142|314:195|395:180,1,156.750004783631,10|0,3:2|0:0,0:0:0:0:
353,182,82978,2,0,P|391:144|371:94,1,104.500003189087,10|0,0:0|0:0,0:0:0:0:
459,365,83241,2,0,B|494:333|494:333|354:368,1,156.750004783631,6|0,1:1|0:0,0:0:0:0:
387,359,83504,2,0,P|360:314|391:270,1,104.500003189087,10|0,0:0|0:0,0:0:0:0:
258,381,83767,6,0,L|82:339,1,156.750004783631,10|0,3:2|0:0,0:0:0:0:
76,354,84031,1,10,0:0:0:0:
200,285,84162,2,0,P|232:240|211:195,1,104.500003189087,2|8,3:1|0:0,0:0:0:0:
143,53,84425,1,2,3:1:0:0:
87,229,84557,1,8,0:0:0:0:
244,114,84688,1,8,0:0:0:0:
36,11,84820,5,6,1:1:0:0:
17,2,85881,5,8,0:0:0:0:
135,102,86009,1,8,0:0:0:0:
28,192,86137,1,8,0:0:0:0:
110,180,86265,2,0,L|-3:157,1,85.4999973907472,0|0,3:2|0:0,0:0:0:0:
153,22,86522,2,0,B|213:10|213:10|255:48|255:48|341:36,1,170.999994781494,10|0,3:2|0:0,0:0:0:0:
410,241,86929,5,8,0:0:0:0:
311,148,87058,1,8,0:0:0:0:
423,45,87187,1,8,0:0:0:0:
496,106,87316,2,0,L|398:76,1,85.4999973907472,0|0,3:2|0:0,0:0:0:0:
238,208,87592,2,0,B|282:223|311:177|311:177|374:204|347:270,1,170.999994781494,10|0,3:2|0:0,0:0:0:0:
137,344,87999,6,0,B|124:370|85:393|27:381|-2:346|-6:298|6:256|37:231|71:224|104:229|130:263|130:263|102:246|75:253|53:278,1,398.999987823487,6|0,3:1|0:0,0:0:0:0:
67,266,88514,2,0,P|37:215|69:154,1,113.999996520996,10|0,0:0|0:0,0:0:0:0:
341,255,88771,6,0,B|363:233|393:250|414:272|410:307|393:323|378:336|350:340|311:339|286:315|286:315|261:280|229:285|229:285|255:261|264:237|273:217|273:217|289:183|320:174|346:167|346:167|374:157|385:121,1,527.249997988701,6|0,3:1|0:0,0:0:0:0:
