osu file format v14

[General]
AudioFilename: audio.mp3
AudioLeadIn: 0
PreviewTime: 63184
Countdown: 0
SampleSet: Soft
StackLeniency: 0.3
Mode: 0
LetterboxInBreaks: 0
WidescreenStoryboard: 1

[Editor]
DistanceSpacing: 0.9
BeatDivisor: 4
GridSize: 8
TimelineZoom: 2.899999

[Metadata]
Title:BAKU (TV Size)
TitleUnicode:BAKU (TV Size)
Artist:Ikimonogakari
ArtistUnicode:いきものがかり
Creator:Smoke
Version:Kuki's Insane
Source:BORUTO-ボルト- NARUTO NEXT GENERATIONS
Tags:anime pop jpop j-pop rock jrock j-rock japanese uzumaki boruto Kuki1537 Nymphe Kiyoshi Guarden 吉岡聖恵 Kiyoe Yoshioka 山下穂尊 Hotaka Yamashita 水野良樹 Yoshiki Mizuno op opening 8
BeatmapID:3035153
BeatmapSetID:1479509

[Difficulty]
HPDrainRate:4.5
CircleSize:3.8
OverallDifficulty:8
ApproachRate:9
SliderMultiplier:1.7
SliderTickRate:1

[Events]
//Background and Video events
0,0,"boruto wallpaper.png",0,0
Video,460,"video.mp4"
//Break Periods
//Storyboard Layer 0 (Background)
//Storyboard Layer 1 (Fail)
//Storyboard Layer 2 (Pass)
//Storyboard Layer 3 (Foreground)
//Storyboard Layer 4 (Overlay)
//Storyboard Sound Samples

[TimingPoints]
528,243.90243902439,4,2,1,70,1,0
649,232.558139534884,4,2,1,70,1,0
881,258.620689655172,4,2,1,70,1,0
1273,209.059233449477,4,2,1,70,1,0
1273,-125,4,2,1,70,0,0
1691,240,4,2,1,75,1,0
2062,240,4,2,1,75,1,0
2302,218.181818181818,4,2,1,75,1,0
2738,270.27027027027,4,2,1,75,1,0
2738,-166.666666666667,4,2,1,75,0,0
3278,238.095238095238,4,2,1,75,1,0
3397,245.901639344262,4,2,1,80,1,0
3643,256.410256410256,4,2,1,80,1,0
4284,265.486725663717,4,2,1,65,1,0
4284,-133.333333333333,4,2,1,65,0,0
4549,256.410256410256,4,2,1,65,1,0
4677,269.058295964126,4,2,1,80,1,0
4677,-90.9090909090909,4,2,1,80,0,0
4811,-90.9090909090909,4,2,1,80,0,0
4812,267.857142857143,4,2,1,80,1,0
5080,263.157894736842,4,2,1,80,1,0
5080,-90.9090909090909,4,2,1,80,0,0
5343,270.27027027027,4,2,1,80,1,0
5343,-90.9090909090909,4,2,1,80,0,0
5748,-88.4955752212389,4,2,1,80,0,0
5879,263.157894736842,4,2,1,80,1,0
5879,-90.9090909090909,4,2,1,80,0,0
6409,259.74025974026,4,2,1,80,1,0
6409,-90.9090909090909,4,2,1,80,0,0
7188,265.486725663717,4,2,1,80,1,0
7188,-125,4,2,1,80,0,0
7453,264.31718061674,4,2,1,80,1,0
7453,-105.263157894737,4,2,1,80,0,0
7717,-90.9090909090909,4,2,1,80,0,0
7981,263.157894736842,4,2,1,80,1,0
7981,-79.9999999999999,4,2,1,80,0,0
8375,-90.9090909090909,4,2,1,80,0,0
9296,-111.111111111111,4,2,1,80,0,0
9559,-83.3333333333333,4,2,1,80,0,0
10086,-90.9090909090909,4,2,1,80,0,0
10349,267.857142857143,4,2,1,80,1,0
10349,-90.9090909090909,4,2,1,80,0,0
10616,270.27027027027,4,2,1,80,1,0
10616,-90.9090909090909,4,2,1,80,0,0
11021,-86.9565217391304,4,2,1,80,0,0
11148,263.157894736842,4,2,1,80,1,0
11148,-90.9090909090909,4,2,1,80,0,0
11921,266.666666666667,4,2,1,80,1,0
11921,-90.9090909090909,4,2,1,80,0,0
12321,272.727272727273,4,2,1,80,1,0
12321,-90.9090909090909,4,2,1,80,0,0
12457,265.486725663717,4,2,1,80,1,0
12457,-90.9090909090909,4,2,1,80,0,0
12712,259.74025974026,4,2,1,80,1,0
12712,-111.111111111111,4,2,1,80,0,0
13101,-91.743119266055,4,2,1,80,0,0
13231,263.157894736842,4,2,1,80,1,0
13231,-90.9090909090909,4,2,1,80,0,0
15204,-96.1538461538461,4,2,1,80,0,0
15351,263.157894736842,4,2,1,80,1,0
15351,-90.9090909090909,4,2,1,80,0,0
15614,258.620689655172,4,2,1,80,1,0
15614,-125,4,2,1,80,0,0
15872,264.31718061674,4,2,1,80,1,0
15872,-105.263157894737,4,2,1,80,0,0
16136,-90.9090909090909,4,2,1,80,0,0
16400,258.620689655172,4,2,1,80,1,0
16400,-90.9090909090909,4,2,1,80,0,0
16917,291.26213592233,4,2,1,80,1,0
16917,-90.9090909090909,4,2,1,80,0,0
17062,241.935483870968,4,2,1,80,1,0
17062,-90.9090909090909,4,2,1,80,0,0
17182,270.27027027027,4,2,1,80,1,0
17182,-90.9090909090909,4,2,1,80,0,0
17317,-90.0900900900901,4,2,1,80,0,0
17452,263.157894736842,4,2,1,80,1,0
17452,-90.9090909090909,4,2,1,80,0,0
19425,-111.111111111111,4,2,1,80,0,0
20083,-90.9090909090909,4,2,1,80,0,0
20609,-111.111111111111,4,2,1,80,0,0
21004,-90.9090909090909,4,2,1,80,0,0
21662,283.018867924528,4,2,1,80,1,0
21662,-111.111111111111,4,2,1,80,0,0
21945,263.157894736842,4,2,1,80,1,0
21945,-90.9090909090909,4,2,1,80,0,0
22471,269.058295964126,4,2,1,80,1,0
22471,-90.9090909090909,4,2,1,80,0,0
22729,260.869565217391,4,2,1,80,1,0
22729,-90.9090909090909,4,2,1,80,0,0
23120,263.157894736842,4,2,1,80,1,0
23120,-90.9090909090909,4,2,1,80,0,0
23777,265.486725663717,4,2,1,80,1,0
23777,-111.111111111111,4,2,1,80,0,0
24043,269.058295964126,4,2,1,80,1,0
24043,-90.9090909090909,4,2,1,80,0,0
24312,250,4,2,1,80,1,0
24312,-90.9090909090909,4,2,1,80,0,0
24562,267.857142857143,4,2,1,80,1,0
24562,-90.9090909090909,4,2,1,80,0,0
24829,-111.111111111111,4,2,1,80,0,0
25231,-90.9090909090909,4,2,1,80,0,0
25365,263.157894736842,4,2,1,80,1,0
25365,-90.9090909090909,4,2,1,80,0,0
25891,263.157894736842,4,2,1,80,1,0
25891,-79.9999999999999,4,2,1,80,0,0
26285,-90.9090909090909,4,2,1,5,0,0
26943,-133.333333333333,4,2,1,80,0,0
27075,230.769230769231,4,2,1,70,1,0
27190,263.157894736842,4,2,1,70,1,0
27190,-133.333333333333,4,2,1,70,0,0
27782,-133.333333333333,4,2,1,5,0,0
27847,275.229357798165,4,2,1,70,1,0
27847,-90.9090909090909,4,2,1,70,0,0
28235,265.486725663717,4,2,1,70,1,0
28899,269.058295964126,4,2,1,70,1,0
28899,-90.9090909090909,4,2,1,70,0,0
29169,263.157894736842,4,2,1,70,1,0
29563,-102.040816326531,4,2,1,70,0,0
29695,270.27027027027,4,2,1,70,1,0
29965,263.157894736842,4,2,1,70,1,0
29965,-83.3333333333333,4,2,1,70,0,0
30228,254.237288135593,4,2,1,70,1,0
30482,263.157894736842,4,2,1,70,1,0
31008,-90.9090909090909,4,2,1,70,0,0
31139,263.157894736842,4,2,1,70,1,0
32060,-90.9090909090909,4,2,1,70,0,0
32717,-100,4,2,1,70,0,0
33112,-90.9090909090909,4,2,1,70,0,0
33770,-100,4,2,1,70,0,0
35020,-100,4,2,1,5,0,0
35086,-100,4,2,1,70,0,0
35283,-100,4,2,1,5,0,0
35349,-100,4,2,1,70,0,0
35612,270.27027027027,4,2,1,70,1,0
35612,-111.111111111111,4,2,1,70,0,0
36422,265.486725663717,4,2,1,65,1,0
36422,-125,4,2,1,65,0,0
36940,263.157894736842,4,2,1,65,1,0
36940,-125,4,2,1,65,0,0
37729,260.869565217391,4,2,1,65,1,0
37729,-125,4,2,1,65,0,0
37989,263.157894736842,4,2,1,65,1,0
37989,-125,4,2,1,65,0,0
39567,259.74025974026,4,2,1,65,1,0
39567,-125,4,2,1,65,0,0
40360,257.510729613734,4,2,1,65,1,0
40360,-125,4,2,1,65,0,0
40617,263.157894736842,4,2,1,65,1,0
40617,-125,4,2,1,65,0,0
43765,269.058295964126,4,2,1,65,1,0
43765,-125,4,2,1,65,0,0
44303,259.74025974026,4,2,1,65,1,0
44303,-125,4,2,1,65,0,0
44827,263.157894736842,4,2,1,55,1,0
44827,-166.666666666667,4,2,1,55,0,0
46405,256.410256410256,4,2,1,55,1,0
46661,263.157894736842,4,2,1,55,1,0
46924,263.157894736842,4,2,1,55,1,0
46924,-166.666666666667,4,2,1,55,0,0
51924,275.229357798165,4,2,1,55,1,0
52199,263.157894736842,4,2,1,55,1,0
52725,259.74025974026,4,2,1,55,1,0
52725,-125,4,2,1,55,0,0
53244,263.157894736842,4,2,1,60,1,0
53244,-100,4,2,1,60,0,0
55349,275.229357798165,4,2,1,60,1,0
55624,258.620689655172,4,2,1,60,1,0
55882,263.157894736842,4,2,1,60,1,0
56408,263.157894736842,4,2,1,60,1,0
57460,-100,4,2,1,65,0,0
57986,258.620689655172,4,2,1,65,1,0
58503,263.157894736842,4,2,1,65,1,0
59029,255.31914893617,4,2,1,65,1,0
59029,-100,4,2,1,65,0,0
59220,-100,4,2,1,5,0,0
59284,271.493212669683,4,2,1,65,1,0
59487,-100,4,2,1,5,0,0
59555,263.157894736842,4,2,1,45,1,0
59818,-100,4,2,1,50,0,0
60081,-100,4,2,1,55,0,0
60344,275.229357798165,4,2,1,60,1,0
60619,263.157894736842,4,2,1,65,1,0
60882,-100,4,2,1,70,0,0
61145,-100,4,2,1,75,0,0
61408,-100,4,2,1,80,0,0
61671,-100,4,2,1,55,0,0
62592,-125,4,2,1,55,0,0
62724,-166.666666666667,4,2,1,65,0,0
63250,-133.333333333333,4,2,1,65,0,0
63645,-90.9090909090909,4,2,1,80,0,0
65355,258.620689655172,4,2,1,80,1,0
65613,263.157894736842,4,2,1,80,1,0
65876,263.157894736842,4,2,1,80,1,0
66139,-125,4,2,1,80,0,0
66402,253.164556962025,4,2,1,80,1,0
66402,-105.263157894737,4,2,1,80,0,0
66655,263.157894736842,4,2,1,80,1,0
66655,-90.9090909090909,4,2,1,80,0,0
66918,263.157894736842,4,2,1,80,1,0
66918,-83.3333333333333,4,2,1,80,0,0
67312,-90.9090909090909,4,2,1,80,0,0
67839,-91.743119266055,4,2,1,80,0,0
67970,270.27027027027,4,2,1,80,1,0
68240,263.157894736842,4,2,1,80,1,0
68240,-111.111111111111,4,2,1,80,0,0
68503,-83.3333333333333,4,2,1,80,0,0
69029,263.157894736842,4,2,1,80,1,0
69029,-90.9090909090909,4,2,1,80,0,0
69555,257.510729613734,4,2,1,80,1,0
69812,263.157894736842,4,2,1,80,1,0
69812,-90.9090909090909,4,2,1,80,0,0
70601,272.727272727273,4,2,1,80,1,0
70601,-90.9090909090909,4,2,1,80,0,0
70873,266.666666666667,4,2,1,80,1,0
70873,-90.9090909090909,4,2,1,80,0,0
71272,279.06976744186,4,2,1,80,1,0
71411,275.229357798165,4,2,1,80,1,0
71686,251.046025104603,4,2,1,80,1,0
71686,-90.9090909090909,4,2,1,80,0,0
72062,260.869565217391,4,2,1,80,1,0
72062,-90.9090909090909,4,2,1,80,0,0
72193,260.869565217391,4,2,1,80,1,0
72453,263.157894736842,4,2,1,80,1,0
72453,-90.9090909090909,4,2,1,80,0,0
72716,263.157894736842,4,2,1,80,1,0
72716,-90.9090909090909,4,2,1,80,0,0
73768,256.410256410256,4,2,1,80,1,0
74024,263.157894736842,4,2,1,80,1,0
74024,-90.9090909090909,4,2,1,80,0,0
74550,267.857142857143,4,2,1,80,1,0
74550,-125,4,2,1,80,0,0
74817,255.31914893617,4,2,1,80,1,0
74817,-105.263157894737,4,2,1,80,0,0
75072,263.157894736842,4,2,1,80,1,0
75072,-90.9090909090909,4,2,1,80,0,0
75335,-83.3333333333333,4,2,1,80,0,0
75861,285.714285714286,4,2,1,80,1,0
76003,262.008733624454,4,2,1,80,1,0
76003,-90.9090909090909,4,2,1,80,0,0
76134,263.157894736842,4,2,1,80,1,0
76134,-90.9090909090909,4,2,1,80,0,0
76397,263.157894736842,4,2,1,80,1,0
76397,-90.9090909090909,4,2,1,80,0,0
77976,260.869565217391,4,2,1,80,1,0
77976,-90.9090909090909,4,2,1,80,0,0
78367,263.157894736842,4,2,1,80,1,0
78367,-111.111111111111,4,2,1,80,0,0
78498,263.157894736842,4,2,1,80,1,0
79024,-90.9090909090909,4,2,1,80,0,0
79550,250,4,2,1,80,1,0
79550,-111.111111111111,4,2,1,80,0,0
79800,272.727272727273,4,2,1,80,1,0
79936,-90.9090909090909,4,2,1,80,0,0
80072,269.058295964126,4,2,1,80,1,0
80610,263.157894736842,4,2,1,80,1,0
80610,-111.111111111111,4,2,1,80,0,0
81136,-90.9090909090909,4,2,1,80,0,0
82715,-111.111111111111,4,2,1,80,0,0
83241,-90.9090909090909,4,2,1,80,0,0
83767,-111.111111111111,4,2,1,80,0,0
84162,-90.9090909090909,4,2,1,80,0,0
84820,-79.9999999999999,4,2,1,80,0,0
85215,-79.9999999999999,4,2,1,5,0,0
85881,256.410256410256,4,2,1,70,1,0
86522,271.493212669683,4,2,1,70,1,0
86929,258.620689655172,4,2,1,75,1,0
87316,275.229357798165,4,2,1,75,1,0
87592,271.493212669683,4,2,1,75,1,0
87999,257.510729613734,4,2,1,80,1,0
87999,-125,4,2,1,80,0,0
89157,-125,4,2,1,5,0,0

[Colours]
Combo1 : 244,217,21
Combo2 : 232,45,82
Combo3 : 40,132,232

[HitObjects]
77,103,528,6,0,P|57:91|38:88,1,42.5,8|8,3:3|3:3,0:0:0:0:
89,114,649,6,0,P|133:94|177:92,1,85,8|8,0:0|0:0,0:0:0:0:
255,119,881,1,8,0:0:0:0:
140,271,1010,2,0,P|147:224|154:183,1,85,0|0,3:2|0:0,0:0:0:0:
225,320,1273,6,0,P|234:247|259:94,1,204,10|0,3:2|0:0,0:0:0:0:
414,285,1691,6,0,P|467:274|522:294,1,85,8|8,0:0|0:0,0:0:0:0:
459,367,1931,1,8,0:0:0:0:
321,296,2062,2,0,P|328:243|333:207,1,85,0|0,3:2|0:0,0:0:0:0:
212,331,2302,6,0,P|229:204|252:70,1,255,14|0,3:2|0:0,0:0:0:0:
306,0,2738,6,0,P|282:26|160:29,1,152.999995330811,2|0,3:2|0:0,0:0:0:0:
31,15,3278,5,0,3:2:0:0:
20,25,3397,2,0,P|5:71|-2:125,1,85,10|0,0:0|3:2,0:0:0:0:
102,285,3643,6,0,B|81:216|93:96|93:96|94:139|117:173,1,255,10|0,0:0|0:0,0:0:0:0:
108,158,4284,6,0,P|142:140|189:137,1,63.7500024318696,2|0,0:0|0:0,0:0:0:0:
94,169,4549,1,10,0:0:0:0:
233,46,4677,6,0,B|248:83|283:103|283:103|249:220,1,187.000005706787,14|0,3:2|0:0,0:0:0:0:
272,319,5080,2,0,P|227:303|176:308,1,93.5000028533936,8|0,0:0|0:0,0:0:0:0:
342,248,5343,1,2,3:2:0:0:
430,199,5478,1,2,3:2:0:0:
504,287,5613,1,10,0:0:0:0:
402,384,5748,6,0,P|412:333|431:193,1,187.000005706787,2|0,0:0|0:0,0:0:0:0:
478,126,6142,2,0,B|456:117|440:96|440:96|423:112|400:115,1,93.5000028533936,8|0,0:0|0:0,0:0:0:0:
292,67,6409,1,2,3:2:0:0:
208,28,6538,1,2,3:2:0:0:
104,90,6668,1,10,0:0:0:0:
35,0,6798,6,0,P|58:41|42:186,1,187.000005706787,2|0,0:0|0:0,0:0:0:0:
12,266,7188,6,0,P|24:299|32:332,1,68,10|0,0:0|0:0,0:0:0:0:
131,221,7453,2,0,P|133:261|132:301,1,80.7499978437424,2|0,3:2|3:2,0:0:0:0:
248,266,7717,2,0,P|238:311|226:356,1,93.5000028533936,10|0,0:0|0:0,0:0:0:0:
373,176,7981,6,0,B|345:166|329:137|329:137|349:219|362:314,1,212.5,2|10,3:2|0:0,0:0:0:0:
375,384,8375,1,0,0:0:0:0:
463,257,8507,1,2,3:2:0:0:
452,244,8638,2,0,P|464:189|473:153,1,93.5000028533936,2|8,3:2|0:0,0:0:0:0:
315,27,8902,6,0,B|377:3|442:39|442:39|413:55|406:91,1,187.000005706787,2|0,0:0|0:0,0:0:0:0:
249,135,9296,2,0,P|287:120|327:123,1,76.4999976654053,10|0,0:0|0:0,0:0:0:0:
176,206,9559,6,0,B|167:231|167:256|167:256|156:233|133:216,1,101.999996887207,2|0,3:2|3:2,0:0:0:0:
112,128,9823,2,0,B|120:102|120:77|120:77|131:100|154:117,1,101.999996887207,10|0,0:0|0:0,0:0:0:0:
0,279,10086,6,0,P|11:207|25:91,1,187.000005706787,2|10,3:2|0:0,0:0:0:0:
24,93,10616,1,2,3:2:0:0:
104,48,10751,1,2,3:2:0:0:
199,110,10886,1,8,0:0:0:0:
97,216,11021,6,0,P|162:217|219:327,1,187.000005706787,2|0,0:0|0:0,0:0:0:0:
141,380,11411,2,0,P|94:370|47:364,1,93.5000028533936,10|0,0:0|0:0,0:0:0:0:
221,312,11674,2,0,P|268:302|315:296,1,93.5000028533936,2|0,3:2|3:2,0:0:0:0:
406,351,11921,2,0,P|357:325|376:205,1,187.000005706787,10|2,0:0|3:2,0:0:0:0:
512,176,12321,5,8,0:0:0:0:
508,189,12389,1,8,0:0:0:0:
507,203,12457,1,8,0:0:0:0:
419,273,12589,1,10,0:0:0:0:
343,127,12712,1,10,0:0:0:0:
353,119,12841,2,0,P|381:119|426:137,1,76.4999976654053,2|2,3:2|3:2,0:0:0:0:
226,206,13101,6,0,P|243:146|256:19,1,187.000005706787,6|0,3:2|0:0,0:0:0:0:
149,150,13494,2,0,P|162:94|165:54,1,93.5000028533936,8|0,0:0|0:0,0:0:0:0:
21,4,13757,1,2,3:2:0:0:
76,89,13888,1,2,3:2:0:0:
4,180,14020,1,10,0:0:0:0:
73,276,14152,6,0,B|176:244|146:327|258:296,1,187.000005706787,2|0,0:0|0:0,0:0:0:0:
260,201,14546,2,0,P|236:170|225:209,1,93.5000028533936,8|0,0:0|0:0,0:0:0:0:
331,328,14809,1,2,3:2:0:0:
401,267,14941,1,2,3:2:0:0:
512,323,15073,1,10,0:0:0:0:
442,179,15204,6,0,P|430:231|422:372,1,187.000005706787,2|0,0:0|0:0,0:0:0:0:
339,118,15614,6,0,P|347:161|352:212,1,68,10|0,0:0|0:0,0:0:0:0:
244,279,15872,2,0,P|253:246|263:196,1,80.7499978437424,2|0,3:2|3:2,0:0:0:0:
171,88,16136,2,0,P|174:131|163:219,1,93.5000028533936,10|0,0:0|0:0,0:0:0:0:
123,5,16400,6,0,B|225:-32|203:53|322:19,1,187.000005706787,2|10,3:2|0:0,0:0:0:0:
302,23,16917,1,2,3:2:0:0:
439,91,17062,2,0,P|445:41|462:-14,1,93.5000028533936,2|8,3:2|0:0,0:0:0:0:
475,189,17317,6,0,P|458:140|315:139,1,187.000005706787,2|0,0:0|0:0,0:0:0:0:
285,236,17715,2,0,P|348:220|388:215,1,93.5000028533936,10|0,0:0|0:0,0:0:0:0:
177,314,17978,2,0,P|251:319|371:348,1,187.000005706787,2|10,3:2|0:0,0:0:0:0:
450,288,18373,1,0,0:0:0:0:
376,360,18504,5,10,0:0:0:0:
76,288,18767,1,10,0:0:0:0:
338,117,19030,1,8,3:3:0:0:
327,130,19162,1,8,3:3:0:0:
157,42,19425,6,0,B|187:27|205:0|205:0|187:63|165:168,1,229.499992996216,10|10,3:2|0:0,0:0:0:0:
166,160,20083,2,0,P|186:235|209:348,1,187.000005706787,6|10,1:1|0:0,0:0:0:0:
208,342,20609,6,0,P|181:319|54:330,1,152.999995330811,2|10,3:2|0:0,0:0:0:0:
231,239,21004,2,0,P|276:220|332:213,1,93.5000028533936,2|8,3:1|0:0,0:0:0:0:
281,101,21267,2,0,P|323:119|481:134,1,187.000005706787,2|0,3:1|3:2,0:0:0:0:
469,144,21596,1,8,0:0:0:0:
469,144,21662,6,0,P|458:208|447:307,1,152.999995330811,10|10,3:2|0:0,0:0:0:0:
448,295,22208,2,0,B|349:268|368:345|269:317,1,187.000005706787,6|10,1:1|0:0,0:0:0:0:
197,229,22605,5,0,3:2:0:0:
207,227,22672,1,0,3:2:0:0:
218,228,22729,1,10,3:2:0:0:
185,333,22859,1,0,3:2:0:0:
108,269,22989,1,10,0:0:0:0:
2,378,23120,6,0,P|19:332|22:279,1,93.5000028533936,2|0,3:1|3:2,0:0:0:0:
119,175,23383,2,0,P|102:129|99:76,1,93.5000028533936,2|8,3:1|0:0,0:0:0:0:
98,84,23777,6,0,P|150:98|256:102,1,152.999995330811,10|10,3:2|0:0,0:0:0:0:
248,102,24312,2,0,P|279:52|412:49,1,187.000005706787,6|10,1:1|0:0,0:0:0:0:
397,39,24829,6,0,P|379:106|360:209,1,152.999995330811,10|10,3:2|0:0,0:0:0:0:
422,280,25231,2,0,P|480:274|525:253,1,93.5000028533936,2|8,3:1|0:0,0:0:0:0:
299,357,25496,2,0,P|356:363|401:384,1,93.5000028533936,2|8,3:1|0:0,0:0:0:0:
327,266,25759,1,8,0:0:0:0:
186,355,25891,6,0,B|125:317|51:351|97:373|40:421|-68:383|-53:326|34:299|78:345,1,318.75,6|0,1:1|0:0,0:0:0:0:
126,37,26943,6,0,P|136:75|145:121,1,63.7500024318696,2|2,0:0|0:0,0:0:0:0:
128,185,27190,1,10,0:0:0:0:
232,116,27321,2,0,P|224:149|219:192,1,63.7500024318696,2|8,0:0|3:3,0:0:0:0:
319,115,27584,2,0,P|311:151|302:219,1,95.6250036478044,8|0,3:3|0:0,0:0:0:0:
311,221,27847,6,0,B|416:191|391:266|493:258,1,187.000005706787,14|2,3:2|0:0,0:0:0:0:
471,173,28235,1,2,3:2:0:0:
348,300,28367,1,2,0:0:0:0:
341,308,28500,2,0,P|276:328|171:344,1,170,8|0,0:0|3:2,0:0:0:0:
103,156,28899,6,0,P|149:138|203:243,1,187.000005706787,2|10,3:2|0:0,0:0:0:0:
115,249,29300,1,2,3:2:0:0:
47,75,29432,1,2,0:0:0:0:
40,83,29563,2,0,B|18:110|-14:123|-14:123|26:233,1,170,8|0,0:0|3:2,0:0:0:0:
175,343,29965,6,0,B|141:326|104:358|150:395|198:375|202:353|235:332|301:358,1,203.999993774414,14|2,0:0|0:0,0:0:0:0:
393,384,30355,1,2,3:2:0:0:
307,179,30482,2,0,P|302:221|294:262,1,85,10|0,0:0|0:0,0:0:0:0:
400,137,30745,2,0,P|401:179|399:221,1,85,2|0,0:0|3:2,0:0:0:0:
495,356,31008,6,0,B|481:326|456:303|456:303|494:268|491:187,1,187.000005706787,10|8,0:0|0:0,0:0:0:0:
485,90,31402,1,0,3:2:0:0:
485,90,31665,2,0,P|434:95|318:78,1,170,8|0,0:0|3:2,0:0:0:0:
200,24,32060,6,0,B|219:1|219:1|206:72|187:160,1,187.000005706787,6|0,3:2|0:0,0:0:0:0:
121,233,32454,1,2,3:2:0:0:
93,145,32586,1,0,0:0:0:0:
277,292,32717,2,0,B|182:267|203:333|98:329,1,170,10|0,0:0|3:2,0:0:0:0:
370,217,33112,6,0,P|315:211|263:187,1,93.5000028533936,2|0,3:2|0:0,0:0:0:0:
343,131,33375,1,8,0:0:0:0:
350,124,33507,1,2,3:2:0:0:
262,83,33639,1,0,0:0:0:0:
429,32,33770,2,0,B|467:24|492:50|492:50|456:84|468:151,1,170,8|2,0:0|3:2,0:0:0:0:
501,227,34165,5,8,0:0:0:0:
493,238,34296,1,2,3:2:0:0:
403,284,34428,1,8,0:0:0:0:
413,294,34560,2,0,P|428:337|434:379,1,85,2|0,3:2|0:0,0:0:0:0:
318,242,34823,6,0,P|257:263|176:272,1,127.5,10|0,0:0|0:0,0:0:0:0:
180,259,35086,2,0,P|249:251|314:231,1,127.5,8|0,0:0|0:0,0:0:0:0:
406,189,35349,5,2,3:2:0:0:
78,259,35612,2,0,B|39:264|5:302|5:302|26:190|42:70,1,305.999990661621,4|0,3:1|0:0,0:0:0:0:
40,86,36422,6,0,P|109:76|181:51,1,136,6|2,3:2|0:0,0:0:0:0:
139,158,36820,1,2,3:2:0:0:
149,167,36940,2,0,P|218:177|353:228,1,204,10|0,0:0|3:2,0:0:0:0:
473,168,37466,5,2,3:2:0:0:
464,178,37597,2,0,P|453:214|449:258,1,68,10|0,0:0|3:2,0:0:0:0:
343,222,37859,1,2,3:2:0:0:
351,234,37989,1,8,0:0:0:0:
377,367,38252,6,0,P|367:299|350:233,1,136,2|0,3:2|0:0,0:0:0:0:
253,280,38646,1,10,0:0:0:0:
258,295,38778,2,0,P|251:328|242:361,1,68,2|2,3:2|0:0,0:0:0:0:
32,305,39041,6,0,B|101:355|192:337|197:259|107:260|122:300,1,204,10|0,0:0|3:2,0:0:0:0:
101,197,39567,5,2,0:0:0:0:
110,190,39696,2,0,P|151:186|193:201,1,68,10|2,0:0|3:2,0:0:0:0:
194,103,39956,1,2,3:2:0:0:
205,102,40086,2,0,P|241:120|269:157,1,68,10|2,0:0|0:0,0:0:0:0:
345,207,40360,1,8,0:0:0:0:
260,242,40488,1,8,0:0:0:0:
383,123,40617,6,0,P|436:147|529:157,1,136,6|2,3:2|0:0,0:0:0:0:
425,0,41011,1,0,3:2:0:0:
415,11,41143,2,0,P|362:35|211:52,1,204,10|0,0:0|3:2,0:0:0:0:
44,65,41669,5,2,3:2:0:0:
56,57,41801,2,0,P|96:45|132:38,1,68,8|0,0:0|3:2,0:0:0:0:
167,140,42064,1,2,3:2:0:0:
153,131,42195,1,8,0:0:0:0:
22,166,42459,6,0,P|69:147|171:129,1,136,10|0,0:0|0:0,0:0:0:0:
13,179,42853,2,0,P|62:188|158:229,1,136,10|2,0:0|3:2,0:0:0:0:
82,294,43248,1,10,0:0:0:0:
71,303,43380,2,0,P|36:316|2:321,2,68,2|2|2,0:0|3:2|0:0,0:0:0:0:
221,256,43765,5,10,0:0:0:0:
290,323,43899,1,8,0:0:0:0:
302,313,44034,2,0,P|315:279|324:241,1,68,2|2,3:2|3:2,0:0:0:0:
418,384,44303,2,0,P|409:351|397:319,2,68,10|10|8,0:0|0:0|3:3,0:0:0:0:
506,127,44827,6,0,P|467:146|343:162,2,152.999995330811,6|0|2,3:2|3:2|3:2,0:0:0:0:
404,66,45879,2,0,P|302:62|206:28,1,203.999993774414,10|2,0:0|0:0,0:0:0:0:
206,28,46661,5,10,0:0:0:0:
117,0,46792,1,8,0:0:0:0:
14,96,46924,6,0,B|101:75|70:142|168:124,2,152.999995330811,6|0|2,3:2|3:2|3:2,0:0:0:0:
129,215,47976,2,0,B|244:233|213:144|319:165,1,203.999993774414,8|2,0:0|0:0,0:0:0:0:
317,164,48766,1,2,3:2:0:0:
442,245,49029,6,0,P|455:176|480:93,2,152.999995330811,6|0|2,3:2|3:2|3:2,0:0:0:0:
372,359,50081,2,0,P|357:279|314:157,1,203.999993774414,10|2,0:0|0:0,0:0:0:0:
316,163,50871,5,10,0:0:0:0:
228,205,51002,1,8,0:0:0:0:
123,127,51134,6,0,P|74:123|8:216,2,152.999995330811,4|0|2,3:2|3:2|3:2,0:0:0:0:
228,205,52199,1,8,0:0:0:0:
92,279,52462,1,2,3:2:0:0:
248,374,52725,6,0,P|281:351|332:344,1,68,8|8,0:0|0:0,0:0:0:0:
398,355,52984,1,8,3:3:0:0:
483,206,53244,5,12,0:0:0:0:
483,206,53507,2,0,P|438:219|390:226,1,85,2|0,3:2|3:2,0:0:0:0:
337,82,53770,5,10,0:0:0:0:
337,82,54033,2,0,P|294:68|159:45,1,170,2|8,3:2|0:0,0:0:0:0:
171,45,54559,2,0,P|186:87|195:134,1,85,0|0,3:2|0:0,0:0:0:0:
258,254,54822,5,8,0:0:0:0:
169,229,54954,1,0,0:0:0:0:
91,279,55086,2,0,P|49:264|2:255,1,85,2|0,3:2|0:0,0:0:0:0:
163,376,55349,5,10,0:0:0:0:
163,376,55624,2,0,P|213:369|255:353,1,85,2|0,3:2|0:0,0:0:0:0:
348,222,55882,5,10,0:0:0:0:
348,222,56145,2,0,P|402:249|523:265,1,170,2|10,3:2|0:0,0:0:0:0:
509,265,56671,2,0,P|492:228|486:180,1,85,2|0,3:2|3:2,0:0:0:0:
378,70,56934,5,14,0:0:0:0:
281,48,57065,1,0,0:0:0:0:
206,111,57197,2,0,P|158:97|109:91,1,85,2|0,3:2|3:2,0:0:0:0:
0,232,57460,6,0,P|61:210|179:194,1,170,10|0,0:0|3:2,0:0:0:0:
261,203,57855,1,0,0:0:0:0:
143,288,57986,2,0,P|227:298|307:325,1,170,10|0,0:0|3:2,0:0:0:0:
391,368,58373,1,0,3:2:0:0:
367,165,58503,6,0,P|355:211|351:256,1,85,10|0,0:0|0:0,0:0:0:0:
464,308,58766,2,0,P|452:262|448:217,1,85,2|0,3:2|3:2,0:0:0:0:
410,71,59029,6,0,P|363:64|284:98,1,127.5,10|0,0:0|0:0,0:0:0:0:
287,79,59284,2,0,P|344:52|406:57,1,127.5,10|0,0:0|0:0,0:0:0:0:
505,99,59555,5,2,3:2:0:0:
458,174,59818,1,2,3:2:0:0:
351,210,60081,1,2,3:2:0:0:
216,176,60344,1,10,3:2:0:0:
141,0,60619,5,10,3:2:0:0:
304,99,60882,1,10,3:2:0:0:
192,290,61145,1,10,3:2:0:0:
0,159,61408,1,10,3:2:0:0:
80,112,62592,6,0,P|100:103|124:97,1,34,2|0,0:0|0:0,0:0:0:0:
69,106,62724,2,0,P|121:85|224:79,1,152.999995330811,2|0,3:2|0:0,0:0:0:0:
338,172,63250,6,0,P|307:156|275:153,1,63.7500024318696,2|0,0:0|0:0,0:0:0:0:
350,184,63513,1,10,0:0:0:0:
483,21,63645,6,0,P|463:80|441:224,1,187.000005706787,14|0,3:2|0:0,0:0:0:0:
422,341,64040,2,0,P|473:325|542:314,1,93.5000028533936,8|0,0:0|0:0,0:0:0:0:
331,304,64303,1,2,3:2:0:0:
245,265,64434,1,2,3:2:0:0:
134,325,64566,1,10,0:0:0:0:
0,273,64697,6,0,B|-18:139|-18:139|-5:171|31:187,1,187.000005706787,2|0,0:0|0:0,0:0:0:0:
161,239,65092,2,0,B|133:239|116:224|116:224|104:244|78:254,1,93.5000028533936,8|0,0:0|0:0,0:0:0:0:
107,114,65355,1,2,3:2:0:0:
202,167,65484,1,2,3:2:0:0:
326,110,65613,1,10,0:0:0:0:
231,0,65744,6,0,P|218:54|201:168,1,170,2|0,0:0|0:0,0:0:0:0:
490,127,66139,6,0,P|456:130|426:145,1,68,10|0,0:0|0:0,0:0:0:0:
293,195,66402,2,0,P|333:195|369:210,1,80.7499978437424,2|0,3:2|3:2,0:0:0:0:
512,269,66655,2,0,P|465:264|423:282,1,93.5000028533936,10|0,0:0|0:0,0:0:0:0:
259,326,66918,6,0,B|374:308|338:392|463:370,1,203.999993774414,2|10,3:2|0:0,0:0:0:0:
423,282,67312,1,0,0:0:0:0:
293,195,67444,1,2,3:2:0:0:
283,204,67575,2,0,P|234:218|183:226,1,93.5000028533936,2|8,3:2|0:0,0:0:0:0:
44,350,67839,6,0,B|59:401|147:392|155:303|87:244,1,187.000005706787,2|0,0:0|0:0,0:0:0:0:
40,160,68240,2,0,P|31:209|19:240,1,76.4999976654053,10|0,0:0|0:0,0:0:0:0:
207,53,68503,6,0,B|178:52|157:42|157:42|141:58|115:69,1,101.999996887207,2|0,3:2|3:2,0:0:0:0:
133,182,68766,2,0,B|162:183|183:193|183:193|199:177|225:166,1,101.999996887207,10|0,0:0|0:0,0:0:0:0:
301,4,69029,6,0,P|318:74|330:202,1,187.000005706787,2|10,3:2|0:0,0:0:0:0:
330,188,69555,1,2,3:2:0:0:
388,263,69683,1,2,3:2:0:0:
330,357,69812,1,8,0:0:0:0:
255,295,69943,6,0,B|144:296|197:359|74:362,1,187.000005706787,2|0,0:0|0:0,0:0:0:0:
73,265,70338,2,0,P|92:234|100:270,1,93.5000028533936,10|0,0:0|0:0,0:0:0:0:
226,206,70601,2,0,P|207:175|199:211,1,93.5000028533936,2|0,3:2|3:2,0:0:0:0:
107,140,70873,6,0,P|138:108|280:97,1,187.000005706787,10|2,0:0|3:2,0:0:0:0:
433,122,71272,5,8,0:0:0:0:
445,114,71341,1,8,0:0:0:0:
459,110,71411,1,8,0:0:0:0:
489,244,71548,1,10,0:0:0:0:
352,207,71686,1,10,0:0:0:0:
362,219,71811,2,0,P|374:263|385:314,1,93.5000028533936,2|2,3:2|3:2,0:0:0:0:
272,93,72062,6,0,P|265:163|232:300,1,187.000005706787,6|0,3:2|0:0,0:0:0:0:
176,123,72453,2,0,P|168:175|151:230,1,93.5000028533936,8|0,0:0|0:0,0:0:0:0:
67,294,72716,1,2,3:2:0:0:
16,221,72847,1,2,3:2:0:0:
83,127,72979,1,10,0:0:0:0:
55,0,73110,6,0,B|32:7|32:7|114:17|201:38,1,187.000005706787,2|0,0:0|0:0,0:0:0:0:
272,93,73505,2,0,P|300:114|265:103,1,93.5000028533936,8|0,0:0|0:0,0:0:0:0:
449,0,73768,1,2,3:2:0:0:
512,73,73896,1,2,3:2:0:0:
445,176,74024,1,10,0:0:0:0:
382,79,74155,6,0,P|401:146|420:269,1,187.000005706787,2|0,0:0|0:0,0:0:0:0:
387,354,74550,6,0,P|439:362|481:377,1,68,10|0,0:0|0:0,0:0:0:0:
250,287,74817,2,0,P|302:279|347:263,1,80.7499978437424,2|0,3:2|3:2,0:0:0:0:
144,364,75072,2,0,P|196:372|246:390,1,93.5000028533936,10|0,0:0|0:0,0:0:0:0:
46,250,75335,6,0,P|112:238|245:186,1,203.999993774414,2|10,3:2|0:0,0:0:0:0:
239,189,75861,1,2,3:2:0:0:
173,65,76003,2,0,P|138:43|78:42,1,93.5000028533936,2|8,3:2|0:0,0:0:0:0:
139,172,76265,6,0,P|165:120|300:105,1,187.000005706787,2|0,0:0|0:0,0:0:0:0:
428,44,76660,2,0,P|381:35|327:15,1,93.5000028533936,10|0,0:0|0:0,0:0:0:0:
512,126,76923,2,0,P|440:138|324:177,1,187.000005706787,2|10,3:2|0:0,0:0:0:0:
235,222,77318,1,0,0:0:0:0:
282,95,77449,5,10,0:0:0:0:
24,263,77712,1,10,0:0:0:0:
327,352,77975,1,8,3:3:0:0:
320,341,78106,2,0,P|332:297|339:249,1,93.5000028533936,8|0,3:3|3:2,0:0:0:0:
155,150,78367,6,0,B|107:130|107:130|202:113|286:94,1,229.499992996216,10|10,3:2|0:0,0:0:0:0:
281,95,79024,2,0,P|309:137|446:151,1,187.000005706787,6|10,1:1|0:0,0:0:0:0:
435,156,79550,6,0,P|446:228|472:338,1,152.999995330811,2|10,3:2|0:0,0:0:0:0:
271,345,79936,2,0,P|281:303|290:252,1,93.5000028533936,2|8,3:1|0:0,0:0:0:0:
195,134,80206,1,2,3:1:0:0:
281,94,80341,1,8,3:3:0:0:
346,169,80475,1,4,0:3:0:0:
195,229,80610,6,0,B|113:213|130:275|45:262,1,152.999995330811,10|10,3:2|0:0,0:0:0:0:
51,262,81136,2,0,P|71:183|89:74,1,187.000005706787,6|10,1:1|0:0,0:0:0:0:
176,13,81531,5,0,3:2:0:0:
177,22,81596,1,0,3:0:0:0:
182,31,81662,1,10,3:2:0:0:
276,71,81794,1,0,3:2:0:0:
374,29,81925,1,10,0:0:0:0:
300,170,82057,6,0,P|258:154|203:146,1,93.5000028533936,2|0,3:1|3:2,0:0:0:0:
367,241,82320,2,0,P|409:225|464:217,1,93.5000028533936,2|8,3:1|0:0,0:0:0:0:
456,217,82715,6,0,P|435:305|361:336,1,152.999995330811,10|10,3:2|0:0,0:0:0:0:
385,333,83241,2,0,P|305:312|162:290,1,187.000005706787,6|10,1:1|0:0,0:0:0:0:
48,366,83636,5,0,3:0:0:0:
56,372,83702,1,0,3:0:0:0:
64,375,83767,2,0,B|83:347|107:329|107:329|77:225,1,152.999995330811,10|10,3:2|0:0,0:0:0:0:
44,80,84162,2,0,P|34:132|18:177,1,93.5000028533936,2|8,3:1|0:0,0:0:0:0:
143,10,84425,2,0,P|153:62|169:107,1,93.5000028533936,2|8,3:1|0:0,0:0:0:0:
234,186,84688,1,8,0:0:0:0:
303,22,84820,6,0,B|330:48|370:46|370:46|304:83|238:40|274:24|207:-21|136:13,1,318.75,6|0,1:1|0:0,0:0:0:0:
138,220,85881,5,8,0:0:0:0:
212,173,86009,1,8,0:0:0:0:
295,229,86137,1,8,0:0:0:0:
373,155,86265,5,0,3:2:0:0:
126,229,86522,1,10,3:2:0:0:
138,220,86929,5,8,0:0:0:0:
212,173,87058,1,8,0:0:0:0:
295,229,87187,1,8,0:0:0:0:
415,237,87316,5,0,3:2:0:0:
84,130,87592,1,10,3:2:0:0:
380,49,87999,6,0,B|412:30|434:8|434:8|416:98|405:157,1,204,6|0,3:1|0:0,0:0:0:0:
415,237,88514,2,0,P|381:230|350:217,1,68,10|0,0:0|0:0,0:0:0:0:
297,284,88771,6,0,P|343:268|504:244,1,204,6|0,3:1|0:0,0:0:0:0:
