osu file format v14

[General]
AudioFilename: audio.mp3
AudioLeadIn: 0
PreviewTime: 63184
Countdown: 0
SampleSet: Soft
StackLeniency: 0.3
Mode: 0
LetterboxInBreaks: 0
WidescreenStoryboard: 0

[Editor]
DistanceSpacing: 0.9
BeatDivisor: 4
GridSize: 8
TimelineZoom: 2.899999

[Metadata]
Title:BAKU (TV Size)
TitleUnicode:BAKU (TV Size)
Artist:Ikimonogakari
ArtistUnicode:いきものがかり
Creator:Smoke
Version:Karma
Source:BORUTO-ボルト- NARUTO NEXT GENERATIONS
Tags:anime pop jpop j-pop rock jrock j-rock japanese uzumaki boruto Kuki1537 Nymphe Kiyoshi Guarden 吉岡聖恵 Kiyoe Yoshioka 山下穂尊 Hotaka Yamashita 水野良樹 Yoshiki Mizuno op opening 8
BeatmapID:3035152
BeatmapSetID:1479509

[Difficulty]
HPDrainRate:5.3
CircleSize:3.8
OverallDifficulty:8.7
ApproachRate:9.3
SliderMultiplier:1.8
SliderTickRate:1

[Events]
//Background and Video events
0,0,"boruto wallpaper.png",0,0
Video,460,"video.mp4"
//Break Periods
//Storyboard Layer 0 (Background)
//Storyboard Layer 1 (Fail)
//Storyboard Layer 2 (Pass)
//Storyboard Layer 3 (Foreground)
//Storyboard Layer 4 (Overlay)
//Storyboard Sound Samples

[TimingPoints]
528,243.90243902439,4,2,1,70,1,0
528,-100,4,2,1,70,0,0
649,232.558139534884,4,2,1,70,1,0
649,-100,4,2,1,70,0,0
881,258.620689655172,4,2,1,70,1,0
881,-100,4,2,1,70,0,0
1273,209.059233449477,4,2,1,70,1,0
1273,-100,4,2,1,70,0,0
1691,240,4,2,1,75,1,0
1691,-100,4,2,1,75,0,0
2062,240,4,2,1,75,1,0
2062,-100,4,2,1,75,0,0
2302,218.181818181818,4,2,1,75,1,0
2302,-500,4,2,1,75,0,0
2683,-500,4,2,1,5,0,0
2738,270.27027027027,4,2,1,75,1,0
2738,-100,4,2,1,75,0,0
3210,-100,4,2,1,5,0,0
3278,238.095238095238,4,2,1,75,1,0
3397,245.901639344262,4,2,1,80,1,0
3397,-83.3333333333333,4,2,1,80,0,0
3643,256.410256410256,4,2,1,80,1,0
3643,-83.3333333333333,4,2,1,80,0,0
4284,265.486725663717,4,2,1,65,1,0
4284,-166.666666666667,4,2,1,65,0,0
4549,256.410256410256,4,2,1,65,1,0
4549,-90.9090909090909,4,2,1,65,0,0
4677,269.058295964126,4,2,1,80,1,0
4677,-90.9090909090909,4,2,1,80,0,0
4812,267.857142857143,4,2,1,80,1,0
4812,-90.9090909090909,4,2,1,80,0,0
5080,263.157894736842,4,2,1,80,1,0
5080,-90.9090909090909,4,2,1,80,0,0
5275,-90.9090909090909,4,2,1,5,0,0
5343,270.27027027027,4,2,1,80,1,0
5343,-90.9090909090909,4,2,1,80,0,0
5879,263.157894736842,4,2,1,80,1,0
5879,-90.9090909090909,4,2,1,80,0,0
6339,-90.9090909090909,4,2,1,5,0,0
6409,259.74025974026,4,2,1,80,1,0
6409,-90.9090909090909,4,2,1,80,0,0
7123,-90.9090909090909,4,2,1,5,0,0
7188,265.486725663717,4,2,1,80,1,0
7188,-125,4,2,1,80,0,0
7386,-125,4,2,1,5,0,0
7453,264.31718061674,4,2,1,80,1,0
7453,-111.111111111111,4,2,1,80,0,0
7651,-111.111111111111,4,2,1,5,0,0
7717,-100,4,2,1,80,0,0
7915,-100,4,2,1,5,0,0
7981,263.157894736842,4,2,1,80,1,0
7981,-90.9090909090909,4,2,1,80,0,0
8178,-90.9090909090909,4,2,1,5,0,0
8244,-90.9090909090909,4,2,1,80,0,0
9231,-90.9090909090909,4,2,1,5,0,0
9297,-90.9090909090909,4,2,1,80,0,0
9757,-90.9090909090909,4,2,1,5,0,0
9823,-90.9090909090909,4,2,1,80,0,0
10283,-90.9090909090909,4,2,1,5,0,0
10349,267.857142857143,4,2,1,80,1,0
10349,-90.9090909090909,4,2,1,80,0,0
10616,270.27027027027,4,2,1,80,1,0
10616,-90.9090909090909,4,2,1,80,0,0
11148,263.157894736842,4,2,1,80,1,0
11148,-125,4,2,1,80,0,0
11345,-125,4,2,1,5,0,0
11411,-111.111111111111,4,2,1,80,0,0
11608,-111.111111111111,4,2,1,5,0,0
11674,-100,4,2,1,80,0,0
11871,-100,4,2,1,5,0,0
11921,266.666666666667,4,2,1,80,1,0
11921,-90.9090909090909,4,2,1,80,0,0
12121,-90.9090909090909,4,2,1,5,0,0
12187,-90.9090909090909,4,2,1,80,0,0
12321,272.727272727273,4,2,1,80,1,0
12321,-90.9090909090909,4,2,1,80,0,0
12457,265.486725663717,4,2,1,80,1,0
12457,-90.9090909090909,4,2,1,80,0,0
12712,259.74025974026,4,2,1,80,1,0
12712,-90.9090909090909,4,2,1,80,0,0
13231,263.157894736842,4,2,1,80,1,0
13231,-90.9090909090909,4,2,1,80,0,0
13691,-90.9090909090909,4,2,1,5,0,0
13757,-90.9090909090909,4,2,1,80,0,0
14744,-90.9090909090909,4,2,1,5,0,0
14810,-90.9090909090909,4,2,1,80,0,0
15351,263.157894736842,4,2,1,80,1,0
15351,-90.9090909090909,4,2,1,80,0,0
15549,-125,4,2,1,5,0,0
15614,258.620689655172,4,2,1,80,1,0
15614,-125,4,2,1,80,0,0
15807,-125,4,2,1,5,0,0
15872,264.31718061674,4,2,1,80,1,0
15872,-111.111111111111,4,2,1,80,0,0
16070,-111.111111111111,4,2,1,5,0,0
16136,-100,4,2,1,80,0,0
16335,-100,4,2,1,5,0,0
16400,258.620689655172,4,2,1,80,1,0
16400,-90.9090909090909,4,2,1,80,0,0
16593,-90.9090909090909,4,2,1,5,0,0
16658,-90.9090909090909,4,2,1,80,0,0
16917,291.26213592233,4,2,1,80,1,0
16917,-90.9090909090909,4,2,1,80,0,0
17062,241.935483870968,4,2,1,80,1,0
17062,-90.9090909090909,4,2,1,80,0,0
17182,270.27027027027,4,2,1,80,1,0
17182,-90.9090909090909,4,2,1,80,0,0
17452,263.157894736842,4,2,1,80,1,0
17452,-90.9090909090909,4,2,1,80,0,0
17649,-90.9090909090909,4,2,1,5,0,0
17715,-90.9090909090909,4,2,1,80,0,0
18175,-83.3333333333333,4,2,1,5,0,0
18241,-83.3333333333333,4,2,1,80,0,0
19030,-111.111111111111,4,2,1,80,0,0
19425,-90.9090909090909,4,2,1,80,0,0
19820,-166.666666666667,4,2,1,80,0,0
20017,-166.666666666667,4,2,1,5,0,0
20083,-66.6666666666667,4,2,1,80,0,0
20280,-66.6666666666667,4,2,1,5,0,0
20346,-90.9090909090909,4,2,1,80,0,0
21004,-66.6666666666667,4,2,1,80,0,0
21662,283.018867924528,4,2,1,80,1,0
21662,-90.9090909090909,4,2,1,80,0,0
21945,263.157894736842,4,2,1,80,1,0
21945,-166.666666666667,4,2,1,80,0,0
22142,-166.666666666667,4,2,1,5,0,0
22208,-66.6666666666667,4,2,1,80,0,0
22405,-66.6666666666667,4,2,1,5,0,0
22471,269.058295964126,4,2,1,80,1,0
22471,-90.9090909090909,4,2,1,80,0,0
22729,260.869565217391,4,2,1,80,1,0
22729,-90.9090909090909,4,2,1,80,0,0
23120,263.157894736842,4,2,1,80,1,0
23120,-66.6666666666667,4,2,1,80,0,0
23777,265.486725663717,4,2,1,80,1,0
23777,-90.9090909090909,4,2,1,80,0,0
24043,269.058295964126,4,2,1,80,1,0
24043,-166.666666666667,4,2,1,80,0,0
24244,-166.666666666667,4,2,1,5,0,0
24312,250,4,2,1,80,1,0
24312,-66.6666666666667,4,2,1,80,0,0
24499,-66.6666666666667,4,2,1,5,0,0
24562,267.857142857143,4,2,1,80,1,0
24562,-90.9090909090909,4,2,1,80,0,0
25231,-66.6666666666667,4,2,1,80,0,0
25365,263.157894736842,4,2,1,80,1,0
25365,-66.6666666666667,4,2,1,80,0,0
25562,-66.6666666666667,4,2,1,5,0,0
25628,-66.6666666666667,4,2,1,80,0,0
25891,263.157894736842,4,2,1,80,1,0
25891,-71.4285714285714,4,2,1,80,0,0
26285,-71.4285714285714,4,2,1,5,0,0
26943,-125,4,2,1,70,0,0
27075,230.769230769231,4,2,1,70,1,0
27075,-125,4,2,1,70,0,0
27190,263.157894736842,4,2,1,70,1,0
27190,-100,4,2,1,70,0,0
27782,-100,4,2,1,5,0,0
27847,275.229357798165,4,2,1,70,1,0
27847,-105.263157894737,4,2,1,70,0,0
28235,265.486725663717,4,2,1,70,1,0
28235,-105.263157894737,4,2,1,70,0,0
28899,269.058295964126,4,2,1,70,1,0
28899,-105.263157894737,4,2,1,70,0,0
29169,263.157894736842,4,2,1,70,1,0
29169,-105.263157894737,4,2,1,70,0,0
29695,270.27027027027,4,2,1,70,1,0
29695,-105.263157894737,4,2,1,70,0,0
29965,263.157894736842,4,2,1,70,1,0
29965,-105.263157894737,4,2,1,70,0,0
30228,254.237288135593,4,2,1,70,1,0
30228,-105.263157894737,4,2,1,70,0,0
30482,263.157894736842,4,2,1,70,1,0
30482,-95.2380952380954,4,2,1,70,0,0
31139,263.157894736842,4,2,1,70,1,0
31204,-105.263157894737,4,2,1,5,0,0
31270,-105.263157894737,4,2,1,70,0,0
31862,-105.263157894737,4,2,1,5,0,0
31928,-105.263157894737,4,2,1,70,0,0
33310,-105.263157894737,4,2,1,5,0,0
33376,-105.263157894737,4,2,1,70,0,0
34823,-100,4,2,1,70,0,0
35020,-95.2380952380954,4,2,1,5,0,0
35086,-95.2380952380954,4,2,1,70,0,0
35283,-95.2380952380954,4,2,1,5,0,0
35349,-86.9565217391304,4,2,1,70,0,0
35612,270.27027027027,4,2,1,70,1,0
35612,-86.9565217391304,4,2,1,70,0,0
36422,265.486725663717,4,2,1,65,1,0
36422,-111.111111111111,4,2,1,65,0,0
36621,-111.111111111111,4,2,1,5,0,0
36687,-111.111111111111,4,2,1,65,0,0
36940,263.157894736842,4,2,1,65,1,0
36940,-111.111111111111,4,2,1,65,0,0
37729,260.869565217391,4,2,1,65,1,0
37729,-111.111111111111,4,2,1,65,0,0
37989,263.157894736842,4,2,1,65,1,0
37989,-111.111111111111,4,2,1,65,0,0
39567,259.74025974026,4,2,1,65,1,0
39567,-111.111111111111,4,2,1,65,0,0
40360,257.510729613734,4,2,1,65,1,0
40360,-111.111111111111,4,2,1,65,0,0
40617,263.157894736842,4,2,1,65,1,0
40617,-111.111111111111,4,2,1,65,0,0
43765,269.058295964126,4,2,1,65,1,0
43765,-111.111111111111,4,2,1,65,0,0
44303,259.74025974026,4,2,1,65,1,0
44303,-111.111111111111,4,2,1,65,0,0
44827,263.157894736842,4,2,1,55,1,0
44827,-142.857142857143,4,2,1,55,0,0
46405,256.410256410256,4,2,1,55,1,0
46405,-142.857142857143,4,2,1,55,0,0
46661,263.157894736842,4,2,1,55,1,0
46661,-142.857142857143,4,2,1,55,0,0
46924,263.157894736842,4,2,1,55,1,0
46924,-142.857142857143,4,2,1,55,0,0
48963,-142.857142857143,4,2,1,5,0,0
49029,-142.857142857143,4,2,1,55,0,0
51924,275.229357798165,4,2,1,55,1,0
51924,-142.857142857143,4,2,1,55,0,0
52199,263.157894736842,4,2,1,55,1,0
52199,-142.857142857143,4,2,1,55,0,0
52725,259.74025974026,4,2,1,55,1,0
52725,-142.857142857143,4,2,1,55,0,0
53244,263.157894736842,4,2,1,60,1,0
53244,-111.111111111111,4,2,1,60,0,0
53704,-111.111111111111,4,2,1,5,0,0
53770,-111.111111111111,4,2,1,60,0,0
55283,-111.111111111111,4,2,1,5,0,0
55349,275.229357798165,4,2,1,60,1,0
55349,-111.111111111111,4,2,1,60,0,0
55555,-111.111111111111,4,2,1,5,0,0
55624,258.620689655172,4,2,1,60,1,0
55624,-111.111111111111,4,2,1,60,0,0
55817,-111.111111111111,4,2,1,5,0,0
55882,263.157894736842,4,2,1,60,1,0
55882,-111.111111111111,4,2,1,60,0,0
56079,-111.111111111111,4,2,1,5,0,0
56145,-111.111111111111,4,2,1,60,0,0
56408,263.157894736842,4,2,1,60,1,0
56408,-111.111111111111,4,2,1,60,0,0
56605,-111.111111111111,4,2,1,5,0,0
56671,-111.111111111111,4,2,1,60,0,0
57131,-111.111111111111,4,2,1,5,0,0
57197,-111.111111111111,4,2,1,60,0,0
57460,-111.111111111111,4,2,1,65,0,0
57658,-111.111111111111,4,2,1,5,0,0
57724,-111.111111111111,4,2,1,65,0,0
57986,258.620689655172,4,2,1,65,1,0
57986,-105.263157894737,4,2,1,65,0,0
58179,-105.263157894737,4,2,1,5,0,0
58245,-105.263157894737,4,2,1,65,0,0
58503,263.157894736842,4,2,1,65,1,0
58503,-100,4,2,1,65,0,0
58700,-99.9999999999999,4,2,1,5,0,0
58766,-99.9999999999999,4,2,1,65,0,0
59029,255.31914893617,4,2,1,65,1,0
59029,-95.2380952380954,4,2,1,65,0,0
59220,-95.2380952380952,4,2,1,5,0,0
59284,271.493212669683,4,2,1,65,1,0
59284,-95.2380952380954,4,2,1,65,0,0
59555,263.157894736842,4,2,1,45,1,0
59555,-166.666666666667,4,2,1,45,0,0
59752,-166.666666666667,4,2,1,5,0,0
59818,-153.846153846154,4,2,1,50,0,0
60015,-166.666666666667,4,2,1,5,0,0
60081,-142.857142857143,4,2,1,55,0,0
60278,-166.666666666667,4,2,1,5,0,0
60344,275.229357798165,4,2,1,60,1,0
60344,-125,4,2,1,60,0,0
60550,-166.666666666667,4,2,1,5,0,0
60619,263.157894736842,4,2,1,65,1,0
60619,-111.111111111111,4,2,1,65,0,0
60816,-166.666666666667,4,2,1,65,0,0
60882,-100,4,2,1,70,0,0
61079,-166.666666666667,4,2,1,70,0,0
61145,-90.9090909090909,4,2,1,75,0,0
61342,-166.666666666667,4,2,1,75,0,0
61408,-83.3333333333333,4,2,1,80,0,0
61605,-166.666666666667,4,2,1,80,0,0
61671,-125,4,2,1,55,0,0
62724,-125,4,2,1,65,0,0
63184,-125,4,2,1,5,0,0
63250,-166.666666666667,4,2,1,65,0,0
63447,-166.666666666667,4,2,1,5,0,0
63513,-166.666666666667,4,2,1,65,0,0
63645,-83.3333333333333,4,2,1,80,0,0
64237,-83.3333333333333,4,2,1,5,0,0
64303,-83.3333333333333,4,2,1,80,0,0
65290,-83.3333333333333,4,2,1,5,0,0
65355,258.620689655172,4,2,1,80,1,0
65356,-83.3333333333333,4,2,1,80,0,0
65613,263.157894736842,4,2,1,80,1,0
65613,-83.3333333333333,4,2,1,80,0,0
65876,263.157894736842,4,2,1,80,1,0
65876,-83.3333333333333,4,2,1,80,0,0
66073,-83.3333333333333,4,2,1,5,0,0
66139,-125,4,2,1,80,0,0
66336,-125,4,2,1,5,0,0
66402,253.164556962025,4,2,1,80,1,0
66402,-105.263157894737,4,2,1,80,0,0
66591,-105.263157894737,4,2,1,5,0,0
66655,263.157894736842,4,2,1,80,1,0
66655,-90.9090909090908,4,2,1,80,0,0
66852,-90.9090909090909,4,2,1,5,0,0
66918,263.157894736842,4,2,1,80,1,0
66918,-76.9230769230769,4,2,1,80,0,0
67115,-76.9230769230769,4,2,1,5,0,0
67181,-83.3333333333333,4,2,1,80,0,0
67970,270.27027027027,4,2,1,80,1,0
67970,-83.3333333333333,4,2,1,80,0,0
68172,-83.3333333333333,4,2,1,5,0,0
68240,263.157894736842,4,2,1,80,1,0
68240,-83.3333333333333,4,2,1,80,0,0
68700,-83.3333333333333,4,2,1,5,0,0
68766,-83.3333333333333,4,2,1,80,0,0
69029,263.157894736842,4,2,1,80,1,0
69029,-83.3333333333333,4,2,1,80,0,0
69226,-83.3333333333333,4,2,1,5,0,0
69292,-83.3333333333333,4,2,1,80,0,0
69555,257.510729613734,4,2,1,80,1,0
69555,-83.3333333333333,4,2,1,80,0,0
69812,263.157894736842,4,2,1,80,1,0
69812,-83.3333333333333,4,2,1,80,0,0
70075,-100,4,2,1,80,0,0
70272,-100,4,2,1,5,0,0
70338,-90.9090909090909,4,2,1,80,0,0
70535,-90.9090909090909,4,2,1,5,0,0
70601,272.727272727273,4,2,1,80,1,0
70601,-83.3333333333333,4,2,1,80,0,0
70805,-83.3333333333333,4,2,1,5,0,0
70873,266.666666666667,4,2,1,80,1,0
70873,-76.9230769230769,4,2,1,80,0,0
71073,-76.9230769230769,4,2,1,5,0,0
71139,-76.9230769230769,4,2,1,80,0,0
71272,279.06976744186,4,2,1,80,1,0
71272,-76.9230769230769,4,2,1,80,0,0
71411,275.229357798165,4,2,1,80,1,0
71411,-76.9230769230769,4,2,1,80,0,0
71686,251.046025104603,4,2,1,80,1,0
71686,-76.9230769230769,4,2,1,80,0,0
72062,260.869565217391,4,2,1,80,1,0
72062,-83.3333333333333,4,2,1,80,0,0
72193,260.869565217391,4,2,1,80,1,0
72193,-83.3333333333333,4,2,1,80,0,0
72453,263.157894736842,4,2,1,80,1,0
72453,-83.3333333333333,4,2,1,80,0,0
72650,-83.3333333333333,4,2,1,5,0,0
72716,263.157894736842,4,2,1,80,1,0
72716,-83.3333333333333,4,2,1,80,0,0
73702,-83.3333333333333,4,2,1,5,0,0
73768,256.410256410256,4,2,1,80,1,0
73768,-83.3333333333333,4,2,1,80,0,0
74024,263.157894736842,4,2,1,80,1,0
74024,-83.3333333333333,4,2,1,80,0,0
74484,-83.3333333333333,4,2,1,5,0,0
74550,267.857142857143,4,2,1,80,1,0
74550,-125,4,2,1,80,0,0
74750,-125,4,2,1,5,0,0
74817,255.31914893617,4,2,1,80,1,0
74817,-105.263157894737,4,2,1,80,0,0
75008,-105.263157894737,4,2,1,5,0,0
75072,263.157894736842,4,2,1,80,1,0
75072,-90.9090909090909,4,2,1,80,0,0
75269,-90.9090909090909,4,2,1,5,0,0
75335,-76.9230769230769,4,2,1,80,0,0
75532,-76.9230769230769,4,2,1,5,0,0
75598,-83.3333333333333,4,2,1,80,0,0
75861,285.714285714286,4,2,1,80,1,0
75861,-83.3333333333333,4,2,1,80,0,0
76003,262.008733624454,4,2,1,80,1,0
76003,-83.3333333333333,4,2,1,80,0,0
76134,263.157894736842,4,2,1,80,1,0
76134,-83.3333333333333,4,2,1,80,0,0
76397,263.157894736842,4,2,1,80,1,0
76397,-83.3333333333333,4,2,1,80,0,0
76594,-83.3333333333333,4,2,1,5,0,0
76660,-83.3333333333333,4,2,1,80,0,0
76923,-76.9230769230769,4,2,1,80,0,0
77120,-76.9230769230769,4,2,1,5,0,0
77186,-76.9230769230769,4,2,1,80,0,0
77976,260.869565217391,4,2,1,80,1,0
77976,-90.9090909090909,4,2,1,80,0,0
78367,263.157894736842,4,2,1,80,1,0
78367,-90.9090909090909,4,2,1,80,0,0
78498,263.157894736842,4,2,1,80,1,0
78498,-90.9090909090909,4,2,1,80,0,0
78761,-166.666666666667,4,2,1,80,0,0
78958,-166.666666666667,4,2,1,5,0,0
79024,-62.5,4,2,1,80,0,0
79221,-62.5,4,2,1,5,0,0
79287,-62.5,4,2,1,80,0,0
79550,250,4,2,1,80,1,0
79550,-90.9090909090909,4,2,1,80,0,0
79800,272.727272727273,4,2,1,80,1,0
79800,-90.9090909090909,4,2,1,80,0,0
79936,-62.5,4,2,1,80,0,0
80072,269.058295964126,4,2,1,80,1,0
80072,-62.5,4,2,1,80,0,0
80610,263.157894736842,4,2,1,80,1,0
80610,-90.9090909090909,4,2,1,80,0,0
80873,-166.666666666667,4,2,1,80,0,0
81070,-166.666666666667,4,2,1,5,0,0
81136,-62.5,4,2,1,80,0,0
81333,-62.5,4,2,1,5,0,0
81399,-90.9090909090909,4,2,1,80,0,0
82057,-62.5,4,2,1,80,0,0
82715,-90.9090909090909,4,2,1,80,0,0
82978,-166.666666666667,4,2,1,80,0,0
83175,-166.666666666667,4,2,1,5,0,0
83241,-62.5,4,2,1,80,0,0
83438,-62.5,4,2,1,5,0,0
83504,-90.9090909090909,4,2,1,80,0,0
84162,-62.5,4,2,1,80,0,0
84491,-62.5,4,2,1,5,0,0
84557,-62.5,4,2,1,80,0,0
85215,-62.5,4,2,1,5,0,0
85881,256.410256410256,4,2,1,70,1,0
85881,-71.4285714285714,4,2,1,70,0,0
86522,271.493212669683,4,2,1,70,1,0
86522,-71.4285714285714,4,2,1,70,0,0
86929,258.620689655172,4,2,1,75,1,0
86929,-71.4285714285714,4,2,1,75,0,0
87316,275.229357798165,4,2,1,75,1,0
87316,-71.4285714285714,4,2,1,75,0,0
87592,271.493212669683,4,2,1,75,1,0
87592,-111.111111111111,4,2,1,75,0,0
87999,257.510729613734,4,2,1,80,1,0
87999,-71.4285714285714,4,2,1,80,0,0
89157,-71.4285714285714,4,2,1,5,0,0

[Colours]
Combo1 : 244,217,21
Combo2 : 232,45,82
Combo3 : 40,132,232

[HitObjects]
66,365,528,5,8,3:3:0:0:
75,363,588,1,8,3:3:0:0:
78,352,649,1,8,0:0:0:0:
35,273,765,1,8,0:0:0:0:
103,170,881,1,8,0:0:0:0:
29,54,1010,1,0,3:2:0:0:
36,47,1273,1,10,3:2:0:0:
418,355,1691,5,8,0:0:0:0:
466,266,1811,1,8,0:0:0:0:
390,151,1931,1,8,0:0:0:0:
472,22,2062,1,0,3:2:0:0:
256,182,2302,6,0,P|271:163|270:119,1,63,14|0,3:2|0:0,0:0:0:0:
80,61,2738,6,0,B|148:111|228:65|182:46|278:-11|342:64|342:64|352:51|372:49,1,315,2|0,3:2|0:0,0:0:0:0:
363,50,3278,1,0,3:2:0:0:
182,306,3397,6,0,P|162:256|120:224,1,107.999996704102,10|0,0:0|3:2,0:0:0:0:
510,179,3643,6,0,P|442:166|297:391,1,377.999988464356,10|0,0:0|0:0,0:0:0:0:
477,279,4284,6,0,P|421:277|390:309,1,80.9999975280763,2|0,0:0|0:0,0:0:0:0:
402,290,4549,1,10,0:0:0:0:
122,139,4677,6,0,B|191:128|233:177|189:180|228:232|318:219,1,198.000006042481,14|0,3:2|0:0,0:0:0:0:
472,43,5080,2,0,P|411:34|389:107,1,148.50000453186,8|0,0:0|0:0,0:0:0:0:
472,135,5343,1,2,3:2:0:0:
399,214,5478,1,2,3:2:0:0:
505,371,5613,1,10,0:0:0:0:
406,329,5748,6,0,P|336:350|211:378,1,192,2|0,0:0|0:0,0:0:0:0:
48,181,6142,2,0,B|87:176|98:212|98:212|65:245|81:289,1,148.50000453186,8|0,0:0|0:0,0:0:0:0:
18,349,6409,1,2,3:2:0:0:
164,272,6538,1,2,3:2:0:0:
10,94,6668,1,10,0:0:0:0:
88,36,6798,6,0,P|207:64|360:95,1,247.500007553101,2|0,0:0|0:0,0:0:0:0:
329,89,7188,2,0,P|292:142|307:197,1,108,10|0,0:0|0:0,0:0:0:0:
470,217,7453,2,0,B|437:225|415:204|415:204|407:235|369:247,1,121.499996292114,2|0,3:2|0:0,0:0:0:0:
300,377,7717,2,0,B|319:351|306:312|306:312|268:301|257:258,1,135,10|0,0:0|0:0,0:0:0:0:
80,311,7981,6,0,B|103:257|103:257|93:227|93:227|124:149,1,148.50000453186,2|0,3:2|0:0,0:0:0:0:
60,98,8244,2,0,B|85:90|89:62|89:62|104:86|149:83,1,99.0000030212403,10|0,0:0|0:0,0:0:0:0:
314,0,8507,1,2,3:2:0:0:
377,66,8638,2,0,P|430:75|494:91,1,99.0000030212403,2|8,3:2|0:0,0:0:0:0:
512,169,8902,1,2,0:0:0:0:
337,336,9033,6,0,B|290:338|260:309|289:302|261:271|190:279,1,148.50000453186,0|0,3:2|0:0,0:0:0:0:
352,342,9296,2,0,P|378:308|354:233,1,99.0000030212403,10|0,0:0|0:0,0:0:0:0:
204,118,9559,2,0,P|160:161|68:115,1,148.50000453186,2|0,3:2|0:0,0:0:0:0:
201,103,9823,2,0,P|249:114|298:123,1,99.0000030212403,10|0,0:0|0:0,0:0:0:0:
462,24,10086,6,0,B|468:49|448:74|448:74|501:94|501:171,1,148.50000453186,2|0,3:2|0:0,0:0:0:0:
454,10,10349,2,0,P|395:4|354:46,1,99.0000030212403,10|0,0:0|0:0,0:0:0:0:
512,246,10616,1,2,3:2:0:0:
438,301,10751,2,0,P|394:289|341:278,1,99.0000030212403,2|8,3:2|0:0,0:0:0:0:
269,335,11021,1,2,0:0:0:0:
60,247,11148,6,0,P|116:247|162:195,1,108,0|0,3:2|0:0,0:0:0:0:
136,70,11411,2,0,B|110:70|95:96|95:96|110:129|83:161,1,121.499996292114,10|0,0:0|0:0,0:0:0:0:
256,240,11674,2,0,P|236:177|217:108,1,135,2|0,3:2|0:0,0:0:0:0:
334,20,11921,2,0,B|360:27|364:64|364:64|415:44|455:78,1,148.50000453186,10|0,0:0|0:0,0:0:0:0:
500,143,12187,5,2,3:2:0:0:
381,287,12321,1,8,0:0:0:0:
374,275,12389,1,8,0:0:0:0:
374,261,12457,1,8,0:0:0:0:
512,361,12589,1,10,0:0:0:0:
465,290,12712,1,10,0:0:0:0:
322,352,12841,1,2,3:2:0:0:
247,311,12971,1,2,3:2:0:0:
25,378,13101,6,0,B|86:376|109:325|74:320|101:272|164:269,1,200,6|0,3:2|0:0,0:0:0:0:
0,81,13494,2,0,B|-2:59|-20:55|-20:55|31:66|94:78,1,148.50000453186,8|0,0:0|0:0,0:0:0:0:
142,146,13757,1,2,3:2:0:0:
240,82,13888,1,2,3:2:0:0:
454,194,14020,1,10,0:0:0:0:
371,244,14152,6,0,P|345:306|442:360,1,198.000006042481,2|0,0:0|0:0,0:0:0:0:
494,105,14546,2,0,B|448:110|432:76|432:76|428:115|376:125,1,148.50000453186,8|0,0:0|0:0,0:0:0:0:
328,53,14809,1,2,3:2:0:0:
229,128,14941,1,2,3:2:0:0:
327,317,15073,1,10,0:0:0:0:
249,372,15204,6,0,B|188:370|158:324|200:316|160:260|106:266|106:266|139:283|137:325,1,259.875007930756,2|0,0:0|0:0,0:0:0:0:
137,319,15614,2,0,P|95:347|31:333,1,108,10|0,0:0|0:0,0:0:0:0:
175,236,15872,2,0,B|196:239|216:266|216:266|248:236|295:254,1,121.499996292114,2|0,3:2|0:0,0:0:0:0:
311,70,16136,2,0,P|255:95|241:185,1,135,10|0,0:0|0:0,0:0:0:0:
364,287,16400,6,0,B|381:283|400:299|400:299|417:232|348:194,1,148.50000453186,2|0,3:2|0:0,0:0:0:0:
393,119,16658,2,0,B|437:100|437:100|474:134,1,99.0000030212403,10|0,0:0|0:0,0:0:0:0:
236,14,16917,1,2,3:2:0:0:
166,75,17062,2,0,P|116:59|61:46,1,99.0000030212403,2|8,3:2|0:0,0:0:0:0:
0,108,17317,1,2,0:0:0:0:
156,281,17452,6,0,B|149:300|131:307|131:307|192:292|259:282,1,148.50000453186,0|0,3:2|0:0,0:0:0:0:
147,271,17715,2,0,P|94:262|35:250,1,99.0000030212403,10|0,0:0|0:0,0:0:0:0:
239,90,17978,2,0,B|276:107|283:134|283:134|313:113|347:111|347:111|332:102|327:90,1,148.50000453186,2|0,3:2|0:0,0:0:0:0:
231,77,18241,2,0,P|176:70|124:114,1,107.999996704102,10|0,0:0|0:0,0:0:0:0:
154,377,18504,5,10,0:0:0:0:
272,171,18636,1,0,3:2:0:0:
270,351,18767,5,10,0:0:0:0:
166,219,18899,1,0,3:2:0:0:
222,287,19030,5,8,3:3:0:0:
222,287,19162,2,0,P|241:321|237:361,1,80.9999975280763,8|0,3:3|3:2,0:0:0:0:
488,236,19425,6,0,P|468:159|444:41,1,198.000006042481,10|0,3:2|0:0,0:0:0:0:
240,176,19820,6,0,P|273:155|323:155,1,80.9999975280763,10|0,0:0|0:0,0:0:0:0:
84,74,20083,6,0,B|135:73|176:133|130:136|171:200|257:186,1,202.500007724762,6|0,1:1|0:0,0:0:0:0:
293,258,20346,1,10,0:0:0:0:
104,381,20478,5,0,3:2:0:0:
101,371,20544,1,0,3:2:0:0:
99,361,20609,2,0,P|112:313|125:251,1,99.0000030212403,2|0,3:2|0:0,0:0:0:0:
20,150,20873,1,10,0:0:0:0:
226,28,21004,6,0,B|264:41|273:72|273:72|295:49|350:60,1,135.000005149842,2|8,3:1|0:0,0:0:0:0:
502,171,21267,2,0,B|461:168|448:210|448:210|384:155|320:198|296:227|304:290,1,270.000010299683,2|0,3:1|3:2,0:0:0:0:
399,380,21596,5,8,0:0:0:0:
405,370,21662,2,0,P|396:321|385:246,1,99.0000030212403,10|0,3:2|0:0,0:0:0:0:
288,107,21945,6,0,P|249:89|198:101,1,80.9999975280763,10|0,0:0|0:0,0:0:0:0:
458,45,22208,6,0,B|424:67|384:44|384:44|366:120|290:117,1,202.500007724762,6|0,1:1|0:0,0:0:0:0:
238,182,22471,1,10,0:0:0:0:
364,322,22605,1,0,3:2:0:0:
252,384,22729,2,0,P|265:338|278:282,1,99.0000030212403,10|0,3:2|3:2,0:0:0:0:
427,191,22989,1,10,0:0:0:0:
292,23,23120,6,0,B|269:7|227:11|227:11|219:49|153:56,1,135.000005149842,2|0,3:1|3:2,0:0:0:0:
19,177,23383,2,0,B|51:147|89:166|89:166|83:214|140:260|192:209|192:209|164:219|138:212,1,270.000010299683,2|0,3:1|0:0,0:0:0:0:
240,378,23777,6,0,P|199:351|143:353,1,99.0000030212403,10|0,3:2|0:0,0:0:0:0:
358,229,24043,6,0,P|397:210|444:223,1,80.9999975280763,10|0,0:0|0:0,0:0:0:0:
200,125,24312,6,0,B|251:124|292:184|246:187|287:251|373:237,1,202.500007724762,6|0,1:1|0:0,0:0:0:0:
409,302,24562,1,10,0:0:0:0:
512,101,24695,5,0,3:2:0:0:
499,98,24762,1,0,3:2:0:0:
486,95,24829,2,0,P|444:107|388:119,1,99.0000030212403,10|0,3:2|0:0,0:0:0:0:
302,17,25097,1,10,0:0:0:0:
84,99,25231,6,0,P|103:164|124:245,1,135.000005149842,2|8,3:1|0:0,0:0:0:0:
10,335,25496,2,0,P|43:341|71:358,1,67.5000025749208,2|0,3:1|0:0,0:0:0:0:
214,195,25628,1,8,0:0:0:0:
120,229,25759,1,8,0:0:0:0:
383,324,25891,6,0,B|410:316|432:331|432:331|397:252|263:299|317:335|245:363|188:338|188:338|175:305|207:287,1,377.999988464356,6|0,1:1|0:0,0:0:0:0:
200,291,26943,6,0,P|210:260|227:210,1,72,2|2,0:0|0:0,0:0:0:0:
106,114,27190,2,0,B|77:116|64:96|64:96|66:121|48:139,1,90,10|2,0:0|0:0,0:0:0:0:
228,36,27453,1,8,3:3:0:0:
228,36,27584,2,0,B|258:80|322:74|322:74|301:64|289:33,1,135,8|0,3:3|0:0,0:0:0:0:
464,13,27847,6,0,P|416:73|424:183,1,170.999995433807,14|2,3:2|0:0,0:0:0:0:
484,230,28235,1,2,3:2:0:0:
333,327,28367,1,2,0:0:0:0:
447,384,28500,2,0,P|432:335|413:275,1,85.4999977169037,8|0,0:0|0:0,0:0:0:0:
332,205,28765,1,0,3:2:0:0:
139,328,28899,6,0,B|116:348|118:377|118:377|103:308|82:244,1,170.999995433807,2|10,3:2|0:0,0:0:0:0:
28,191,29300,1,2,3:2:0:0:
177,89,29432,1,2,0:0:0:0:
107,21,29563,2,0,P|81:62|82:113,1,85.4999977169037,8|0,0:0|0:0,0:0:0:0:
228,172,29830,1,0,3:2:0:0:
1,330,29965,6,0,B|41:324|58:359|58:359|105:318|171:352,1,170.999995433807,14|2,0:0|0:0,0:0:0:0:
239,384,30355,1,2,3:2:0:0:
117,244,30482,2,0,B|107:198|107:198|144:159,1,94.499997116089,10|0,0:0|0:0,0:0:0:0:
293,86,30745,2,0,B|299:108|324:117|324:117|327:139|316:166,1,94.499997116089,2|0,0:0|3:2,0:0:0:0:
492,291,31008,6,0,B|499:304|514:309|514:309|454:296|406:340,1,141.749995674133,10|0,0:0|0:0,0:0:0:0:
402,346,31270,1,8,0:0:0:0:
304,251,31402,2,0,P|307:208|333:175,1,85.4999977169037,0|0,3:2|0:0,0:0:0:0:
449,42,31665,2,0,P|399:82|316:64,1,128.249996575356,8|0,0:0|0:0,0:0:0:0:
329,70,31928,1,0,3:2:0:0:
63,190,32060,6,0,P|144:176|221:235,1,170.999995433807,6|0,3:2|0:0,0:0:0:0:
130,365,32454,2,0,P|114:326|122:285,1,85.4999977169037,2|0,3:2|0:0,0:0:0:0:
359,356,32717,2,0,B|470:331|470:331|501:343|497:384,1,170.999995433807,10|0,0:0|3:2,0:0:0:0:
314,201,33112,6,0,B|313:168|346:151|346:151|319:118|353:69,1,128.249996575356,2|0,3:2|0:0,0:0:0:0:
351,80,33375,1,8,0:0:0:0:
512,194,33507,2,0,P|470:192|418:226,1,85.4999977169037,2|0,3:2|0:0,0:0:0:0:
246,356,33770,2,0,B|150:328|150:328|120:357|81:345,1,170.999995433807,8|2,0:0|3:2,0:0:0:0:
3,166,34165,5,8,0:0:0:0:
84,216,34296,1,2,3:2:0:0:
180,6,34428,1,8,0:0:0:0:
100,51,34560,2,0,P|111:94|121:139,1,85.4999977169037,2|0,3:2|0:0,0:0:0:0:
438,36,34823,6,0,P|365:47|332:110,1,135,10|0,0:0|0:0,0:0:0:0:
244,126,35086,6,0,P|317:137|354:204,1,141.749995674133,8|0,0:0|0:0,0:0:0:0:
189,241,35349,6,0,B|220:233|236:253|236:253|236:228|267:216,1,103.500001974106,2|0,3:2|0:0,0:0:0:0:
493,384,35612,6,0,P|349:361|64:322,1,414.000007896424,4|0,3:1|0:0,0:0:0:0:
14,53,36422,6,0,P|46:87|126:95,1,121.499996292114,6|0,3:2|0:0,0:0:0:0:
125,89,36687,2,0,P|163:71|215:76,1,80.9999975280763,2|2,0:0|3:2,0:0:0:0:
380,149,36940,1,10,0:0:0:0:
371,158,37203,2,0,P|382:204|395:255,1,80.9999975280763,2|0,0:0|3:2,0:0:0:0:
470,280,37466,5,2,3:2:0:0:
291,382,37597,2,0,P|300:338|311:300,1,80.9999975280763,10|0,0:0|3:2,0:0:0:0:
256,233,37859,1,2,3:2:0:0:
435,364,37989,1,8,0:0:0:0:
483,81,38252,6,0,B|485:56|509:50|509:50|437:68|381:84,1,161.999995056153,2|0,3:2|0:0,0:0:0:0:
199,22,38646,1,10,0:0:0:0:
297,3,38778,2,0,P|284:52|275:97,1,80.9999975280763,2|2,3:2|0:0,0:0:0:0:
42,177,39041,2,0,B|67:171|75:155|75:155|87:166|115:160,1,80.9999975280763,10|0,0:0|0:0,0:0:0:0:
134,257,39304,2,0,B|109:263|101:279|101:279|89:268|61:274,1,80.9999975280763,2|0,0:0|3:2,0:0:0:0:
200,190,39567,5,2,0:0:0:0:
275,232,39696,1,10,0:0:0:0:
373,95,39826,1,2,3:2:0:0:
286,131,39956,1,2,3:2:0:0:
436,228,40086,1,10,0:0:0:0:
381,311,40216,1,2,0:0:0:0:
431,383,40360,1,8,0:0:0:0:
431,383,40488,1,8,0:0:0:0:
219,295,40617,6,0,P|262:284|304:273,1,80.9999975280763,6|2,3:2|0:0,0:0:0:0:
387,143,40880,2,0,P|430:132|472:120,1,80.9999975280763,2|0,0:0|3:2,0:0:0:0:
235,40,41143,1,10,0:0:0:0:
226,49,41406,2,0,P|200:87|198:137,1,80.9999975280763,2|0,0:0|3:2,0:0:0:0:
104,85,41669,1,2,3:2:0:0:
250,202,41801,2,0,P|276:240|278:290,1,80.9999975280763,8|0,0:0|3:2,0:0:0:0:
371,240,42064,1,2,3:2:0:0:
217,348,42195,1,8,0:0:0:0:
31,124,42459,6,0,B|19:102|-3:99|-3:99|51:70|117:114,1,161.999995056153,10|0,0:0|0:0,0:0:0:0:
252,23,42853,2,0,B|213:14|213:14|166:46,1,80.9999975280763,10|0,0:0|0:0,0:0:0:0:
299,98,43117,1,2,3:2:0:0:
441,13,43248,2,0,P|426:57|413:106,1,80.9999975280763,10|2,0:0|0:0,0:0:0:0:
479,190,43511,2,0,P|492:228|503:267,1,80.9999975280763,2|2,3:2|0:0,0:0:0:0:
275,368,43765,5,10,0:0:0:0:
313,190,43899,1,8,0:0:0:0:
335,291,44034,2,0,P|295:280|248:271,1,80.9999975280763,2|2,3:2|3:2,0:0:0:0:
402,112,44303,5,10,0:0:0:0:
208,159,44432,1,10,0:0:0:0:
332,51,44562,1,8,3:3:0:0:
243,78,44692,1,8,3:3:0:0:
86,32,44827,6,0,B|69:28|64:12|64:12|89:90|112:176,2,188.999994232178,6|0|2,3:2|3:2|3:2,0:0:0:0:
10,220,45879,1,10,0:0:0:0:
17,227,46405,1,2,0:0:0:0:
185,107,46661,5,10,0:0:0:0:
249,168,46792,1,8,0:0:0:0:
331,131,46924,2,0,B|307:106|316:80|316:80|391:117|463:60,2,188.999994232178,6|0|2,3:2|3:2|3:2,0:0:0:0:
490,268,47976,1,8,0:0:0:0:
480,271,48502,1,2,0:0:0:0:
229,354,48766,2,0,B|196:347|192:327|192:327|179:343|148:337,1,94.499997116089,2|0,3:2|0:0,0:0:0:0:
66,381,49029,6,0,P|128:291|112:204,2,188.999994232178,6|0|2,3:2|3:2|3:2,0:0:0:0:
4,161,50081,1,10,0:0:0:0:
14,156,50608,1,2,0:0:0:0:
241,18,50871,5,10,0:0:0:0:
199,95,51002,1,8,0:0:0:0:
254,163,51134,2,0,B|303:159|335:192|306:200|341:240|386:225|386:225|363:220|359:198,2,188.999994232178,4|0|2,3:2|3:2|3:2,0:0:0:0:
78,359,52199,1,8,0:0:0:0:
139,197,52462,1,2,3:2:0:0:
326,379,52725,1,8,0:0:0:0:
326,379,52854,1,8,0:0:0:0:
326,379,52984,1,8,3:3:0:0:
397,325,53244,6,0,B|390:302|406:286|406:286|400:253|364:236,1,80.9999975280763,12|0,0:0|0:0,0:0:0:0:
508,122,53507,2,0,P|464:164|390:157,1,121.499996292114,2|0,3:2|0:0,0:0:0:0:
338,99,53770,2,0,P|374:75|427:75,1,80.9999975280763,10|0,0:0|0:0,0:0:0:0:
247,192,54033,2,0,P|232:123|205:11,2,161.999995056153,2|8|0,3:2|0:0|3:2,0:0:0:0:
22,129,54822,1,8,0:0:0:0:
77,205,54954,1,0,0:0:0:0:
0,313,55086,2,0,B|22:311|34:281|34:281|69:307|121:278,1,121.499996292114,2|0,3:2|0:0,0:0:0:0:
189,370,55349,6,0,P|193:304|242:265,1,121.499996292114,10|0,0:0|0:0,0:0:0:0:
284,128,55624,2,0,B|260:149|269:183|269:183|302:198|310:226,1,121.499996292114,2|0,3:2|0:0,0:0:0:0:
428,280,55882,2,0,P|371:301|314:323,1,121.499996292114,10|0,0:0|0:0,0:0:0:0:
231,268,56145,2,0,P|190:281|154:293,1,80.9999975280763,0|0,3:2|0:0,0:0:0:0:
23,201,56408,2,0,B|42:177|37:151|37:151|80:156|112:115,1,121.499996292114,10|0,0:0|0:0,0:0:0:0:
79,33,56671,2,0,P|122:42|176:53,1,80.9999975280763,2|0,3:2|3:2,0:0:0:0:
365,9,56934,2,0,B|324:-23|277:-11|277:-11|274:11|291:32,1,121.499996292114,14|0,0:0|0:0,0:0:0:0:
329,96,57197,2,0,P|347:131|347:171,1,80.9999975280763,2|0,3:2|3:2,0:0:0:0:
154,355,57460,6,0,P|196:360|303:382,1,121.499996292114,10|0,0:0|0:0,0:0:0:0:
252,383,57723,2,0,P|211:375|165:368,1,80.9999975280763,0|0,3:2|0:0,0:0:0:0:
358,252,57986,6,0,P|315:258|208:269,1,128.249996575356,10|0,0:0|0:0,0:0:0:0:
252,253,58244,2,0,P|293:248|342:241,1,85.4999977169037,0|0,3:2|3:2,0:0:0:0:
89,115,58503,6,0,P|130:123|230:140,1,135,10|0,0:0|0:0,0:0:0:0:
201,121,58766,2,0,P|160:114|107:105,1,90,2|0,3:2|3:2,0:0:0:0:
453,6,59029,6,0,P|411:16|301:35,1,141.749995674133,10|0,0:0|0:0,0:0:0:0:
355,110,59284,2,0,P|395:102|450:92,1,94.499997116089,10|0,0:0|0:0,0:0:0:0:
512,332,59555,6,0,P|480:309|429:309,1,80.9999975280763,2|0,3:2|0:0,0:0:0:0:
358,375,59818,6,0,P|351:336|312:296,1,87.749995983124,2|0,3:2|0:0,0:0:0:0:
203,320,60081,6,0,P|226:288|227:232,1,94.499997116089,2|0,3:2|0:0,0:0:0:0:
136,165,60344,6,0,P|174:158|226:86,1,108,10|0,3:2|0:0,0:0:0:0:
7,39,60619,5,10,3:2:0:0:
39,122,60750,1,0,3:2:0:0:
187,27,60882,5,10,3:2:0:0:
136,165,61013,1,0,3:2:0:0:
344,73,61145,5,10,3:2:0:0:
227,234,61276,1,0,3:2:0:0:
487,188,61408,5,10,3:2:0:0:
271,325,61540,1,0,3:2:0:0:
381,374,61671,6,0,P|370:338|354:286,2,72,2|2|2,0:0|0:0|0:0,0:0:0:0:
422,244,62066,1,2,0:0:0:0:
415,236,62329,1,2,0:0:0:0:
485,103,62461,1,2,0:0:0:0:
409,146,62592,1,2,0:0:0:0:
279,40,62724,6,0,B|234:23|172:69|216:85|159:133|105:114|105:114|135:106|143:75,1,252,2|0,3:2|0:0,0:0:0:0:
0,0,63250,6,0,P|42:6|76:32,1,80.9999975280763,2|0,0:0|0:0,0:0:0:0:
72,28,63513,1,10,0:0:0:0:
0,269,63645,6,0,P|76:212|193:235,1,215.999993408203,14|0,3:2|0:0,0:0:0:0:
372,361,64040,2,0,B|346:358|333:380|333:380|347:321|360:249,1,161.999995056153,8|0,0:0|0:0,0:0:0:0:
309,191,64303,1,2,3:2:0:0:
446,277,64434,1,2,3:2:0:0:
232,347,64566,1,10,0:0:0:0:
410,182,64697,6,0,B|451:145|449:96|414:54|414:54|396:94|339:94,1,215.999993408203,2|0,0:0|0:0,0:0:0:0:
228,0,65092,2,0,B|210:28|169:36|169:36|206:83|175:135,1,161.999995056153,8|0,0:0|0:0,0:0:0:0:
103,172,65355,1,2,3:2:0:0:
201,266,65484,1,2,3:2:0:0:
14,358,65613,1,10,0:0:0:0:
92,284,65744,6,0,P|234:320|377:353,1,269.999991760254,2|0,0:0|0:0,0:0:0:0:
354,347,66139,2,0,P|326:302|336:237,1,108,10|0,0:0|0:0,0:0:0:0:
429,158,66402,2,0,B|412:184|393:184|393:184|362:148|304:159,1,128.249996575356,2|0,3:2|0:0,0:0:0:0:
343,13,66655,2,0,B|361:-3|364:-20|364:-20|411:20|388:84,1,148.50000453186,10|0,0:0|0:0,0:0:0:0:
240,215,66918,6,0,P|217:130|189:36,1,175.499991966248,2|0,3:2|0:0,0:0:0:0:
102,14,67181,2,0,B|71:22|56:5|56:5|51:29|14:44,1,107.999996704102,10|0,0:0|0:0,0:0:0:0:
175,141,67444,1,2,3:2:0:0:
104,211,67575,2,0,P|118:265|131:320,1,107.999996704102,2|8,3:2|0:0,0:0:0:0:
61,378,67839,1,2,0:0:0:0:
213,259,67970,6,0,B|261:248|303:273|273:286|322:312|369:290,1,161.999995056153,0|0,3:2|0:0,0:0:0:0:
204,247,68240,2,0,B|229:197|229:197|190:136,1,107.999996704102,10|0,0:0|0:0,0:0:0:0:
424,79,68503,2,0,B|414:127|455:161|455:161|463:204|428:235,1,161.999995056153,2|0,3:2|0:0,0:0:0:0:
434,67,68766,2,0,P|398:34|322:45,1,107.999996704102,10|0,0:0|0:0,0:0:0:0:
124,90,69029,2,0,B|88:93|72:65|72:65|38:117|-15:115,1,161.999995056153,2|0,3:2|0:0,0:0:0:0:
132,101,69292,2,0,P|183:112|259:131,1,107.999996704102,10|0,0:0|0:0,0:0:0:0:
38,289,69555,1,2,3:2:0:0:
107,344,69683,2,0,P|146:334|213:320,1,107.999996704102,2|8,3:2|0:0,0:0:0:0:
289,366,69943,1,2,0:0:0:0:
498,224,70075,6,0,B|457:215|423:235|446:247|412:269|369:260,1,135,0|0,3:2|0:0,0:0:0:0:
238,202,70338,2,0,B|255:195|292:222|292:222|314:176|367:175,1,148.50000453186,10|0,0:0|0:0,0:0:0:0:
277,32,70601,2,0,B|276:9|250:2|250:2|225:64|282:128,1,161.999995056153,2|0,3:2|0:0,0:0:0:0:
102,226,70873,2,0,P|126:143|151:47,1,175.499991966248,10|0,0:0|0:0,0:0:0:0:
77,3,71139,5,2,3:2:0:0:
269,112,71272,1,8,0:0:0:0:
281,108,71342,1,8,0:0:0:0:
292,102,71411,1,8,0:0:0:0:
441,173,71548,1,10,0:0:0:0:
405,97,71686,1,10,0:0:0:0:
283,244,71811,1,2,3:2:0:0:
207,192,71937,1,2,3:2:0:0:
0,256,72062,6,0,B|56:202|128:236|128:236|138:282|85:305,1,215.999993408203,6|0,3:2|0:0,0:0:0:0:
275,346,72453,2,0,B|334:330|389:312|389:312|362:329|354:368,1,161.999995056153,8|0,0:0|0:0,0:0:0:0:
441,384,72716,1,2,3:2:0:0:
512,294,72847,1,2,3:2:0:0:
335,123,72979,1,10,0:0:0:0:
453,62,73110,6,0,B|424:175|414:217|414:217|426:185|456:166,1,215.999993408203,2|0,0:0|0:0,0:0:0:0:
208,69,73505,2,0,B|222:37|256:49|256:49|239:108|227:161,1,161.999995056153,8|0,0:0|0:0,0:0:0:0:
222,236,73768,1,2,3:2:0:0:
141,137,73896,1,2,3:2:0:0:
49,367,74024,1,10,0:0:0:0:
157,324,74155,6,0,B|226:302|282:351|243:359|294:402|352:380|352:380|326:381|306:357,1,269.999991760254,2|0,0:0|0:0,0:0:0:0:
306,357,74550,2,0,P|333:313|318:249,1,108,10|0,0:0|0:0,0:0:0:0:
259,195,74817,2,0,B|220:182|194:217|194:217|167:198|126:214,1,128.249996575356,2|0,3:2|0:0,0:0:0:0:
29,100,75072,2,0,B|103:109|103:109|105:104|105:104|177:113,1,148.50000453186,10|0,0:0|0:0,0:0:0:0:
304,20,75335,6,0,B|265:31|257:63|257:63|289:126|359:112,1,175.499991966248,2|0,3:2|0:0,0:0:0:0:
394,37,75598,2,0,B|443:17|443:17|481:68,1,107.999996704102,10|0,0:0|0:0,0:0:0:0:
352,269,75861,1,2,3:2:0:0:
428,346,76003,2,0,P|439:295|457:231,1,107.999996704102,2|8,3:2|0:0,0:0:0:0:
512,171,76265,1,2,0:0:0:0:
271,301,76397,6,0,B|218:290|165:280|165:280|142:300|109:292,1,161.999995056153,0|0,3:2|0:0,0:0:0:0:
281,314,76660,2,0,P|336:298|396:284,1,107.999996704102,10|0,0:0|0:0,0:0:0:0:
211,96,76923,2,0,B|158:81|116:111|146:128|103:161|54:144,1,175.499991966248,2|0,3:2|0:0,0:0:0:0:
222,86,77186,2,0,P|281:105|340:120,1,116.999994644165,10|0,0:0|0:0,0:0:0:0:
429,0,77449,5,10,0:0:0:0:
309,215,77581,1,0,3:2:0:0:
323,28,77712,5,10,0:0:0:0:
410,163,77844,1,0,3:2:0:0:
334,118,77975,5,8,3:3:0:0:
334,118,78106,2,8,P|287:106|229:92,1,99.0000030212403,8|8,3:3|3:2,0:0:0:0:
54,3,78367,6,0,B|39:42|72:83|72:83|21:117|31:179,1,198.000006042481,10|0,3:2|0:0,0:0:0:0:
141,295,78761,6,0,P|105:276|66:280,1,80.9999975280763,10|0,0:0|0:0,0:0:0:0:
333,223,79024,6,0,B|276:212|226:262|265:279|208:326|149:302,1,216,6|0,1:1|0:0,0:0:0:0:
89,367,79287,1,10,0:0:0:0:
168,197,79419,5,0,3:2:0:0:
162,185,79484,1,0,3:2:0:0:
156,174,79550,2,0,P|145:126|167:76,1,99.0000030212403,2|0,3:2|0:0,0:0:0:0:
326,309,79800,1,10,0:0:0:0:
510,143,79936,6,0,B|488:117|449:116|449:116|426:160|364:144,1,144,2|8,3:1|0:0,0:0:0:0:
84,35,80206,2,0,B|139:38|162:81|162:81|208:40|252:32|303:64|303:64|273:67|259:91,1,288,2|0,3:1|0:0,0:0:0:0:
473,245,80610,6,0,B|472:238|477:231|477:231|433:243|381:254,1,99.0000030212403,10|0,3:2|0:0,0:0:0:0:
202,225,80873,6,0,P|237:200|297:207,1,80.9999975280763,10|0,0:0|0:0,0:0:0:0:
26,126,81136,6,0,B|71:134|87:182|87:182|126:174|126:174|138:222|199:231,1,216,6|0,1:1|0:0,0:0:0:0:
266,290,81399,1,10,0:0:0:0:
451,143,81531,1,0,3:2:0:0:
336,59,81662,6,0,P|348:110|358:155,1,99.0000030212403,10|0,3:2|3:2,0:0:0:0:
490,258,81925,1,10,0:0:0:0:
318,362,82057,6,0,B|274:355|260:325|260:325|237:349|180:337,1,144,2|0,3:1|3:2,0:0:0:0:
4,198,82320,2,0,B|63:226|121:172|121:172|100:157|100:157|155:103|230:129,1,288,2|0,3:1|0:0,0:0:0:0:
85,384,82715,6,0,P|82:335|54:295,1,99.0000030212403,10|0,3:2|0:0,0:0:0:0:
267,281,82978,6,0,P|232:256|172:263,1,80.9999975280763,10|0,0:0|0:0,0:0:0:0:
468,195,83241,6,0,B|380:230|380:230|375:246|375:246|268:290,1,216,6|0,1:1|0:0,0:0:0:0:
205,343,83504,1,10,0:0:0:0:
429,384,83636,5,0,3:2:0:0:
427,374,83702,1,0,3:2:0:0:
425,364,83767,2,0,P|414:314|401:261,1,99.0000030212403,10|0,3:2|0:0,0:0:0:0:
468,195,84031,1,10,0:0:0:0:
334,49,84162,6,0,B|305:19|264:27|264:27|243:71|186:65,1,144,2|8,3:1|0:0,0:0:0:0:
90,7,84425,2,0,P|100:46|112:93,1,72,2|0,3:1|0:0,0:0:0:0:
12,240,84557,1,8,0:0:0:0:
116,179,84688,1,8,0:0:0:0:
326,303,84820,6,0,B|332:275|360:262|360:262|263:234|187:299|234:322|179:367|122:372|122:372|68:338|78:294,1,432,6|0,1:1|0:0,0:0:0:0:
429,357,85881,5,8,0:0:0:0:
381,272,86009,1,8,0:0:0:0:
463,171,86137,1,8,0:0:0:0:
365,33,86265,1,0,3:2:0:0:
372,26,86522,1,10,3:2:0:0:
55,384,86929,5,8,0:0:0:0:
115,287,87058,1,8,0:0:0:0:
32,164,87187,1,8,0:0:0:0:
143,8,87316,1,0,3:2:0:0:
137,0,87592,1,10,3:2:0:0:
461,368,87999,6,0,B|341:337|341:337|349:329|349:329|232:295|232:295|278:291|310:264|312:211,1,377.999988464356,6|0,3:1|0:0,0:0:0:0:
86,137,88514,2,0,P|79:204|132:245,1,125.999996154785,10|0,0:0|0:0,0:0:0:0:
471,108,88771,2,0,B|398:151|307:95|364:71|292:22|198:61|198:61|239:61|270:100,1,377.999988464356,6|0,3:1|0:0,0:0:0:0:
