osu file format v14

[General]
AudioFilename: audio.mp3
AudioLeadIn: 0
PreviewTime: 63184
Countdown: 0
SampleSet: Soft
StackLeniency: 0.2
Mode: 0
LetterboxInBreaks: 0
WidescreenStoryboard: 1

[Editor]
DistanceSpacing: 1.2
BeatDivisor: 4
GridSize: 8
TimelineZoom: 2.899999

[Metadata]
Title:BAKU (TV Size)
TitleUnicode:BAKU (TV Size)
Artist:Ikimonogakari
ArtistUnicode:いきものがかり
Creator:Smoke
Version:Hard
Source:BORUTO-ボルト- NARUTO NEXT GENERATIONS
Tags:anime pop jpop j-pop rock jrock j-rock japanese uzumaki boruto Kuki1537 Nymphe Kiyoshi Guarden 吉岡聖恵 Kiyoe Yoshioka 山下穂尊 Hotaka Yamashita 水野良樹 Yoshiki Mizuno op opening 8
BeatmapID:3035151
BeatmapSetID:1479509

[Difficulty]
HPDrainRate:4.2
CircleSize:3.2
OverallDifficulty:6.8
ApproachRate:7.8
SliderMultiplier:1.3
SliderTickRate:1

[Events]
//Background and Video events
0,0,"boruto wallpaper.png",0,0
Video,460,"video.mp4"
//Break Periods
//Storyboard Layer 0 (Background)
//Storyboard Layer 1 (Fail)
//Storyboard Layer 2 (Pass)
//Storyboard Layer 3 (Foreground)
//Storyboard Layer 4 (Overlay)
//Storyboard Sound Samples

[TimingPoints]
528,243.90243902439,4,2,1,70,1,0
649,232.558139534884,4,2,1,70,1,0
881,258.620689655172,4,2,1,70,1,0
1273,209.059233449477,4,2,1,70,1,0
1691,240,4,2,1,75,1,0
2062,240,4,2,1,75,1,0
2302,218.181818181818,4,2,1,75,1,0
2738,270.27027027027,4,2,1,75,1,0
3278,238.095238095238,4,2,1,75,1,0
3397,245.901639344262,4,2,1,80,1,0
3643,256.410256410256,4,2,1,80,1,0
4284,265.486725663717,4,2,1,65,1,0
4284,-90.9090909090909,4,2,1,65,0,0
4549,256.410256410256,4,2,1,65,1,0
4677,269.058295964126,4,2,1,80,1,0
4677,-90.9090909090909,4,2,1,80,0,0
4812,267.857142857143,4,2,1,80,1,0
5080,263.157894736842,4,2,1,80,1,0
5343,270.27027027027,4,2,1,80,1,0
5343,-90.9090909090909,4,2,1,80,0,0
5879,263.157894736842,4,2,1,80,1,0
6409,259.74025974026,4,2,1,80,1,0
6409,-90.9090909090909,4,2,1,80,0,0
7188,265.486725663717,4,2,1,80,1,0
7188,-90.9090909090909,4,2,1,80,0,0
7453,264.31718061674,4,2,1,80,1,0
7453,-90.9090909090909,4,2,1,80,0,0
7981,263.157894736842,4,2,1,80,1,0
7981,-90.9090909090909,4,2,1,80,0,0
10349,267.857142857143,4,2,1,80,1,0
10616,270.27027027027,4,2,1,80,1,0
10751,-90.9090909090909,4,2,1,80,0,0
11148,263.157894736842,4,2,1,80,1,0
11674,-90.9090909090909,4,2,1,80,0,0
11921,266.666666666667,4,2,1,80,1,0
11921,-90.9090909090909,4,2,1,80,0,0
12321,272.727272727273,4,2,1,80,1,0
12457,265.486725663717,4,2,1,80,1,0
12712,259.74025974026,4,2,1,80,1,0
12712,-90.9090909090909,4,2,1,80,0,0
13231,263.157894736842,4,2,1,80,1,0
13757,-90.9090909090909,4,2,1,80,0,0
15351,263.157894736842,4,2,1,80,1,0
15614,258.620689655172,4,2,1,80,1,0
15614,-90.9090909090909,4,2,1,80,0,0
15872,264.31718061674,4,2,1,80,1,0
15872,-90.9090909090909,4,2,1,80,0,0
16400,258.620689655172,4,2,1,80,1,0
16400,-90.9090909090909,4,2,1,80,0,0
16917,291.26213592233,4,2,1,80,1,0
17062,241.935483870968,4,2,1,80,1,0
17062,-90.9090909090909,4,2,1,80,0,0
17182,270.27027027027,4,2,1,80,1,0
17317,-90.9090909090909,4,2,1,80,0,0
17452,263.157894736842,4,2,1,80,1,0
17978,-90.9090909090909,4,2,1,80,0,0
21662,283.018867924528,4,2,1,80,1,0
21662,-90.9090909090909,4,2,1,80,0,0
21945,263.157894736842,4,2,1,80,1,0
22208,-90.9090909090909,4,2,1,80,0,0
22471,269.058295964126,4,2,1,80,1,0
22729,260.869565217391,4,2,1,80,1,0
22729,-90.9090909090909,4,2,1,80,0,0
23120,263.157894736842,4,2,1,80,1,0
23120,-90.9090909090909,4,2,1,80,0,0
23777,265.486725663717,4,2,1,80,1,0
23777,-90.9090909090909,4,2,1,80,0,0
24043,269.058295964126,4,2,1,80,1,0
24312,250,4,2,1,80,1,0
24312,-90.9090909090909,4,2,1,80,0,0
24562,267.857142857143,4,2,1,80,1,0
24829,-90.9090909090909,4,2,1,80,0,0
25365,263.157894736842,4,2,1,80,1,0
25496,-90.9090909090909,4,2,1,80,0,0
25891,263.157894736842,4,2,1,80,1,0
25891,-90.9090909090909,4,2,1,80,0,0
26285,-90.9090909090909,4,2,1,5,0,0
26943,-90.9090909090909,4,2,1,70,0,0
27075,230.769230769231,4,2,1,70,1,0
27190,263.157894736842,4,2,1,70,1,0
27847,275.229357798165,4,2,1,70,1,0
28235,265.486725663717,4,2,1,70,1,0
28899,269.058295964126,4,2,1,70,1,0
29169,263.157894736842,4,2,1,70,1,0
29695,270.27027027027,4,2,1,70,1,0
29965,263.157894736842,4,2,1,70,1,0
30228,254.237288135593,4,2,1,70,1,0
30482,263.157894736842,4,2,1,70,1,0
31139,263.157894736842,4,2,1,70,1,0
35612,270.27027027027,4,2,1,70,1,0
36422,265.486725663717,4,2,1,65,1,0
36422,-105.263157894737,4,2,1,65,0,0
36940,263.157894736842,4,2,1,65,1,0
36940,-105.263157894737,4,2,1,65,0,0
37729,260.869565217391,4,2,1,65,1,0
37989,263.157894736842,4,2,1,65,1,0
38252,-105.263157894737,4,2,1,65,0,0
39567,259.74025974026,4,2,1,65,1,0
39567,-105.263157894737,4,2,1,65,0,0
40360,257.510729613734,4,2,1,65,1,0
40617,263.157894736842,4,2,1,65,1,0
40617,-105.263157894737,4,2,1,65,0,0
43765,269.058295964126,4,2,1,65,1,0
44034,-105.263157894737,4,2,1,65,0,0
44303,259.74025974026,4,2,1,65,1,0
44562,-105.263157894737,4,2,1,65,0,0
44827,263.157894736842,4,2,1,55,1,0
44827,-111.111111111111,4,2,1,55,0,0
46405,256.410256410256,4,2,1,55,1,0
46661,263.157894736842,4,2,1,55,1,0
46661,-105.263157894737,4,2,1,55,0,0
46924,263.157894736842,4,2,1,55,1,0
46924,-111.111111111111,4,2,1,55,0,0
51924,275.229357798165,4,2,1,55,1,0
52199,263.157894736842,4,2,1,55,1,0
52725,259.74025974026,4,2,1,55,1,0
52725,-111.111111111111,4,2,1,55,0,0
53244,263.157894736842,4,2,1,60,1,0
53244,-99.9999999999999,4,2,1,60,0,0
55349,275.229357798165,4,2,1,60,1,0
55349,-99.9999999999999,4,2,1,60,0,0
55624,258.620689655172,4,2,1,60,1,0
55882,263.157894736842,4,2,1,60,1,0
55882,-99.9999999999999,4,2,1,60,0,0
56408,263.157894736842,4,2,1,60,1,0
56671,-99.9999999999999,4,2,1,60,0,0
57460,-99.9999999999999,4,2,1,65,0,0
57986,258.620689655172,4,2,1,65,1,0
57986,-99.9999999999999,4,2,1,65,0,0
58503,263.157894736842,4,2,1,65,1,0
58503,-99.9999999999999,4,2,1,65,0,0
59029,255.31914893617,4,2,1,65,1,0
59029,-99.9999999999999,4,2,1,65,0,0
59284,271.493212669683,4,2,1,65,1,0
59284,-99.9999999999999,4,2,1,65,0,0
59555,263.157894736842,4,2,1,45,1,0
59818,-100,4,2,1,50,0,0
60081,-100,4,2,1,55,0,0
60344,275.229357798165,4,2,1,60,1,0
60619,263.157894736842,4,2,1,65,1,0
60619,-99.9999999999999,4,2,1,65,0,0
60882,-99.9999999999999,4,2,1,70,0,0
61145,-99.9999999999999,4,2,1,75,0,0
61408,-99.9999999999999,4,2,1,80,0,0
61671,-99.9999999999999,4,2,1,55,0,0
62724,-111.111111111111,4,2,1,65,0,0
63250,-99.9999999999999,4,2,1,55,0,0
63645,-90.9090909090909,4,2,1,80,0,0
65355,258.620689655172,4,2,1,80,1,0
65355,-90.9090909090909,4,2,1,80,0,0
65613,263.157894736842,4,2,1,80,1,0
65744,-90.9090909090909,4,2,1,80,0,0
65876,263.157894736842,4,2,1,80,1,0
66139,-90.9090909090909,4,2,1,80,0,0
66402,253.164556962025,4,2,1,80,1,0
66402,-90.9090909090909,4,2,1,80,0,0
66655,263.157894736842,4,2,1,80,1,0
66655,-90.9090909090909,4,2,1,80,0,0
66918,263.157894736842,4,2,1,80,1,0
66918,-90.9090909090909,4,2,1,80,0,0
67970,270.27027027027,4,2,1,80,1,0
68240,263.157894736842,4,2,1,80,1,0
68503,-90.9090909090909,4,2,1,80,0,0
69029,263.157894736842,4,2,1,80,1,0
69029,-90.9090909090909,4,2,1,80,0,0
69555,257.510729613734,4,2,1,80,1,0
69683,-90.9090909090909,4,2,1,80,0,0
69812,263.157894736842,4,2,1,80,1,0
69943,-90.9090909090909,4,2,1,80,0,0
70601,272.727272727273,4,2,1,80,1,0
70601,-90.9090909090909,4,2,1,80,0,0
70873,266.666666666667,4,2,1,80,1,0
70873,-90.9090909090909,4,2,1,80,0,0
71272,279.06976744186,4,2,1,80,1,0
71411,275.229357798165,4,2,1,80,1,0
71686,251.046025104603,4,2,1,80,1,0
71686,-90.9090909090909,4,2,1,80,0,0
72062,260.869565217391,4,2,1,80,1,0
72062,-90.9090909090909,4,2,1,80,0,0
72193,260.869565217391,4,2,1,80,1,0
72453,263.157894736842,4,2,1,80,1,0
72716,263.157894736842,4,2,1,80,1,0
72716,-90.9090909090909,4,2,1,80,0,0
73768,256.410256410256,4,2,1,80,1,0
73768,-90.9090909090909,4,2,1,80,0,0
74024,263.157894736842,4,2,1,80,1,0
74155,-90.9090909090909,4,2,1,80,0,0
74550,267.857142857143,4,2,1,80,1,0
74550,-90.9090909090909,4,2,1,80,0,0
74817,255.31914893617,4,2,1,80,1,0
74817,-90.9090909090909,4,2,1,80,0,0
75072,263.157894736842,4,2,1,80,1,0
75072,-90.9090909090909,4,2,1,80,0,0
75861,285.714285714286,4,2,1,80,1,0
76003,262.008733624454,4,2,1,80,1,0
76003,-90.9090909090909,4,2,1,80,0,0
76134,263.157894736842,4,2,1,80,1,0
76265,-90.9090909090909,4,2,1,80,0,0
76397,263.157894736842,4,2,1,80,1,0
76923,-90.9090909090909,4,2,1,80,0,0
77976,260.869565217391,4,2,1,80,1,0
78106,-90.9090909090909,4,2,1,80,0,0
78367,263.157894736842,4,2,1,80,1,0
78367,-90.9090909090909,4,2,1,80,0,0
78498,263.157894736842,4,2,1,80,1,0
79024,-90.9090909090909,4,2,1,80,0,0
79550,250,4,2,1,80,1,0
79550,-90.9090909090909,4,2,1,80,0,0
79800,272.727272727273,4,2,1,80,1,0
79936,-90.9090909090909,4,2,1,80,0,0
80072,269.058295964126,4,2,1,80,1,0
80206,-90.9090909090909,4,2,1,80,0,0
80610,263.157894736842,4,2,1,80,1,0
80610,-90.9090909090909,4,2,1,80,0,0
85215,-90.9090909090909,4,2,1,5,0,0
85881,256.410256410256,4,2,1,70,1,0
85881,-90.9090909090909,4,2,1,70,0,0
86522,271.493212669683,4,2,1,70,1,0
86929,258.620689655172,4,2,1,75,1,0
86929,-90.9090909090909,4,2,1,75,0,0
87316,275.229357798165,4,2,1,75,1,0
87592,271.493212669683,4,2,1,75,1,0
87999,257.510729613734,4,2,1,80,1,0
87999,-90.9090909090909,4,2,1,80,0,0
89157,-90.9090909090909,4,2,1,5,0,0

[Colours]
Combo1 : 244,217,21
Combo2 : 232,45,82
Combo3 : 40,132,232

[HitObjects]
81,263,649,6,0,L|153:277,1,65.1560000000001,8|8,0:0|0:0,0:0:0:0:
207,335,881,1,8,0:0:0:0:
207,335,1010,1,0,3:2:0:0:
132,139,1273,1,10,3:2:0:0:
416,214,1691,6,0,L|345:229,1,65,8|8,0:0|0:0,0:0:0:0:
296,288,1931,1,8,0:0:0:0:
296,288,2062,1,0,3:2:0:0:
381,123,2302,1,14,3:2:0:0:
130,14,2738,6,0,B|143:68|105:125|83:82|45:139|71:186|71:186|78:157|117:136,1,260,2|0,3:2|3:2,0:0:0:0:
149,211,3397,2,0,P|182:216|229:229,1,65.5026666666666,10|0,0:0|3:2,0:0:0:0:
263,287,3643,2,0,P|315:275|457:252,1,195.312,10|0,0:0|0:0,0:0:0:0:
487,75,4284,2,0,P|419:89|380:158,1,143.000004364014,2|10,0:0|0:0,0:0:0:0:
306,100,4677,6,0,P|258:118|158:144,1,142.468521030681,14|0,3:2|0:0,0:0:0:0:
110,88,5080,1,8,0:0:0:0:
23,231,5343,2,0,P|50:253|98:261,1,71.5715021820068,2|2,3:2|3:2,0:0:0:0:
168,232,5613,1,10,0:0:0:0:
168,232,5748,6,0,B|216:233|243:254|216:264|255:295|312:276,1,138.767204364014,2|0,0:0|0:0,0:0:0:0:
355,236,6142,1,8,0:0:0:0:
284,74,6409,2,0,P|320:60|359:65,1,71.979052182007,2|2,3:2|3:2,0:0:0:0:
428,20,6668,1,10,0:0:0:0:
428,20,6798,6,0,P|458:43|450:138,1,143.407554364014,2|0,0:0|0:0,0:0:0:0:
488,212,7188,2,0,P|476:253|470:284,1,71.9004021820069,10|0,0:0|0:0,0:0:0:0:
401,332,7453,2,0,P|393:297|383:262,1,71.5858021820069,2|0,3:2|3:2,0:0:0:0:
304,227,7717,2,0,P|269:235|242:259,1,71.5858021820069,10|0,0:0|0:0,0:0:0:0:
180,318,7981,6,0,B|159:297|118:300|118:300|89:343|36:331,1,143.085804364014,2|10,3:2|0:0,0:0:0:0:
4,174,8507,1,2,3:2:0:0:
4,174,8638,2,0,P|41:175|78:157,1,71.8146021820069,2|8,3:2|0:0,0:0:0:0:
114,86,8902,6,0,B|160:77|197:98|172:111|210:132|252:116,1,143.085804364014,2|0,0:0|0:0,0:0:0:0:
310,61,9296,1,10,0:0:0:0:
463,136,9559,2,0,P|450:174|440:220,1,71.8146021820069,2|0,3:2|3:2,0:0:0:0:
486,278,9823,1,10,0:0:0:0:
323,222,10086,6,0,P|336:260|346:306,1,71.8146021820069,2|0,3:2|0:0,0:0:0:0:
303,363,10349,1,10,0:0:0:0:
189,267,10616,1,2,3:2:0:0:
189,267,10751,2,0,P|153:266|118:283,1,71.5715021820068,2|8,3:2|0:0,0:0:0:0:
55,335,11021,6,0,P|73:264|90:182,1,136.650804364014,2|0,0:0|0:0,0:0:0:0:
37,134,11411,1,10,0:0:0:0:
167,22,11674,2,0,P|207:25|245:51,1,71.8146021820069,2|0,3:2|3:2,0:0:0:0:
275,116,11921,2,0,P|264:152|257:198,1,71.678752182007,10|0,0:0|0:0,0:0:0:0:
185,230,12187,6,0,P|169:261|168:296,1,72.0362521820069,2|8,3:2|0:0,0:0:0:0:
223,363,12457,1,8,0:0:0:0:
223,363,12589,1,10,0:0:0:0:
292,321,12712,2,0,P|326:332|361:342,1,71.979052182007,10|2,0:0|3:2,0:0:0:0:
441,370,12971,1,2,3:2:0:0:
497,305,13101,6,0,B|479:239|479:239|472:237|472:237|451:164,1,144.101104364014,6|0,3:2|0:0,0:0:0:0:
500,103,13494,1,8,0:0:0:0:
349,19,13757,2,0,P|347:60|331:91,1,71.8146021820069,2|2,3:2|3:2,0:0:0:0:
269,141,14020,1,10,0:0:0:0:
269,141,14152,6,0,P|217:105|117:110,1,143.085804364014,2|0,0:0|0:0,0:0:0:0:
86,168,14546,1,8,0:0:0:0:
155,324,14809,2,0,P|190:314|237:304,1,71.8146021820069,2|2,3:2|3:2,0:0:0:0:
310,337,15073,1,10,0:0:0:0:
310,337,15204,6,0,B|331:339|343:356|343:356|330:291|320:235,1,151.151004364014,2|0,0:0|0:0,0:0:0:0:
404,216,15614,2,0,P|421:185|418:127,1,71.6716021820068,10|0,0:0|0:0,0:0:0:0:
411,66,15872,2,0,P|376:76|333:85,1,71.5858021820069,2|0,3:2|3:2,0:0:0:0:
270,36,16136,2,0,P|235:46|192:55,1,71.5858021820069,10|0,0:0|0:0,0:0:0:0:
128,3,16400,6,0,P|167:57|145:146,1,143.343204364014,2|10,3:2|0:0,0:0:0:0:
62,230,16917,1,2,3:2:0:0:
62,230,17062,2,0,P|100:238|141:247,1,71.5000021820069,2|8,3:2|0:0,0:0:0:0:
173,320,17317,6,0,P|239:304|312:290,1,140.883604364014,2|0,0:0|0:0,0:0:0:0:
375,339,17715,1,10,0:0:0:0:
495,216,17978,2,0,P|464:197|415:193,1,71.8146021820069,2|0,3:2|3:2,0:0:0:0:
345,209,18241,1,10,0:0:0:0:
427,58,18504,6,0,P|396:77|347:81,1,71.8146021820069,10|0,0:0|3:2,0:0:0:0:
294,136,18767,2,0,P|263:117|214:113,1,71.8146021820069,10|0,0:0|3:2,0:0:0:0:
167,59,19030,1,8,3:3:0:0:
167,59,19162,2,0,P|131:71|88:84,1,71.8146021820069,8|0,3:3|3:2,0:0:0:0:
26,34,19425,6,0,B|55:44|66:76|66:76|29:174,1,143.085804364014,10|0,3:2|0:0,0:0:0:0:
94,217,19820,1,10,0:0:0:0:
11,367,20083,2,0,B|41:353|72:365|72:365|81:347|81:347|115:358|147:333,1,143.085804364014,6|10,1:1|0:0,0:0:0:0:
201,279,20478,1,0,0:0:0:0:
201,279,20609,6,0,P|236:276|277:292,1,71.8146021820069,2|0,3:2|0:0,0:0:0:0:
335,343,20873,1,10,0:0:0:0:
406,296,21004,2,0,P|389:267|389:209,1,71.8146021820069,2|8,3:1|0:0,0:0:0:0:
447,172,21267,2,0,P|483:118|456:28,1,143.085804364014,2|0,3:1|3:2,0:0:0:0:
383,56,21662,6,0,P|350:46|299:39,1,71.7574021820068,10|0,3:2|0:0,0:0:0:0:
249,93,21945,1,10,0:0:0:0:
367,215,22208,2,0,B|337:229|305:217|305:217|297:235|297:235|263:224|231:249,1,143.000004364014,6|10,1:1|0:0,0:0:0:0:
174,297,22605,1,0,3:2:0:0:
174,297,22729,6,0,P|148:268|100:254,1,71.7383355153402,10|0,3:2|3:2,0:0:0:0:
38,223,22989,1,10,0:0:0:0:
87,153,23120,2,0,P|122:161|167:170,1,71.8146021820069,2|0,3:1|3:2,0:0:0:0:
213,104,23383,2,0,P|248:96|360:75,1,143.085804364014,2|0,3:1|0:0,0:0:0:0:
413,16,23777,6,0,P|435:46|439:86,1,71.5000021820069,10|0,3:2|0:0,0:0:0:0:
397,153,24043,1,10,0:0:0:0:
500,305,24312,2,0,B|470:291|439:303|439:303|430:285|430:285|396:296|364:271,1,143.000004364014,6|10,1:1|0:0,0:0:0:0:
309,225,24695,1,0,0:0:0:0:
309,225,24829,6,0,P|272:224|234:248,1,71.9957355153403,10|0,3:2|0:0,0:0:0:0:
189,308,25097,1,10,0:0:0:0:
122,253,25231,2,0,P|130:221|141:183,1,72.0338688486736,2|8,3:1|0:0,0:0:0:0:
202,124,25496,2,0,P|194:92|183:54,1,71.8146021820069,2|8,3:1|0:0,0:0:0:0:
107,15,25759,1,8,0:0:0:0:
34,61,25891,6,0,B|20:104|59:127|59:127|-2:172|31:258,1,214.900406546021,6|0,1:1|0:0,0:0:0:0:
28,250,26943,6,0,P|63:240|107:231,1,72.0434021820069,2|2,0:0|0:0,0:0:0:0:
162,296,27190,1,10,0:0:0:0:
162,296,27321,2,0,L|241:314,1,65.286,2|8,0:0|3:3,0:0:0:0:
288,367,27584,1,8,3:3:0:0:
439,282,27847,6,0,P|424:220|411:149,1,130.108333333333,14|2,3:2|0:0,0:0:0:0:
463,90,28235,2,0,P|440:75|401:71,1,65.364,2|2,3:2|0:0,0:0:0:0:
337,17,28500,2,0,P|272:34|197:53,1,130.238333333333,8|0,0:0|3:2,0:0:0:0:
136,10,28899,6,0,B|165:28|175:54|175:54|138:77|141:120,1,130.483166666667,2|10,3:2|0:0,0:0:0:0:
72,160,29300,2,0,P|63:194|57:230,1,65.286,2|2,3:2|0:0,0:0:0:0:
105,293,29563,2,0,P|147:260|228:262,1,131.976,8|0,0:0|3:2,0:0:0:0:
259,338,29965,6,0,B|286:338|298:310|298:310|330:343|382:326,1,130,14|2,0:0|0:0,0:0:0:0:
449,300,30355,1,2,3:2:0:0:
399,235,30482,2,0,P|382:209|383:161,1,65.286,10|0,0:0|0:0,0:0:0:0:
443,121,30745,2,0,P|460:95|459:47,1,65.286,2|0,0:0|3:2,0:0:0:0:
397,8,31008,6,0,B|358:-5|324:16|349:28|309:51|274:34,1,129.506,10|8,0:0|0:0,0:0:0:0:
197,12,31402,2,0,P|177:44|180:91,1,65.286,0|0,3:2|0:0,0:0:0:0:
215,144,31665,1,8,0:0:0:0:
383,110,31928,1,0,3:2:0:0:
383,110,32060,6,0,P|367:174|347:264,1,130.078,6|0,3:2|0:0,0:0:0:0:
418,289,32454,2,0,P|388:314|357:321,1,65.286,2|0,3:2|0:0,0:0:0:0:
291,364,32717,2,0,P|238:324|153:333,1,130.078,10|0,0:0|3:2,0:0:0:0:
101,363,33112,6,0,B|127:349|136:321|136:321|102:293|111:249,1,130.078,2|8,3:2|0:0,0:0:0:0:
45,200,33507,2,0,P|39:165|31:127,1,65.286,2|0,3:2|0:0,0:0:0:0:
75,63,33770,2,0,P|105:84|154:82,1,65.286,8|0,0:0|0:0,0:0:0:0:
207,126,34033,2,0,P|237:105|286:107,1,65.286,2|8,3:2|0:0,0:0:0:0:
318,37,34296,5,2,3:2:0:0:
318,37,34428,1,8,0:0:0:0:
386,86,34560,2,0,P|393:117|403:148,1,65.286,2|0,3:2|0:0,0:0:0:0:
478,185,34823,2,0,P|470:216|460:247,1,65.286,10|0,0:0|0:0,0:0:0:0:
492,325,35086,1,8,0:0:0:0:
340,249,35349,2,0,P|301:248|266:275,1,65.286,2|0,3:2|0:0,0:0:0:0:
219,322,35612,6,0,P|237:255|94:259,1,260.26,4|0,3:1|0:0,0:0:0:0:
8,98,36422,6,0,B|40:111|74:90|51:78|87:56|119:70,1,123.726413368861,6|2,3:2|0:0,0:0:0:0:
188,16,36820,1,2,3:2:0:0:
188,16,36940,2,0,P|247:30|325:49,1,123.574096702194,10|2,0:0|0:0,0:0:0:0:
481,12,37466,1,2,3:2:0:0:
481,12,37597,2,0,P|498:40|503:90,1,62.2192983510972,10|0,0:0|3:2,0:0:0:0:
443,129,37859,1,2,3:2:0:0:
494,196,37989,1,8,0:0:0:0:
494,196,38252,6,0,P|436:181|380:232,1,123.574096702194,2|0,3:2|0:0,0:0:0:0:
348,294,38646,1,10,0:0:0:0:
348,294,38778,2,0,P|315:311|275:317,1,62.0216983510972,2|2,3:2|0:0,0:0:0:0:
222,369,39041,2,0,B|189:365|172:338|172:338|147:358|108:349,1,123.574096702194,10|2,0:0|0:0,0:0:0:0:
22,200,39567,6,0,P|25:171|46:142,1,62.1637233510973,2|10,0:0|0:0,0:0:0:0:
43,58,39826,2,0,P|72:61|101:82,1,62.1637233510973,2|2,3:2|3:2,0:0:0:0:
185,77,40086,2,0,P|182:106|161:135,1,62.1637233510973,10|2,0:0|0:0,0:0:0:0:
113,205,40360,1,8,0:0:0:0:
113,205,40488,1,8,0:0:0:0:
168,269,40617,6,0,P|225:256|306:242,1,123.574096702194,6|2,3:2|0:0,0:0:0:0:
352,302,41011,1,0,3:2:0:0:
352,302,41143,2,0,P|398:295|444:226,1,123.574096702194,10|2,0:0|0:0,0:0:0:0:
483,68,41669,1,2,3:2:0:0:
483,68,41801,2,0,P|451:60|423:55,1,62.0216983510972,8|0,0:0|3:2,0:0:0:0:
344,92,42064,1,2,3:2:0:0:
280,34,42195,1,8,0:0:0:0:
280,34,42459,6,0,B|235:46|235:46|217:72|217:72|169:86,1,123.574096702194,10|0,0:0|0:0,0:0:0:0:
104,33,42853,2,0,P|57:81|71:159,1,123.574096702194,10|2,0:0|3:2,0:0:0:0:
131,178,43248,2,0,P|123:209|115:244,1,62.0216983510972,10|2,0:0|0:0,0:0:0:0:
34,264,43511,2,0,P|41:295|50:330,1,62.0216983510972,2|2,3:2|0:0,0:0:0:0:
116,371,43765,2,0,P|147:373|185:351,1,65,10|8,0:0|0:0,0:0:0:0:
233,293,44034,2,0,P|266:292|297:308,1,61.9928816844306,2|2,3:2|3:2,0:0:0:0:
359,253,44303,1,10,0:0:0:0:
359,253,44432,1,10,0:0:0:0:
290,190,44562,2,0,P|277:161|282:127,1,61.7499983510972,8|8,3:3|3:3,0:0:0:0:
336,65,44827,6,0,B|390:52|436:87|395:94|450:136|507:114,2,175.605294644165,6|0|2,3:2|3:2|3:2,0:0:0:0:
195,148,45879,2,0,P|141:154|84:111,2,116.999996429443,10|2|2,0:0|0:0|0:0,0:0:0:0:
335,240,46661,2,0,P|337:273|321:304,1,62.0216983510972,10|8,0:0|0:0,0:0:0:0:
253,337,46924,6,0,B|171:319|171:319|166:324|166:324|70:303,2,175.605294644165,6|0|2,3:2|3:2|3:2,0:0:0:0:
414,366,47976,1,8,0:0:0:0:
414,366,48766,1,2,3:2:0:0:
503,228,49029,6,0,P|516:174|448:83,2,175.605294644165,6|0|2,3:2|3:2|3:2,0:0:0:0:
347,277,50081,2,0,P|318:325|330:404,2,117.070196429443,10|2|2,0:0|0:0|0:0,0:0:0:0:
229,161,50871,2,0,P|201:170|170:179,1,58.7573982147217,10|8,0:0|0:0,0:0:0:0:
107,227,51134,6,0,B|139:173|139:173|94:51,2,175.722294644165,4|0|2,3:2|3:2|3:2,0:0:0:0:
19,374,52199,1,8,0:0:0:0:
169,309,52462,1,2,3:2:0:0:
320,375,52725,2,0,P|332:349|331:312,2,58.6667232147218,8|8|8,0:0|0:0|3:3,0:0:0:0:
462,265,53244,6,0,P|443:207|423:138,1,130.078,12|2,0:0|3:2,0:0:0:0:
468,67,53638,1,0,3:2:0:0:
468,67,53770,2,0,P|410:86|341:106,1,130.078,10|2,0:0|3:2,0:0:0:0:
206,221,54296,1,8,0:0:0:0:
239,42,54559,1,0,3:2:0:0:
60,9,54822,1,8,0:0:0:0:
27,188,55086,2,0,P|44:164|93:145,1,65.286,2|0,3:2|0:0,0:0:0:0:
156,115,55349,6,0,P|220:132|294:149,1,130,10|2,0:0|3:2,0:0:0:0:
353,95,55753,1,0,0:0:0:0:
353,95,55882,2,0,P|336:159|319:233,1,130.078,10|2,0:0|3:2,0:0:0:0:
149,279,56408,1,10,0:0:0:0:
301,377,56671,2,0,P|292:340|280:300,1,65.286,2|0,3:2|3:2,0:0:0:0:
232,239,56934,1,14,0:0:0:0:
397,313,57197,2,0,P|406:276|418:236,1,65.286,2|0,3:2|3:2,0:0:0:0:
465,174,57460,6,0,P|428:138|433:39,1,130.078,10|0,0:0|3:2,0:0:0:0:
245,3,57986,2,0,P|243:66|200:114,1,130.312,10|0,0:0|3:2,0:0:0:0:
117,92,58373,1,0,3:2:0:0:
117,92,58503,2,0,P|92:118|80:167,1,65.286,10|0,0:0|0:0,0:0:0:0:
10,201,58766,2,0,P|36:226|85:238,1,65.286,2|0,3:2|3:2,0:0:0:0:
116,313,59029,2,0,P|141:287|153:238,1,65.3358333333333,10|0,0:0|0:0,0:0:0:0:
28,323,59284,2,0,P|36:354|55:379,1,65.3574999999999,10|0,0:0|0:0,0:0:0:0:
116,313,59555,5,2,3:2:0:0:
225,369,59818,1,2,3:2:0:0:
354,286,60081,1,2,3:2:0:0:
512,372,60344,1,10,3:2:0:0:
343,277,60619,6,0,P|341:244|356:216,1,65.286,10|0,3:2|3:2,0:0:0:0:
419,142,60882,2,0,P|387:137|361:118,1,65.286,10|0,3:2|3:2,0:0:0:0:
280,56,61145,2,0,P|281:88|266:116,1,65.286,10|0,3:2|3:2,0:0:0:0:
204,191,61408,2,0,P|235:195|261:214,1,65.286,10|0,3:2|3:2,0:0:0:0:
33,56,62724,6,0,P|132:58|202:10,1,175.499994644165,2|0,3:2|0:0,0:0:0:0:
270,68,63250,2,0,P|315:41|389:52,1,130.078,2|10,0:0|0:0,0:0:0:0:
454,118,63645,6,0,P|435:191|416:271,1,143.085804364014,14|0,3:2|0:0,0:0:0:0:
465,329,64040,1,8,0:0:0:0:
313,248,64303,2,0,P|282:267|242:270,1,71.8146021820069,2|2,3:2|3:2,0:0:0:0:
184,327,64566,1,10,0:0:0:0:
184,327,64697,6,0,B|143:321|109:349|135:360|103:388|58:375,1,143.085804364014,2|0,0:0|0:0,0:0:0:0:
5,308,65092,1,8,0:0:0:0:
135,192,65355,2,0,P|135:150|111:116,1,71.6716021820068,2|2,3:2|3:2,0:0:0:0:
77,54,65613,1,10,0:0:0:0:
77,54,65744,6,0,B|144:41|144:41|152:32|152:32|220:19,1,143.000004364014,2|0,0:0|0:0,0:0:0:0:
284,69,66139,2,0,P|325:78|356:87,1,71.8146021820069,10|0,0:0|0:0,0:0:0:0:
426,34,66402,2,0,P|443:65|443:103,1,71.5000021820069,2|0,3:2|3:2,0:0:0:0:
390,169,66655,2,0,P|375:200|372:238,1,71.8146021820069,10|0,0:0|0:0,0:0:0:0:
433,297,66918,6,0,B|412:276|371:279|371:279|342:322|289:310,1,143.085804364014,2|10,3:2|0:0,0:0:0:0:
151,380,67444,1,2,3:2:0:0:
151,380,67575,2,0,P|152:343|134:306,1,71.8146021820069,2|8,3:2|0:0,0:0:0:0:
67,262,67839,6,0,B|113:271|150:250|125:237|163:216|205:232,1,144.630204364014,2|0,0:0|0:0,0:0:0:0:
275,268,68240,1,10,0:0:0:0:
399,149,68503,2,0,P|362:168|317:169,1,71.8146021820069,2|0,3:2|3:2,0:0:0:0:
261,123,68766,1,10,0:0:0:0:
117,29,69029,6,0,P|154:48|199:49,1,71.8146021820069,2|0,3:2|0:0,0:0:0:0:
261,16,69292,1,10,0:0:0:0:
165,144,69555,1,2,3:2:0:0:
165,144,69683,2,0,P|174:179|181:215,1,72.0553188486736,2|8,3:2|0:0,0:0:0:0:
102,247,69943,6,0,P|171:261|241:279,1,143.085804364014,2|0,0:0|0:0,0:0:0:0:
301,340,70338,1,10,0:0:0:0:
445,258,70601,2,0,P|405:261|367:287,1,71.6906688486736,2|0,3:2|3:2,0:0:0:0:
324,206,70873,2,0,P|340:174|341:139,1,71.678752182007,10|0,0:0|0:0,0:0:0:0:
387,66,71139,6,0,P|353:57|318:44,1,71.5000021820069,2|8,3:2|0:0,0:0:0:0:
252,91,71411,1,8,0:0:0:0:
252,91,71548,1,10,0:0:0:0:
177,40,71686,2,0,P|143:51|108:61,1,71.7979188486737,10|2,0:0|3:2,0:0:0:0:
27,88,71937,1,2,3:2:0:0:
74,168,72062,6,0,B|115:162|149:190|123:201|155:229|200:216,1,143.548171030681,6|0,3:2|0:0,0:0:0:0:
273,181,72453,1,8,0:0:0:0:
391,305,72716,2,0,P|391:269|405:236,1,71.8146021820069,2|2,3:2|3:2,0:0:0:0:
489,213,72979,1,10,0:0:0:0:
489,213,73110,6,0,P|426:207|363:135,1,143.085804364014,2|0,0:0|0:0,0:0:0:0:
421,84,73505,1,8,0:0:0:0:
259,15,73768,2,0,P|269:49|279:97,1,71.6144021820068,2|2,3:2|3:2,0:0:0:0:
217,143,74024,1,10,0:0:0:0:
217,143,74155,6,0,B|231:127|250:124|250:124|237:189|227:245,1,143.085804364014,2|0,0:0|0:0,0:0:0:0:
306,263,74550,2,0,P|323:294|320:352,1,71.9957355153403,10|0,0:0|0:0,0:0:0:0:
253,378,74817,2,0,P|218:368|175:359,1,71.8694188486735,2|0,3:2|3:2,0:0:0:0:
128,298,75072,2,0,P|93:288|50:279,1,71.8146021820069,10|0,0:0|0:0,0:0:0:0:
14,207,75335,6,0,B|47:194|53:161|53:161|17:124|44:73,1,143.000004364014,2|10,3:2|0:0,0:0:0:0:
175,3,75861,1,2,3:2:0:0:
175,3,76003,2,0,P|213:11|254:20,1,71.5000021820069,2|8,3:2|0:0,0:0:0:0:
303,79,76265,6,0,P|369:63|442:49,1,143.000004364014,2|0,0:0|0:0,0:0:0:0:
502,109,76660,1,10,0:0:0:0:
425,262,76923,2,0,P|394:243|345:239,1,71.8146021820069,2|0,3:2|3:2,0:0:0:0:
283,276,77186,1,10,0:0:0:0:
133,360,77449,6,0,P|142:324|152:282,1,71.8146021820069,10|0,0:0|3:2,0:0:0:0:
211,230,77712,2,0,P|201:194|192:152,1,71.8146021820069,10|0,0:0|3:2,0:0:0:0:
139,93,77976,1,8,3:3:0:0:
139,93,78106,2,0,P|172:76|218:77,1,71.7383355153402,8|0,3:3|3:2,0:0:0:0:
267,14,78367,6,0,B|277:42|319:49|319:49|347:15|409:23,1,142.456604364014,10|0,3:2|0:0,0:0:0:0:
435,89,78761,1,10,0:0:0:0:
298,189,79024,2,0,B|328:203|359:191|359:191|368:209|368:209|402:198|425:216,1,143.085804364014,6|10,1:1|0:0,0:0:0:0:
461,299,79419,1,0,0:0:0:0:
461,299,79550,6,0,P|426:296|385:312,1,71.5000021820069,2|0,3:2|0:0,0:0:0:0:
335,363,79800,1,10,0:0:0:0:
252,338,79936,2,0,B|232:307|232:307|248:255,1,71.5000021820069,2|8,3:1|0:0,0:0:0:0:
295,206,80206,2,0,B|329:163|329:163|304:62,1,143.030987697348,2|0,3:1|0:0,0:0:0:0:
236,26,80610,6,0,P|203:50|162:53,1,71.8146021820069,10|0,3:2|0:0,0:0:0:0:
95,17,80873,1,10,0:0:0:0:
198,154,81136,2,0,B|175:172|141:161|141:161|133:179|133:179|101:167|71:181,1,143.085804364014,6|10,1:1|0:0,0:0:0:0:
13,244,81531,1,0,3:2:0:0:
13,244,81662,6,0,P|23:281|31:316,1,71.8146021820069,10|0,3:2|3:2,0:0:0:0:
102,359,81925,1,10,0:0:0:0:
175,314,82057,2,0,P|205:338|255:331,1,71.8146021820069,2|0,3:1|3:2,0:0:0:0:
312,379,82320,2,0,P|368:339|459:350,1,143.085804364014,2|0,3:1|0:0,0:0:0:0:
494,274,82715,6,0,P|473:245|468:204,1,71.8146021820069,10|0,3:2|0:0,0:0:0:0:
504,133,82978,1,10,0:0:0:0:
365,31,83241,2,0,B|379:61|367:92|367:92|385:101|385:101|374:135|399:167,1,143.085804364014,6|10,1:1|0:0,0:0:0:0:
323,206,83636,1,0,0:0:0:0:
323,206,83767,6,0,P|311:240|303:274,1,71.8146021820069,10|0,3:2|0:0,0:0:0:0:
234,327,84031,1,10,0:0:0:0:
157,289,84162,2,0,P|141:256|145:222,1,71.8146021820069,2|8,3:1|0:0,0:0:0:0:
70,180,84425,2,0,P|85:147|82:113,1,71.8146021820069,2|8,3:1|0:0,0:0:0:0:
124,38,84688,1,8,0:0:0:0:
196,83,84820,6,0,B|240:65|285:95|256:113|304:145|356:119|356:119|331:115|313:102,1,214.900406546021,6|0,1:1|0:0,0:0:0:0:
54,274,85881,6,0,P|86:257|134:261,1,71.6144021820068,8|8,0:0|0:0,0:0:0:0:
191,313,86137,1,8,0:0:0:0:
191,313,86265,1,0,3:2:0:0:
148,147,86522,1,10,3:2:0:0:
410,211,86929,6,0,P|377:193|327:197,1,71.6716021820068,8|8,0:0|0:0,0:0:0:0:
281,249,87187,1,8,0:0:0:0:
281,249,87316,1,0,3:2:0:0:
350,89,87592,1,10,3:2:0:0:
67,19,87999,6,0,B|63:66|109:85|109:85|65:143|116:215,1,214.647773212688,6|0,3:1|0:0,0:0:0:0:
178,257,88514,2,0,P|203:236|254:233,1,71.9194688486736,10|0,0:0|0:0,0:0:0:0:
308,177,88771,2,0,P|356:227|495:201,1,214.647773212688,6|0,3:1|0:0,0:0:0:0:
