osu file format v14

[General]
AudioFilename: audio.mp3
AudioLeadIn: 0
PreviewTime: 63184
Countdown: 0
SampleSet: Soft
StackLeniency: 0.7
Mode: 0
LetterboxInBreaks: 0
WidescreenStoryboard: 1

[Editor]
DistanceSpacing: 1.1
BeatDivisor: 4
GridSize: 8
TimelineZoom: 2.499999

[Metadata]
Title:BAKU (TV Size)
TitleUnicode:BAKU (TV Size)
Artist:Ikimonogakari
ArtistUnicode:いきものがかり
Creator:Smoke
Version:Easy
Source:BORUTO-ボルト- NARUTO NEXT GENERATIONS
Tags:anime pop jpop j-pop rock jrock j-rock japanese uzumaki boruto Kuki1537 Nymphe Kiyoshi Guarden 吉岡聖恵 Kiyoe Yoshioka 山下穂尊 Hotaka Yamashita 水野良樹 Yoshiki Mizuno op opening 8
BeatmapID:3048950
BeatmapSetID:1479509

[Difficulty]
HPDrainRate:3
CircleSize:2.6
OverallDifficulty:3
ApproachRate:4
SliderMultiplier:0.799999999999999
SliderTickRate:1

[Events]
//Background and Video events
0,0,"boruto wallpaper.png",0,0
Video,460,"video.mp4"
//Break Periods
//Storyboard Layer 0 (Background)
//Storyboard Layer 1 (Fail)
//Storyboard Layer 2 (Pass)
//Storyboard Layer 3 (Foreground)
//Storyboard Layer 4 (Overlay)
//Storyboard Sound Samples

[TimingPoints]
528,243.90243902439,4,2,1,70,1,0
649,232.558139534884,4,2,1,70,1,0
881,258.620689655172,4,2,1,70,1,0
1273,209.059233449477,4,2,1,70,1,0
1691,240,4,2,1,75,1,0
2062,240,4,2,1,75,1,0
2302,218.181818181818,4,2,1,75,1,0
2683,-100,4,2,1,5,0,0
2738,270.27027027027,4,2,1,75,1,0
3210,-100,4,2,1,5,0,0
3278,238.095238095238,4,2,1,75,1,0
3397,245.901639344262,4,2,1,80,1,0
3643,256.410256410256,4,2,1,80,1,0
4284,265.486725663717,4,2,1,65,1,0
4549,256.410256410256,4,2,1,65,1,0
4677,269.058295964126,4,2,1,80,1,0
4812,267.857142857143,4,2,1,80,1,0
5080,263.157894736842,4,2,1,80,1,0
5275,-100,4,2,1,5,0,0
5343,270.27027027027,4,2,1,80,1,0
5879,263.157894736842,4,2,1,80,1,0
6339,-100,4,2,1,5,0,0
6409,259.74025974026,4,2,1,80,1,0
7123,-100,4,2,1,5,0,0
7188,265.486725663717,4,2,1,80,1,0
7386,-100,4,2,1,5,0,0
7453,264.31718061674,4,2,1,80,1,0
7651,-100,4,2,1,5,0,0
7717,-100,4,2,1,80,0,0
7915,-100,4,2,1,5,0,0
7981,263.157894736842,4,2,1,80,1,0
8178,-100,4,2,1,5,0,0
8244,-100,4,2,1,80,0,0
9231,-100,4,2,1,5,0,0
9296,-100,4,2,1,80,0,0
9757,-100,4,2,1,5,0,0
9823,-100,4,2,1,80,0,0
10283,-100,4,2,1,5,0,0
10349,267.857142857143,4,2,1,80,1,0
10616,270.27027027027,4,2,1,80,1,0
11148,263.157894736842,4,2,1,80,1,0
11345,-100,4,2,1,5,0,0
11411,-100,4,2,1,80,0,0
11608,-100,4,2,1,5,0,0
11674,-100,4,2,1,80,0,0
11871,-100,4,2,1,5,0,0
11921,266.666666666667,4,2,1,80,1,0
12121,-100,4,2,1,5,0,0
12187,-100,4,2,1,80,0,0
12321,272.727272727273,4,2,1,80,1,0
12457,265.486725663717,4,2,1,80,1,0
12712,259.74025974026,4,2,1,80,1,0
13231,263.157894736842,4,2,1,80,1,0
13691,-100,4,2,1,5,0,0
13757,-100,4,2,1,80,0,0
14744,-100,4,2,1,5,0,0
14810,-100,4,2,1,80,0,0
15351,263.157894736842,4,2,1,80,1,0
15549,-100,4,2,1,5,0,0
15614,258.620689655172,4,2,1,80,1,0
15807,-100,4,2,1,5,0,0
15872,264.31718061674,4,2,1,80,1,0
16070,-100,4,2,1,5,0,0
16136,-100,4,2,1,80,0,0
16335,-100,4,2,1,5,0,0
16400,258.620689655172,4,2,1,80,1,0
16593,-100,4,2,1,5,0,0
16658,-100,4,2,1,80,0,0
16917,291.26213592233,4,2,1,80,1,0
17062,241.935483870968,4,2,1,80,1,0
17182,270.27027027027,4,2,1,80,1,0
17452,263.157894736842,4,2,1,80,1,0
17649,-100,4,2,1,5,0,0
17715,-100,4,2,1,80,0,0
18175,-100,4,2,1,5,0,0
18241,-100,4,2,1,80,0,0
20017,-100,4,2,1,5,0,0
20083,-100,4,2,1,80,0,0
20280,-100,4,2,1,5,0,0
20346,-100,4,2,1,80,0,0
21662,283.018867924528,4,2,1,80,1,0
21945,263.157894736842,4,2,1,80,1,0
22142,-100,4,2,1,5,0,0
22208,-100,4,2,1,80,0,0
22405,-100,4,2,1,5,0,0
22471,269.058295964126,4,2,1,80,1,0
22729,260.869565217391,4,2,1,80,1,0
23120,263.157894736842,4,2,1,80,1,0
23777,265.486725663717,4,2,1,80,1,0
24043,269.058295964126,4,2,1,80,1,0
24244,-100,4,2,1,5,0,0
24312,250,4,2,1,80,1,0
24499,-100,4,2,1,5,0,0
24562,267.857142857143,4,2,1,80,1,0
25365,263.157894736842,4,2,1,80,1,0
25562,-100,4,2,1,5,0,0
25628,-100,4,2,1,80,0,0
25891,263.157894736842,4,2,1,80,1,0
26285,-100,4,2,1,5,0,0
26943,-100,4,2,1,70,0,0
27075,230.769230769231,4,2,1,70,1,0
27190,263.157894736842,4,2,1,70,1,0
27782,-100,4,2,1,5,0,0
27847,275.229357798165,4,2,1,70,1,0
28235,265.486725663717,4,2,1,70,1,0
28899,269.058295964126,4,2,1,70,1,0
29169,263.157894736842,4,2,1,70,1,0
29695,270.27027027027,4,2,1,70,1,0
29965,263.157894736842,4,2,1,70,1,0
30228,254.237288135593,4,2,1,70,1,0
30482,263.157894736842,4,2,1,70,1,0
31139,263.157894736842,4,2,1,70,1,0
31204,-100,4,2,1,5,0,0
31270,-100,4,2,1,70,0,0
31862,-100,4,2,1,5,0,0
31928,-100,4,2,1,70,0,0
33310,-100,4,2,1,5,0,0
33376,-100,4,2,1,70,0,0
35020,-100,4,2,1,5,0,0
35086,-100,4,2,1,70,0,0
35283,-100,4,2,1,5,0,0
35349,-100,4,2,1,70,0,0
35612,270.27027027027,4,2,1,70,1,0
36422,265.486725663717,4,2,1,65,1,0
36621,-100,4,2,1,5,0,0
36687,-100,4,2,1,65,0,0
36940,263.157894736842,4,2,1,65,1,0
37729,260.869565217391,4,2,1,65,1,0
37989,263.157894736842,4,2,1,65,1,0
39567,259.74025974026,4,2,1,65,1,0
40360,257.510729613734,4,2,1,65,1,0
40617,263.157894736842,4,2,1,65,1,0
43765,269.058295964126,4,2,1,65,1,0
44303,259.74025974026,4,2,1,65,1,0
44827,263.157894736842,4,2,1,55,1,0
46405,256.410256410256,4,2,1,55,1,0
46661,263.157894736842,4,2,1,55,1,0
46924,263.157894736842,4,2,1,55,1,0
48963,-100,4,2,1,5,0,0
49029,-100,4,2,1,55,0,0
51924,275.229357798165,4,2,1,55,1,0
52199,263.157894736842,4,2,1,55,1,0
52725,259.74025974026,4,2,1,55,1,0
53244,263.157894736842,4,2,1,60,1,0
53704,-100,4,2,1,5,0,0
53770,-100,4,2,1,60,0,0
55283,-100,4,2,1,5,0,0
55349,275.229357798165,4,2,1,60,1,0
55555,-100,4,2,1,5,0,0
55624,258.620689655172,4,2,1,60,1,0
55817,-100,4,2,1,5,0,0
55882,263.157894736842,4,2,1,60,1,0
56079,-100,4,2,1,5,0,0
56145,-100,4,2,1,60,0,0
56408,263.157894736842,4,2,1,60,1,0
56605,-100,4,2,1,5,0,0
56671,-100,4,2,1,60,0,0
57131,-100,4,2,1,5,0,0
57197,-100,4,2,1,60,0,0
57460,-100,4,2,1,65,0,0
57658,-100,4,2,1,5,0,0
57724,-100,4,2,1,65,0,0
57986,258.620689655172,4,2,1,65,1,0
58179,-100,4,2,1,5,0,0
58245,-100,4,2,1,65,0,0
58503,263.157894736842,4,2,1,65,1,0
58700,-100,4,2,1,5,0,0
58766,-100,4,2,1,65,0,0
59029,255.31914893617,4,2,1,65,1,0
59220,-100,4,2,1,5,0,0
59284,271.493212669683,4,2,1,65,1,0
59555,263.157894736842,4,2,1,45,1,0
59752,-100,4,2,1,5,0,0
59818,-100,4,2,1,50,0,0
60015,-100,4,2,1,5,0,0
60081,-100,4,2,1,55,0,0
60278,-100,4,2,1,5,0,0
60344,275.229357798165,4,2,1,60,1,0
60550,-100,4,2,1,5,0,0
60619,263.157894736842,4,2,1,65,1,0
60882,-100,4,2,1,70,0,0
61145,-100,4,2,1,75,0,0
61408,-100,4,2,1,80,0,0
61671,-100,4,2,1,55,0,0
62724,-100,4,2,1,65,0,0
63184,-100,4,2,1,5,0,0
63250,-100,4,2,1,65,0,0
63447,-100,4,2,1,5,0,0
63513,-100,4,2,1,65,0,0
63645,-100,4,2,1,80,0,0
64237,-100,4,2,1,5,0,0
64303,-100,4,2,1,80,0,0
65290,-100,4,2,1,5,0,0
65355,258.620689655172,4,2,1,80,1,0
65613,263.157894736842,4,2,1,80,1,0
65876,263.157894736842,4,2,1,80,1,0
66073,-100,4,2,1,5,0,0
66139,-100,4,2,1,80,0,0
66336,-100,4,2,1,5,0,0
66402,253.164556962025,4,2,1,80,1,0
66591,-100,4,2,1,5,0,0
66655,263.157894736842,4,2,1,80,1,0
66852,-100,4,2,1,5,0,0
66918,263.157894736842,4,2,1,80,1,0
67115,-100,4,2,1,5,0,0
67181,-100,4,2,1,80,0,0
67970,270.27027027027,4,2,1,80,1,0
68172,-100,4,2,1,5,0,0
68240,263.157894736842,4,2,1,80,1,0
68503,-100,4,2,1,80,0,0
68700,-100,4,2,1,5,0,0
68766,-100,4,2,1,80,0,0
69029,263.157894736842,4,2,1,80,1,0
69226,-100,4,2,1,5,0,0
69292,-100,4,2,1,80,0,0
69555,257.510729613734,4,2,1,80,1,0
69812,263.157894736842,4,2,1,80,1,0
70272,-100,4,2,1,5,0,0
70338,-100,4,2,1,80,0,0
70535,-100,4,2,1,5,0,0
70601,272.727272727273,4,2,1,80,1,0
70805,-100,4,2,1,5,0,0
70873,266.666666666667,4,2,1,80,1,0
71073,-100,4,2,1,5,0,0
71139,-100,4,2,1,80,0,0
71272,279.06976744186,4,2,1,80,1,0
71411,275.229357798165,4,2,1,80,1,0
71686,251.046025104603,4,2,1,80,1,0
72062,260.869565217391,4,2,1,80,1,0
72193,260.869565217391,4,2,1,80,1,0
72453,263.157894736842,4,2,1,80,1,0
72650,-100,4,2,1,5,0,0
72716,263.157894736842,4,2,1,80,1,0
73702,-100,4,2,1,5,0,0
73768,256.410256410256,4,2,1,80,1,0
74024,263.157894736842,4,2,1,80,1,0
74484,-100,4,2,1,5,0,0
74550,267.857142857143,4,2,1,80,1,0
74750,-100,4,2,1,5,0,0
74817,255.31914893617,4,2,1,80,1,0
75008,-100,4,2,1,5,0,0
75072,263.157894736842,4,2,1,80,1,0
75269,-100,4,2,1,5,0,0
75335,-100,4,2,1,80,0,0
75532,-100,4,2,1,5,0,0
75598,-100,4,2,1,80,0,0
75861,285.714285714286,4,2,1,80,1,0
76003,262.008733624454,4,2,1,80,1,0
76134,263.157894736842,4,2,1,80,1,0
76397,263.157894736842,4,2,1,80,1,0
76594,-100,4,2,1,5,0,0
76660,-100,4,2,1,80,0,0
77120,-100,4,2,1,5,0,0
77186,-100,4,2,1,80,0,0
77976,260.869565217391,4,2,1,80,1,0
78367,263.157894736842,4,2,1,80,1,0
78498,263.157894736842,4,2,1,80,1,0
78958,-100,4,2,1,5,0,0
79024,-100,4,2,1,80,0,0
79221,-100,4,2,1,5,0,0
79287,-100,4,2,1,80,0,0
79550,250,4,2,1,80,1,0
79800,272.727272727273,4,2,1,80,1,0
80072,269.058295964126,4,2,1,80,1,0
80610,263.157894736842,4,2,1,80,1,0
81070,-100,4,2,1,5,0,0
81136,-100,4,2,1,80,0,0
81333,-100,4,2,1,5,0,0
81399,-100,4,2,1,80,0,0
83175,-100,4,2,1,5,0,0
83241,-100,4,2,1,80,0,0
83438,-100,4,2,1,5,0,0
83504,-100,4,2,1,80,0,0
84491,-100,4,2,1,5,0,0
84557,-100,4,2,1,80,0,0
85214,-100,4,2,1,5,0,0
85881,256.410256410256,4,2,1,70,1,0
86522,271.493212669683,4,2,1,70,1,0
86929,258.620689655172,4,2,1,75,1,0
87316,275.229357798165,4,2,1,75,1,0
87592,271.493212669683,4,2,1,75,1,0
87999,257.510729613734,4,2,1,80,1,0
89157,-100,4,2,1,5,0,0

[Colours]
Combo1 : 244,217,21
Combo2 : 232,45,82
Combo3 : 40,132,232

[HitObjects]
506,323,649,6,0,L|382:304,1,124.472,8|0,0:0|3:2,0:0:0:0:
298,292,1273,1,10,3:2:0:0:
232,192,1691,2,0,L|352:169,1,124,8|0,0:0|3:2,0:0:0:0:
439,153,2302,1,14,3:2:0:0:
359,52,2738,2,0,B|307:41|307:41|302:34|302:34|238:22,1,120.24,2|0,3:2|0:0,0:0:0:0:
162,62,3397,1,10,0:0:0:0:
84,20,3643,2,0,P|48:68|55:134,1,120.072,10|0,0:0|0:0,0:0:0:0:
2,309,4677,6,0,B|58:283|58:283|118:312,1,120,14|8,3:2|0:0,0:0:0:0:
190,342,5343,1,2,3:2:0:0:
316,380,5748,2,0,P|375:363|438:347,1,116.744,2|8,0:0|0:0,0:0:0:0:
510,318,6409,1,2,3:2:0:0:
476,190,6798,6,0,P|428:184|350:173,1,120,2|10,0:0|0:0,0:0:0:0:
302,243,7453,2,0,P|269:217|225:219,1,80.1919999999999,2|10,3:2|0:0,0:0:0:0:
153,257,7981,2,0,P|114:251|67:246,1,80.0959999999999,2|10,3:2|0:0,0:0:0:0:
14,182,8507,1,2,3:2:0:0:
89,73,8902,6,0,B|126:64|154:86|141:95|165:115|201:102,1,120.144,2|10,0:0|0:0,0:0:0:0:
267,48,9559,1,2,3:2:0:0:
343,94,9823,1,10,0:0:0:0:
413,42,10086,2,0,P|452:47|489:72,1,79.9999999999999,2|10,3:2|0:0,0:0:0:0:
464,153,10616,1,2,3:2:0:0:
504,278,11021,6,0,P|451:307|384:292,1,116,2|10,0:0|0:0,0:0:0:0:
333,240,11674,1,2,3:2:0:0:
278,308,11921,1,10,0:0:0:0:
199,273,12187,2,0,L|110:292,1,81.1999999999999,2|8,3:2|0:0,0:0:0:0:
35,308,12712,1,10,0:0:0:0:
0,173,13101,6,0,B|57:181|57:181|59:189|59:189|117:196,1,121.232,6|8,3:2|0:0,0:0:0:0:
178,134,13757,1,2,3:2:0:0:
281,215,14152,2,0,P|333:224|391:185,1,120.144,2|8,0:0|0:0,0:0:0:0:
444,122,14809,1,2,3:2:0:0:
363,17,15204,6,0,P|314:27|230:46,1,125,2|10,0:0|0:0,0:0:0:0:
176,104,15872,1,2,3:2:0:0:
108,43,16136,1,10,0:0:0:0:
32,88,16400,2,0,P|9:122|14:170,1,80.0746666666663,2|10,3:2|0:0,0:0:0:0:
58,231,16917,1,2,3:2:0:0:
7,351,17317,6,0,B|61:324|61:324|116:346,1,117.928,2|10,0:0|0:0,0:0:0:0:
196,377,17978,1,2,3:2:0:0:
265,322,18241,1,10,0:0:0:0:
341,364,18504,2,0,P|381:366|429:340,2,80.0959999999999,10|10|8,0:0|0:0|3:3,0:0:0:0:
298,238,19425,6,0,B|326:185|326:185|299:116,1,120.144,10|10,3:2|0:0,0:0:0:0:
230,178,20083,2,0,P|187:180|141:157,1,80.0959999999999,6|10,1:1|0:0,0:0:0:0:
93,102,20609,1,2,3:2:0:0:
203,30,21004,1,2,3:1:0:0:
279,73,21267,1,2,3:1:0:0:
384,9,21662,6,0,P|398:49|413:87,1,79.9999999999999,10|10,3:2|0:0,0:0:0:0:
488,127,22208,2,0,P|457:167|454:205,1,79.9999999999999,6|10,1:1|0:0,0:0:0:0:
494,271,22729,1,10,3:2:0:0:
386,345,23120,1,2,3:1:0:0:
306,307,23383,1,2,3:1:0:0:
183,350,23777,6,0,P|174:311|160:262,1,80.3013333333332,10|10,3:2|0:0,0:0:0:0:
218,199,24312,2,0,P|250:220|298:216,1,79.9999999999999,6|10,1:1|0:0,0:0:0:0:
359,164,24829,1,10,3:2:0:0:
265,71,25231,1,2,3:1:0:0:
184,108,25496,1,2,3:1:0:0:
73,35,25891,6,0,B|60:93|60:93|64:98|64:98|52:160,1,120.144,6|0,1:1|0:0,0:0:0:0:
53,151,27190,2,0,P|75:185|70:236,1,80.0959999999999,10|8,0:0|3:3,0:0:0:0:
25,339,27847,6,0,P|82:329|143:318,1,113,14|2,3:2|3:2,0:0:0:0:
219,359,28500,1,8,0:0:0:0:
316,272,28899,2,0,B|360:271|382:294|362:300|389:323|426:316,1,119.405333333333,2|2,3:2|3:2,0:0:0:0:
492,266,29563,1,8,0:0:0:0:
393,174,29965,6,0,P|404:137|417:90,1,79.9999999999999,14|2,0:0|0:0,0:0:0:0:
356,31,30482,1,10,0:0:0:0:
288,87,30745,1,2,0:0:0:0:
208,47,31008,2,0,B|154:58|154:58|151:66|151:66|93:78,1,120,10|0,0:0|3:2,0:0:0:0:
41,146,31665,1,8,0:0:0:0:
131,242,32060,6,0,B|179:207|179:207|236:228,1,120.144,6|2,3:2|3:2,0:0:0:0:
315,191,32717,1,10,0:0:0:0:
381,305,33112,2,0,P|321:314|246:330,1,120.144,2|2,3:2|3:2,0:0:0:0:
186,369,33770,1,8,0:0:0:0:
121,309,34033,1,2,3:2:0:0:
37,336,34296,6,0,P|11:302|12:251,1,80.0959999999999,2|2,3:2|3:2,0:0:0:0:
72,206,34823,2,0,P|98:172|97:121,1,80.0959999999999,10|8,0:0|0:0,0:0:0:0:
59,58,35349,1,2,3:2:0:0:
135,18,35612,2,0,B|184:7|225:34|201:52|241:76|295:57,1,160.024,4|0,3:1|0:0,0:0:0:0:
353,8,36422,5,6,3:2:0:0:
488,115,36940,1,10,0:0:0:0:
405,269,37466,2,0,P|330:255|245:241,1,159.088,2|8,3:2|0:0,0:0:0:0:
180,297,38252,6,0,P|117:309|69:266,1,120.144,2|10,3:2|0:0,0:0:0:0:
19,157,39041,2,0,P|30:118|43:70,1,80.0959999999999,10|2,0:0|0:0,0:0:0:0:
116,33,39567,1,2,0:0:0:0:
270,116,40086,1,10,0:0:0:0:
212,189,40360,1,8,0:0:0:0:
253,264,40617,5,6,3:2:0:0:
397,164,41143,1,10,0:0:0:0:
323,4,41669,2,0,P|242:23|156:39,1,160,2|8,3:2|0:0,0:0:0:0:
77,18,42459,6,0,P|41:68|51:131,1,120.144,10|10,0:0|0:0,0:0:0:0:
4,248,43248,2,0,P|42:257|95:271,1,80.0959999999999,10|2,0:0|3:2,0:0:0:0:
127,351,43765,1,10,0:0:0:0:
218,356,44034,1,2,3:2:0:0:
271,282,44303,2,0,P|311:290|364:299,1,80.1480000000001,10|8,0:0|3:3,0:0:0:0:
415,357,44827,6,0,P|472:361|511:304,2,120.144,6|0|2,3:2|3:2|3:2,0:0:0:0:
349,296,45879,1,10,0:0:0:0:
95,359,46661,1,10,0:0:0:0:
139,283,46924,6,0,P|123:223|107:152,2,120.144,6|0|2,3:2|3:2|3:2,0:0:0:0:
217,323,47976,1,8,0:0:0:0:
440,182,48766,1,2,3:2:0:0:
375,121,49029,6,0,P|329:93|252:112,2,120.144,6|0|2,3:2|3:2|3:2,0:0:0:0:
440,182,50081,1,10,0:0:0:0:
181,238,50871,1,10,0:0:0:0:
136,161,51134,6,0,P|152:101|168:30,2,120.152,4|0|2,3:2|3:2|3:2,0:0:0:0:
57,208,52199,2,0,P|67:246|79:294,1,80.0959999999999,8|2,0:0|3:2,0:0:0:0:
103,370,52725,1,8,0:0:0:0:
267,315,53244,6,0,B|338:334|338:334|347:342|347:342|434:362,1,160.192,12|10,0:0|0:0,0:0:0:0:
478,293,54033,1,2,3:2:0:0:
417,229,54296,2,0,P|415:191|442:150,1,80.0959999999999,8|0,0:0|3:2,0:0:0:0:
494,90,54822,1,8,0:0:0:0:
347,6,55349,6,0,P|307:13|268:19,1,79.9999999999999,10|2,0:0|3:2,0:0:0:0:
201,74,55882,2,0,P|161:81|122:87,1,80.0959999999999,10|2,0:0|3:2,0:0:0:0:
43,47,56408,2,0,P|18:83|22:132,1,80.0959999999999,10|2,0:0|3:2,0:0:0:0:
54,197,56934,1,14,0:0:0:0:
5,366,57460,6,0,B|49:339|49:339|157:373,1,160,10|10,0:0|0:0,0:0:0:0:
307,295,58503,2,0,P|296:255|288:218,1,80.0959999999999,10|2,0:0|3:2,0:0:0:0:
212,169,59029,1,10,0:0:0:0:
134,210,59284,1,10,0:0:0:0:
69,150,59555,6,0,P|73:113|112:77,1,80.0959999999999,2|2,3:2|3:2,0:0:0:0:
181,48,60081,2,0,P|218:51|254:90,1,79.9999999999999,2|10,3:2|3:2,0:0:0:0:
317,140,60619,1,10,3:2:0:0:
391,93,60882,1,10,3:2:0:0:
465,139,61145,1,10,3:2:0:0:
465,226,61408,1,10,3:2:0:0:
465,226,62724,6,0,B|423:218|386:251|409:259|373:294|324:284,1,160.192,2|2,3:2|0:0,0:0:0:0:
213,354,63645,6,0,P|218:291|179:251,1,120.144,14|8,3:2|0:0,0:0:0:0:
97,280,64303,1,2,3:2:0:0:
7,178,64697,2,0,P|22:120|36:52,1,120.144,2|8,0:0|0:0,0:0:0:0:
102,2,65355,1,2,3:2:0:0:
194,93,65744,6,0,L|326:71,1,120,2|10,0:0|0:0,0:0:0:0:
381,133,66402,2,0,P|414:107|458:109,1,79.9999999999999,2|10,3:2|0:0,0:0:0:0:
507,173,66918,2,0,P|499:212|492:257,1,80.0959999999999,2|10,3:2|0:0,0:0:0:0:
473,337,67444,1,2,3:2:0:0:
342,360,67839,6,0,B|305:369|277:347|290:338|266:318|230:331,1,122.128,2|10,0:0|0:0,0:0:0:0:
151,370,68503,1,2,3:2:0:0:
76,322,68766,1,10,0:0:0:0:
101,237,69029,2,0,P|141:228|183:214,1,80.0959999999999,2|10,3:2|0:0,0:0:0:0:
238,149,69555,1,2,3:2:0:0:
337,232,69943,6,0,P|390:245|446:201,1,120,2|10,0:0|0:0,0:0:0:0:
500,148,70601,1,2,3:2:0:0:
475,61,70873,1,10,0:0:0:0:
391,25,71139,2,0,P|349:34|312:41,1,81.7999999999999,2|8,3:2|0:0,0:0:0:0:
239,94,71686,1,10,0:0:0:0:
128,32,72062,6,0,B|98:71|98:71|117:143,1,120,6|8,3:2|0:0,0:0:0:0:
139,224,72716,1,2,3:2:0:0:
243,144,73110,2,0,P|295:135|353:174,1,120.144,2|8,0:0|0:0,0:0:0:0:
417,228,73768,1,2,3:2:0:0:
349,338,74155,6,0,P|298:348|223:363,1,120,2|10,0:0|0:0,0:0:0:0:
140,380,74817,1,2,3:2:0:0:
98,305,75072,1,10,0:0:0:0:
150,229,75335,2,0,P|168:192|160:145,1,80.0959999999999,2|10,3:2|0:0,0:0:0:0:
101,93,75861,1,2,3:2:0:0:
213,12,76265,6,0,B|270:23|270:23|270:31|270:31|338:45,1,120.304,2|10,0:0|0:0,0:0:0:0:
408,20,76923,1,2,3:2:0:0:
427,105,77186,1,10,0:0:0:0:
359,161,77449,2,0,P|319:163|271:137,2,80.1519999999999,10|10|8,0:0|0:0|3:3,0:0:0:0:
440,263,78367,6,0,B|410:257|379:280|401:289|368:314|331:306,1,120,10|10,3:2|0:0,0:0:0:0:
261,258,79024,2,0,P|218:256|172:279,1,80.0959999999999,6|10,1:1|0:0,0:0:0:0:
104,315,79550,1,2,3:2:0:0:
37,209,79936,1,2,3:1:0:0:
95,142,80206,1,2,3:1:0:0:
40,18,80610,6,0,P|82:29|117:36,1,80.0959999999999,10|10,3:2|0:0,0:0:0:0:
200,6,81136,2,0,P|231:46|234:84,1,80.0959999999999,6|10,1:1|0:0,0:0:0:0:
290,142,81662,1,10,3:2:0:0:
221,255,82057,1,2,3:1:0:0:
263,331,82320,1,2,3:1:0:0:
387,374,82715,6,0,P|396:335|410:286,1,80.0959999999999,10|10,3:2|0:0,0:0:0:0:
473,238,83241,2,0,P|452:206|456:158,1,80.0959999999999,6|10,1:1|0:0,0:0:0:0:
502,92,83767,1,10,3:2:0:0:
389,22,84162,1,2,3:1:0:0:
315,69,84425,1,2,3:1:0:0:
195,12,84820,6,0,B|137:25|137:25|132:21|132:21|70:33,1,120.144,6|0,1:1|0:0,0:0:0:0:
5,240,85881,6,0,P|67:251|131:265,1,120.192,8|0,0:0|3:2,0:0:0:0:
187,324,86522,1,10,3:2:0:0:
298,242,86929,6,0,P|360:253|420:267,1,120,8|0,0:0|3:2,0:0:0:0:
487,214,87592,1,10,3:2:0:0:
389,104,87999,6,0,B|348:88|305:111|332:127|283:151|240:126,1,160.013333333334,6|10,3:1|0:0,0:0:0:0:
172,71,88771,2,0,P|116:83|48:96,1,120.165333333334,6|0,3:1|0:0,0:0:0:0:
