osu file format v14

[General]
AudioFilename: audio.mp3
AudioLeadIn: 0
PreviewTime: 63250
Countdown: 0
SampleSet: Soft
StackLeniency: 0.7
Mode: 0
LetterboxInBreaks: 0
WidescreenStoryboard: 1

[Editor]
DistanceSpacing: 0.6
BeatDivisor: 4
GridSize: 8
TimelineZoom: 5.600002

[Metadata]
Title:BAKU (TV Size)
TitleUnicode:BAKU (TV Size)
Artist:Ikimonogakari
ArtistUnicode:いきものがかり
Creator:Nymphe
Version:Normal
Source:BORUTO-ボルト- NARUTO NEXT GENERATIONS
Tags:テレビ東京系アニメーション オープニングテーマ 吉岡聖恵 Kiyoe Yoshioka 山下穂尊 Hotaka Yamashita 水野良樹 Yoshiki Mizuno Hiroyuki Yamashita Masashi Kishimoto Ukyō Kodachi Yasuharu Takanashi Noriyuki Abe Toshirō Fujii Masayuki Kōda Makoto Uezu Masaya Honda Weekly Shōnen Jump Japanese Anime OP J-Pop Jpop Pop Opening 8 Eight Kujinn Reform -Kemsyt kiyoshi guarden
BeatmapID:3007558
BeatmapSetID:1464004

[Difficulty]
HPDrainRate:4
CircleSize:3.5
OverallDifficulty:4.5
ApproachRate:6
SliderMultiplier:0.899999999999999
SliderTickRate:1

[Events]
//Background and Video events
0,0,"Background.png",0,0
Video,460,"video.mp4"
//Break Periods
//Storyboard Layer 0 (Background)
//Storyboard Layer 1 (Fail)
//Storyboard Layer 2 (Pass)
//Storyboard Layer 3 (Foreground)
//Storyboard Layer 4 (Overlay)
//Storyboard Sound Samples

[TimingPoints]
528,243.90243902439,4,2,1,75,1,0
649,232.558139534884,4,2,1,75,1,0
649,-104.166666666667,4,2,1,75,0,0
881,258.620689655172,4,2,1,75,1,0
1273,209.059233449477,4,2,1,75,1,0
1691,240,4,2,1,75,1,0
1691,-103.092783505155,4,2,1,75,0,0
2062,240,4,2,1,75,1,0
2302,218.181818181818,4,2,1,75,1,0
2738,270.27027027027,4,2,1,75,1,0
3278,238.095238095238,4,2,1,75,1,0
3397,245.901639344262,4,2,1,75,1,0
3643,256.410256410256,4,2,1,75,1,0
4284,265.486725663717,4,2,1,85,1,0
4549,256.410256410256,4,2,1,85,1,0
4677,269.058295964126,4,2,1,95,1,0
4812,267.857142857143,4,2,1,95,1,0
5080,263.157894736842,4,2,1,95,1,0
5343,270.27027027027,4,2,1,95,1,0
5748,-96.1538461538461,4,2,1,95,0,0
5879,263.157894736842,4,2,1,95,1,0
6409,259.74025974026,4,2,1,95,1,0
7188,265.486725663717,4,2,1,95,1,0
7453,264.31718061674,4,2,1,95,1,0
7981,263.157894736842,4,2,1,95,1,0
10349,267.857142857143,4,2,1,95,1,0
10616,270.27027027027,4,2,1,95,1,0
11021,-96.1538461538461,4,2,1,95,0,0
11148,263.157894736842,4,2,1,95,1,0
11921,266.666666666667,4,2,1,95,1,0
12321,272.727272727273,4,2,1,95,1,0
12457,265.486725663717,4,2,1,95,1,0
12712,259.74025974026,4,2,1,95,1,0
13101,-103.092783505155,4,2,1,95,0,0
13231,263.157894736842,4,2,1,95,1,0
15351,263.157894736842,4,2,1,95,1,0
15614,258.620689655172,4,2,1,95,1,0
15872,264.31718061674,4,2,1,95,1,0
16400,258.620689655172,4,2,1,95,1,0
16917,291.26213592233,4,2,1,95,1,0
17062,241.935483870968,4,2,1,95,1,0
17182,270.27027027027,4,2,1,95,1,0
17452,263.157894736842,4,2,1,95,1,0
21662,283.018867924528,4,2,1,85,1,0
21945,263.157894736842,4,2,1,85,1,0
22471,269.058295964126,4,2,1,85,1,0
22729,260.869565217391,4,2,1,85,1,0
23120,263.157894736842,4,2,1,85,1,0
23777,265.486725663717,4,2,1,85,1,0
24043,269.058295964126,4,2,1,85,1,0
24312,250,4,2,1,85,1,0
24562,267.857142857143,4,2,1,85,1,0
25365,263.157894736842,4,2,1,85,1,0
25891,263.157894736842,4,2,1,100,1,0
26943,-94.3396226415094,4,2,1,75,0,0
27075,230.769230769231,4,2,1,75,1,0
27075,-120.481927710843,4,2,1,75,0,0
27190,263.157894736842,4,2,1,75,1,0
27847,275.229357798165,4,2,1,75,1,0
27847,-101.010101010101,4,2,1,75,0,0
28235,265.486725663717,4,2,1,75,1,0
28899,269.058295964126,4,2,1,75,1,0
28899,-100,4,2,1,75,0,0
29169,263.157894736842,4,2,1,75,1,0
29695,270.27027027027,4,2,1,75,1,0
29965,263.157894736842,4,2,1,75,1,0
30228,254.237288135593,4,2,1,75,1,0
30482,263.157894736842,4,2,1,75,1,0
31139,263.157894736842,4,2,1,75,1,0
35612,270.27027027027,4,2,1,85,1,0
36422,265.486725663717,4,2,1,75,1,0
36422,-97.0873786407767,4,2,1,75,0,0
36940,263.157894736842,4,2,1,75,1,0
37729,260.869565217391,4,2,1,75,1,0
37989,263.157894736842,4,2,1,75,1,0
39567,259.74025974026,4,2,1,75,1,0
39956,-106.382978723404,4,2,1,75,0,0
40360,257.510729613734,4,2,1,75,1,0
40617,263.157894736842,4,2,1,75,1,0
43765,269.058295964126,4,2,1,75,1,0
43781,-100,4,2,1,75,0,0
44303,259.74025974026,4,2,1,75,1,0
44827,263.157894736842,4,2,1,55,1,0
46405,256.410256410256,4,2,1,55,1,0
46661,263.157894736842,4,2,1,55,1,0
46924,263.157894736842,4,2,1,55,1,0
51924,275.229357798165,4,2,1,65,1,0
52199,263.157894736842,4,2,1,65,1,0
52725,259.74025974026,4,2,1,75,1,0
53244,263.157894736842,4,2,1,75,1,0
55349,275.229357798165,4,2,1,75,1,0
55624,258.620689655172,4,2,1,75,1,0
55882,263.157894736842,4,2,1,75,1,0
56408,263.157894736842,4,2,1,75,1,0
57986,258.620689655172,4,2,1,75,1,0
58503,263.157894736842,4,2,1,75,1,0
59029,255.31914893617,4,2,1,75,1,0
59284,271.493212669683,4,2,1,75,1,0
59555,263.157894736842,4,2,1,85,1,0
60344,275.229357798165,4,2,1,95,1,0
60619,263.157894736842,4,2,1,65,1,0
65355,258.620689655172,4,2,1,95,1,0
65613,263.157894736842,4,2,1,95,1,0
65876,263.157894736842,4,2,1,95,1,0
66402,253.164556962025,4,2,1,95,1,0
66655,263.157894736842,4,2,1,95,1,0
66918,263.157894736842,4,2,1,95,1,0
67970,270.27027027027,4,2,1,95,1,0
68240,263.157894736842,4,2,1,95,1,0
69029,263.157894736842,4,2,1,95,1,0
69555,257.510729613734,4,2,1,95,1,0
69812,263.157894736842,4,2,1,95,1,0
70601,272.727272727273,4,2,1,95,1,0
70873,266.666666666667,4,2,1,95,1,0
71272,279.06976744186,4,2,1,95,1,0
71411,275.229357798165,4,2,1,95,1,0
71686,251.046025104603,4,2,1,95,1,0
72062,260.869565217391,4,2,1,95,1,0
72193,260.869565217391,4,2,1,95,1,0
72453,263.157894736842,4,2,1,95,1,0
72716,263.157894736842,4,2,1,95,1,0
73768,256.410256410256,4,2,1,95,1,0
74024,263.157894736842,4,2,1,95,1,0
74550,267.857142857143,4,2,1,95,1,0
74817,255.31914893617,4,2,1,95,1,0
75072,263.157894736842,4,2,1,95,1,0
75861,285.714285714286,4,2,1,95,1,0
76003,262.008733624454,4,2,1,95,1,0
76134,263.157894736842,4,2,1,95,1,0
76397,263.157894736842,4,2,1,95,1,0
77976,260.869565217391,4,2,1,85,1,0
78367,263.157894736842,4,2,1,85,1,0
78498,263.157894736842,4,2,1,85,1,0
79550,250,4,2,1,85,1,0
79800,272.727272727273,4,2,1,85,1,0
80072,269.058295964126,4,2,1,85,1,0
80610,263.157894736842,4,2,1,85,1,0
85881,256.410256410256,4,2,1,85,1,0
86522,271.493212669683,4,2,1,85,1,0
86929,258.620689655172,4,2,1,85,1,0
87316,270.27027027027,4,2,1,75,1,0
87316,-106.382978723404,4,2,1,75,0,0
87592,271.493212669683,4,2,1,85,1,0
87999,257.510729613734,4,2,1,95,1,0

[Colours]
Combo1 : 78,152,214
Combo2 : 231,235,52
Combo3 : 198,173,159
Combo4 : 225,77,81

[HitObjects]
45,29,649,6,0,P|84:86|79:160,1,133.839,10|2,2:0|3:2,0:0:0:0:
28,221,1273,1,2,3:2:0:0:
100,335,1691,2,0,P|149:297|223:313,1,135,10|2,2:0|3:2,0:0:0:0:
281,372,2302,1,10,2:0:0:0:
413,357,2738,6,0,B|465:283|465:283|427:200,1,180,2|0,3:2|3:2,0:0:0:0:
401,167,3397,1,10,2:0:0:0:
328,213,3643,1,10,2:0:0:0:
29,158,4284,6,0,P|3:109|29:65,1,89.9999999999999,2|10,2:0|2:0,0:0:0:0:
44,47,4677,2,0,B|108:27|108:27|182:57,1,135,6|8,3:2|2:0,0:0:0:0:
227,122,5343,2,0,P|266:132|311:91,1,89.9999999999999,2|10,3:2|2:0,0:0:0:0:
339,76,5748,2,0,P|391:124|378:186,1,136.665,2|8,2:0|2:0,0:0:0:0:
312,240,6409,1,2,3:2:0:0:
358,316,6668,1,10,2:0:0:0:
282,364,6928,6,0,L|179:348,1,90.3464999999999,2|10,3:2|2:0,0:0:0:0:
106,323,7453,2,0,P|88:277|104:226,1,89.9999999999999,2|10,3:2|2:0,0:0:0:0:
166,182,7981,2,0,L|183:92,1,89.9999999999999,2|8,3:2|2:0,0:0:0:0:
237,22,8507,2,0,L|177:8,2,45,2|2|8,3:2|2:0|2:0,0:0:0:0:
281,30,8902,6,0,P|350:53|352:120,1,135,2|10,2:0|2:0,0:0:0:0:
298,176,9559,2,0,B|277:217|277:217|296:258,1,89.9999999999999,2|10,3:2|2:0,0:0:0:0:
326,341,10086,2,0,L|430:328,1,89.9999999999999,2|10,3:2|2:0,0:0:0:0:
468,257,10616,2,0,L|518:269,2,45,2|2|8,3:2|2:0|2:0,0:0:0:0:
427,245,11021,6,0,P|396:185|427:116,1,135.333,2|10,2:0|2:0,0:0:0:0:
472,53,11674,1,2,3:2:0:0:
402,6,11921,1,10,2:0:0:0:
330,60,12187,2,0,L|220:48,1,91.3499999999999,2|8,3:2|2:0,0:0:0:0:
163,96,12712,2,0,L|68:76,1,89.9999999999999,10|8,2:0|2:3,0:0:0:0:
31,68,13101,6,0,B|-3:129|-3:129|26:207,1,132.305579592132,6|8,3:2|2:0,0:0:0:0:
32,278,13757,2,0,P|80:300|123:273,1,89.9999999999999,2|10,3:2|2:0,0:0:0:0:
188,239,14283,2,0,P|219:277|210:317,1,89.9999999999999,2|8,3:2|2:0,0:0:0:0:
287,371,14809,1,2,3:2:0:0:
287,371,14941,2,0,P|339:379|395:343,1,89.9999999999999,2|2,2:0|2:0,0:0:0:0:
407,337,15351,6,0,L|410:236,1,89.9999999999999,2|10,3:2|2:0,0:0:0:0:
487,200,15872,2,0,L|473:92,1,89.9999999999999,2|10,3:2|2:0,0:0:0:0:
416,42,16400,2,0,B|370:28|370:28|304:49,1,89.9999999999999,2|8,3:2|2:0,0:0:0:0:
262,99,16917,1,2,3:2:0:0:
262,99,17062,2,0,L|272:159,1,45,2|8,2:0|2:0,0:0:0:0:
272,188,17317,6,0,B|210:219|210:219|119:192,1,132.669,2|10,2:0|2:0,0:0:0:0:
74,147,17978,1,2,3:2:0:0:
23,72,18241,1,10,2:0:0:0:
101,15,18504,2,0,L|193:29,1,89.9999999999999,10|10,2:0|2:0,0:0:0:0:
255,91,19030,1,8,2:3:0:0:
255,91,19162,2,0,L|311:89,1,45,8|0,2:3|2:0,0:0:0:0:
345,90,19425,6,0,P|376:152|358:221,1,135,2|10,3:2|2:0,0:0:0:0:
305,283,20083,1,6,3:2:0:0:
231,231,20346,1,10,2:0:0:0:
170,297,20609,2,0,P|128:317|79:297,1,89.9999999999999,2|10,3:2|2:0,0:0:0:0:
56,273,21004,2,0,L|50:208,1,45,6|8,3:2|2:0,0:0:0:0:
31,188,21267,1,6,3:2:0:0:
86,64,21662,6,0,L|197:54,1,89.9999999999999,10|10,2:0|2:0,0:0:0:0:
234,124,22208,2,0,L|323:132,1,89.9999999999999,6|10,3:2|2:0,0:0:0:0:
413,120,22729,2,0,P|438:164|431:200,1,89.9999999999999,2|10,3:2|2:0,0:0:0:0:
402,234,23120,2,0,L|410:284,1,45,6|8,3:2|2:3,0:0:0:0:
413,323,23383,1,6,3:2:0:0:
288,375,23777,6,0,L|278:283,1,90.3389999999999,2|10,3:2|2:0,0:0:0:0:
267,195,24312,2,0,P|217:183|176:207,1,89.9999999999999,6|10,3:2|2:0,0:0:0:0:
138,276,24829,2,0,P|88:288|45:259,1,89.9999999999999,2|10,3:2|2:0,0:0:0:0:
25,237,25231,2,0,L|11:186,1,45.336,6|0,3:2|3:0,0:0:0:0:
31,152,25496,2,0,L|44:58,1,89.9999999999999,14|8,2:0|2:0,0:0:0:0:
25,21,25891,1,4,2:0:0:0:
453,22,26943,5,2,2:0:0:0:
453,22,27075,2,0,L|438:161,1,122.850004123993,2|8,2:0|2:3,0:0:0:0:
462,182,27584,1,8,2:3:0:0:
403,243,27847,6,0,P|339:266|277:233,1,126.000001538086,10|2,2:0|3:2,0:0:0:0:
257,215,28367,1,2,2:0:0:0:
257,215,28500,2,0,L|195:209,1,45,10|0,2:0|2:0,0:0:0:0:
131,171,28899,2,0,L|121:226,1,45,2|0,3:2|0:0,0:0:0:0:
87,245,29169,2,0,L|97:300,1,45,10|0,2:0|0:0,0:0:0:0:
113,330,29432,2,0,B|162:318|162:318|208:334,1,89.9999999999999,2|0,2:0|2:0,0:0:0:0:
281,373,29965,6,0,P|340:386|398:342,1,133.623,10|2,2:0|3:2,0:0:0:0:
420,309,30482,1,10,2:0:0:0:
491,254,30745,1,2,2:0:0:0:
421,207,31008,2,0,B|388:147|388:147|415:83,1,135,10|0,2:0|3:0,0:0:0:0:
474,19,31665,2,0,L|375:4,1,89.9999999999999,8|0,2:0|3:0,0:0:0:0:
343,23,32060,6,0,P|296:8|255:26,1,89.9999999999999,4|0,0:0|0:0,0:0:0:0:
232,56,32454,1,2,3:2:0:0:
197,139,32717,2,0,L|98:123,1,89.9999999999999,10|0,2:0|2:0,0:0:0:0:
63,118,33112,2,0,B|35:158|35:158|47:202,1,89.9999999999999,2|8,3:2|2:0,0:0:0:0:
62,239,33507,1,2,3:2:0:0:
75,327,33770,2,0,P|119:348|164:329,1,89.9999999999999,10|2,2:0|3:2,0:0:0:0:
202,325,34165,1,8,2:0:0:0:
202,325,34296,6,0,P|213:272|183:238,1,89.9999999999999,2|2,3:2|3:2,0:0:0:0:
174,161,34823,2,0,P|225:140|273:157,1,89.9999999999999,10|10,2:0|2:0,0:0:0:0:
295,228,35349,1,10,2:0:0:0:
359,287,35612,2,0,P|446:222|430:153,1,180,14|0,2:0|2:0,0:0:0:0:
386,82,36422,6,0,B|342:49|293:79|311:103|281:145|223:122,1,181.356,6|10,3:2|2:0,0:0:0:0:
114,9,37466,1,2,3:2:0:0:
114,9,37597,2,0,P|88:55|98:100,1,89.6579999999999,10|2,2:0|3:2,0:0:0:0:
117,128,37989,1,8,2:0:0:0:
197,168,38252,2,0,P|164:236|63:226,1,180,2|2,3:2|3:2,0:0:0:0:
7,167,39041,2,0,P|-17:211|-5:264,1,89.9999999999999,10|2,2:0|3:2,0:0:0:0:
19,342,39567,6,0,L|68:350,1,45,2|8,3:2|2:0,0:0:0:0:
98,377,39826,1,2,3:2:0:0:
98,377,39956,2,0,L|193:354,1,84.5999987091064,2|0,3:2|2:0,0:0:0:0:
228,342,40360,1,8,2:0:0:0:
315,341,40617,2,0,P|326:295|292:250,1,89.9999999999999,2|2,3:2|2:0,0:0:0:0:
238,210,41143,2,0,P|217:170|229:128,1,89.9999999999999,10|0,2:0|3:0,0:0:0:0:
301,76,41669,5,2,3:2:0:0:
301,76,41801,2,0,L|401:100,1,89.9999999999999,8|2,2:0|3:2,0:0:0:0:
429,115,42195,1,8,2:0:0:0:
489,181,42459,2,0,B|513:245|513:245|473:320,1,135,10|2,2:0|3:2,0:0:0:0:
361,384,43248,2,0,L|264:376,1,89.9999999999999,10|2,2:0|3:2,0:0:0:0:
234,350,43643,1,2,2:0:0:0:
234,350,43765,2,0,P|216:302|241:257,1,89.9999999999999,8|8,2:0|2:3,0:0:0:0:
259,234,44168,1,8,2:3:0:0:
456,157,44827,6,0,P|436:75|334:75,1,180,6|2,2:0|3:2,0:0:0:0:
273,18,45616,1,2,3:2:0:0:
256,106,45879,2,0,B|207:76|151:117|187:136|145:181|90:157,1,180,10|2,2:0|2:0,0:0:0:0:
49,89,46661,2,0,B|-5:161|-5:161|26:245,1,180,10|2,2:0|0:0,0:0:0:0:
158,367,47713,2,0,B|220:343|220:343|261:374|261:374|326:352,1,180,2|2,3:2|2:0,0:0:0:0:
462,245,48766,1,2,2:0:0:0:
411,171,49029,6,0,B|368:198|329:165|329:165|275:178|285:238,1,180,2|2,3:2|2:0,0:0:0:0:
215,291,49818,1,2,3:2:0:0:
275,357,50081,2,0,P|356:370|389:277,1,180,10|2,2:0|2:0,0:0:0:0:
380,203,50871,2,0,L|434:192,1,45,10|8,2:0|2:0,0:0:0:0:
468,186,51134,2,0,B|512:107|512:107|460:25,1,180,2|2,3:2|2:0,0:0:0:0:
379,16,51924,1,2,3:2:0:0:
331,97,52199,2,0,P|283:118|236:99,1,89.9999999999999,8|0,2:0|3:0,0:0:0:0:
201,30,52725,2,0,P|160:23|119:44,1,89.9999999999999,8|8,2:0|2:3,0:0:0:0:
108,132,53244,6,0,P|31:97|44:5,2,180,10|10|8,2:0|2:0|2:0,0:0:0:0:
190,167,54559,2,0,P|213:204|201:258,1,89.9999999999999,0|8,3:0|2:0,0:0:0:0:
173,278,54954,1,0,3:0:0:0:
48,344,55349,6,0,L|142:364,1,89.9999999999999,10|2,2:0|3:2,0:0:0:0:
220,338,55882,2,0,L|314:318,1,89.9999999999999,10|2,2:0|3:2,0:0:0:0:
383,368,56408,1,8,2:0:0:0:
454,313,56671,1,0,3:0:0:0:
381,247,56934,2,0,P|377:201|373:150,1,89.9999999999999,10|2,2:0|2:0,0:0:0:0:
447,105,57460,6,0,P|402:42|308:64,1,180,10|10,2:0|2:0,0:0:0:0:
244,223,58503,2,0,L|138:208,1,89.9999999999999,10|2,2:0|3:2,0:0:0:0:
107,130,59029,1,10,2:0:0:0:
39,180,59284,1,10,2:0:0:0:
256,192,59555,12,2,61671,2:0:0:0:
269,29,62724,6,0,L|417:52,1,135,2|0,3:2|0:0,0:0:0:0:
446,62,63250,2,0,P|472:96|442:144,1,89.9999999999999,2|10,2:0|2:0,0:0:0:0:
424,166,63645,6,0,L|398:308,1,135,6|8,3:2|2:0,0:0:0:0:
343,369,64303,2,0,P|297:357|279:316,1,89.9999999999999,2|10,3:2|2:0,0:0:0:0:
269,277,64697,2,0,L|122:294,1,135,2|8,2:0|2:0,0:0:0:0:
46,275,65355,1,2,3:2:0:0:
104,206,65613,1,10,2:0:0:0:
17,179,65876,6,0,P|3:135|33:82,1,89.9999999999999,2|10,3:2|2:0,0:0:0:0:
85,35,66402,2,0,L|190:58,1,89.9999999999999,2|10,3:2|2:0,0:0:0:0:
261,72,66918,2,0,P|274:116|246:165,1,89.9999999999999,2|8,3:2|2:0,0:0:0:0:
233,241,67444,2,0,L|296:253,2,45,2|2|8,3:2|3:2|2:0,0:0:0:0:
189,232,67839,6,0,P|149:298|175:352,1,137.394,2|10,2:0|2:0,0:0:0:0:
258,361,68503,2,0,P|303:375|351:357,1,89.9999999999999,2|10,3:2|2:0,0:0:0:0:
422,320,69029,2,0,L|440:213,1,89.9999999999999,2|10,3:2|2:0,0:0:0:0:
442,141,69555,2,0,L|496:153,2,45,2|2|8,3:2|3:2|2:0,0:0:0:0:
411,107,69943,6,0,P|359:70|290:101,1,135,2|10,2:0|2:0,0:0:0:0:
249,168,70601,1,2,3:2:0:0:
187,101,70873,1,10,2:0:0:0:
107,143,71139,2,0,L|126:238,1,92.0249999999999,8|8,2:0|2:0,0:0:0:0:
94,316,71686,2,0,P|138:349|176:336,1,89.9999999999999,10|10,2:0|2:0,0:0:0:0:
189,303,72062,6,0,B|242:295|242:295|271:318|271:318|334:306,1,135,6|8,3:2|2:0,0:0:0:0:
403,325,72716,2,0,P|420:274|389:241,1,89.9999999999999,2|10,3:2|2:0,0:0:0:0:
315,219,73242,2,0,L|302:123,1,89.9999999999999,2|8,3:2|2:0,0:0:0:0:
297,44,73768,1,2,3:2:0:0:
297,44,73896,2,0,P|245:36|189:72,1,91.0529999999999,2|2,3:2|2:0,0:0:0:0:
187,88,74287,6,0,P|154:116|99:93,1,89.9999999999999,2|10,3:2|2:0,0:0:0:0:
30,147,74817,2,0,L|41:241,1,89.9999999999999,2|10,3:2|2:0,0:0:0:0:
69,321,75335,2,0,B|108:333|108:333|154:319,1,89.9999999999999,2|8,3:2|2:0,0:0:0:0:
241,285,75861,1,2,3:2:0:0:
241,285,76003,2,0,L|298:300,1,45,2|8,3:2|2:0,0:0:0:0:
323,319,76265,6,0,B|362:262|362:262|333:187,1,135.342,2|10,2:0|2:0,0:0:0:0:
264,148,76923,1,2,3:2:0:0:
340,101,77186,1,10,2:0:0:0:
421,141,77449,2,0,P|442:83|432:47,1,89.9999999999999,10|10,2:0|2:0,0:0:0:0:
354,20,77976,1,10,2:0:0:0:
354,20,78106,2,0,L|296:35,1,45,10|10,2:0|2:0,0:0:0:0:
269,51,78367,6,0,P|238:113|256:182,1,135,2|10,3:2|2:0,0:0:0:0:
327,222,79024,1,6,3:2:0:0:
263,286,79287,1,10,2:0:0:0:
184,241,79550,2,0,P|142:221|97:237,1,89.9999999999999,2|10,3:2|2:0,0:0:0:0:
72,266,79936,2,0,L|87:322,1,45,6|8,3:2|2:0,0:0:0:0:
97,352,80206,1,6,3:2:0:0:
229,375,80610,6,0,L|340:385,1,89.9999999999999,2|10,3:2|2:0,0:0:0:0:
378,316,81136,2,0,L|467:308,1,89.9999999999999,6|10,3:2|2:0,0:0:0:0:
507,226,81662,2,0,P|530:183|499:135,1,89.9999999999999,2|10,3:2|2:0,0:0:0:0:
476,121,82057,2,0,L|493:68,1,45,6|0,3:2|2:0,0:0:0:0:
503,36,82320,1,6,3:2:0:0:
370,10,82715,6,0,L|278:20,1,89.9999999999999,2|10,3:2|2:0,0:0:0:0:
190,31,83241,2,0,P|178:81|207:124,1,89.9999999999999,6|10,3:2|2:0,0:0:0:0:
271,160,83767,2,0,P|283:210|254:253,1,89.9999999999999,2|2,3:2|3:2,0:0:0:0:
232,273,84162,2,0,L|181:287,1,45,14|0,2:0|3:0,0:0:0:0:
147,267,84425,2,0,L|53:254,1,89.9999999999999,10|8,2:0|2:0,0:0:0:0:
16,273,84820,1,6,3:2:0:0:
362,369,85881,6,0,L|377:315,1,45,10|10,2:0|2:0,0:0:0:0:
382,281,86137,1,10,2:0:0:0:
382,281,86265,2,0,P|343:253|289:261,1,90.3509999999999,2|2,3:2|3:2,0:0:0:0:
203,346,86929,2,0,L|156:339,1,45,10|10,2:0|2:0,0:0:0:0:
118,330,87187,1,10,2:0:0:0:
118,330,87316,2,0,P|101:285|123:238,1,86.400002109375,2|2,3:2|3:2,0:0:0:0:
40,123,87999,6,0,L|136:115,1,89.9999999999999,6|0,3:2|0:0,0:0:0:0:
209,73,88514,1,14,3:2:0:0:
267,136,88771,1,14,3:2:0:0:
