osu file format v14

[General]
AudioFilename: audio.mp3
AudioLeadIn: 0
PreviewTime: 63250
Countdown: 0
SampleSet: Soft
StackLeniency: 0.7
Mode: 0
LetterboxInBreaks: 0
WidescreenStoryboard: 1

[Editor]
Bookmarks: 60161,70622
DistanceSpacing: 1
BeatDivisor: 4
GridSize: 32
TimelineZoom: 5.799996

[Metadata]
Title:BAKU (TV Size)
TitleUnicode:BAKU (TV Size)
Artist:Ikimonogakari
ArtistUnicode:いきものがかり
Creator:Nymphe
Version:Kujinn's Insane
Source:BORUTO-ボルト- NARUTO NEXT GENERATIONS
Tags:テレビ東京系アニメーション オープニングテーマ 吉岡聖恵 Kiyoe Yoshioka 山下穂尊 Hotaka Yamashita 水野良樹 Yoshiki Mizuno Hiroyuki Yamashita Masashi Kishimoto Ukyō Kodachi Yasuharu Takanashi Noriyuki Abe Toshirō Fujii Masayuki Kōda Makoto Uezu Masaya Honda Weekly Shōnen Jump Japanese Anime OP J-Pop Jpop Pop Opening 8 Eight Kujinn Reform -Kemsyt kiyoshi guarden
BeatmapID:3010260
BeatmapSetID:1464004

[Difficulty]
HPDrainRate:5
CircleSize:4
OverallDifficulty:8
ApproachRate:9
SliderMultiplier:1.6
SliderTickRate:1

[Events]
//Background and Video events
0,0,"Background.png",0,0
Video,460,"video.mp4"
//Break Periods
//Storyboard Layer 0 (Background)
//Storyboard Layer 1 (Fail)
//Storyboard Layer 2 (Pass)
//Storyboard Layer 3 (Foreground)
//Storyboard Layer 4 (Overlay)
//Storyboard Sound Samples

[TimingPoints]
528,243.90243902439,4,2,1,75,1,0
649,232.558139534884,4,2,1,75,1,0
649,-111.111111111111,4,2,1,75,0,0
881,258.620689655172,4,2,1,75,1,0
881,-111.111111111111,4,2,1,75,0,0
1273,209.059233449477,4,2,1,75,1,0
1273,-111.111111111111,4,2,1,75,0,0
1691,240,4,2,1,75,1,0
1691,-111.111111111111,4,2,1,75,0,0
2062,240,4,2,1,75,1,0
2302,218.181818181818,4,2,1,75,1,0
2302,-111.111111111111,4,2,1,75,0,0
2738,270.27027027027,4,2,1,75,1,0
2738,-111.111111111111,4,2,1,75,0,0
3278,238.095238095238,4,2,1,75,1,0
3397,245.901639344262,4,2,1,75,1,0
3397,-111.111111111111,4,2,1,75,0,0
3643,256.410256410256,4,2,1,75,1,0
3643,-142.857142857143,4,2,1,75,0,0
4284,265.486725663717,4,2,1,85,1,0
4284,-142.857142857143,4,2,1,85,0,0
4483,-142.857142857143,4,2,1,5,0,0
4549,256.410256410256,4,2,1,85,1,0
4677,269.058295964126,4,2,1,95,1,0
4677,-90.9090909090909,4,2,1,95,0,0
4812,267.857142857143,4,2,1,95,1,0
5080,263.157894736842,4,2,1,95,1,0
5080,-90.9090909090909,4,2,1,95,0,0
5343,270.27027027027,4,2,1,95,1,0
5343,-90.9090909090909,4,2,1,65,0,0
5748,-90.9090909090909,4,2,1,95,0,0
5879,263.157894736842,4,2,1,95,1,0
6142,-90.9090909090909,4,2,1,95,0,0
6409,259.74025974026,4,2,1,95,1,0
6409,-90.9090909090909,4,2,1,95,0,0
7188,265.486725663717,4,2,1,95,1,0
7188,-90.9090909090909,4,2,1,95,0,0
7453,264.31718061674,4,2,1,95,1,0
7453,-90.9090909090909,4,2,1,95,0,0
7717,-90.9090909090909,4,2,1,95,0,0
7981,263.157894736842,4,2,1,95,1,0
7981,-90.9090909090909,4,2,1,95,0,0
9230,-90.9090909090909,4,2,1,5,0,0
9296,-90.9090909090909,4,2,1,95,0,0
10283,-90.9090909090909,4,2,1,5,0,0
10349,267.857142857143,4,2,1,95,1,0
10349,-90.9090909090909,4,2,1,95,0,0
10616,270.27027027027,4,2,1,95,1,0
10751,-90.9090909090909,4,2,1,95,0,0
11021,-85.4700854700855,4,2,1,95,0,0
11148,263.157894736842,4,2,1,95,1,0
11411,-90.9090909090909,4,2,1,95,0,0
11921,266.666666666667,4,2,1,95,1,0
11921,-90.9090909090909,4,2,1,95,0,0
12187,-90.9090909090909,4,2,1,95,0,0
12321,272.727272727273,4,2,1,95,1,0
12457,265.486725663717,4,2,1,95,1,0
12457,-90.9090909090909,4,2,1,95,0,0
12712,259.74025974026,4,2,1,95,1,0
12712,-90.9090909090909,4,2,1,95,0,0
13101,-90.9090909090909,4,2,1,95,0,0
13231,263.157894736842,4,2,1,95,1,0
13494,-90.9090909090909,4,2,1,95,0,0
15204,-97.0873786407767,4,2,1,95,0,0
15351,263.157894736842,4,2,1,95,1,0
15614,258.620689655172,4,2,1,95,1,0
15614,-90.9090909090909,4,2,1,95,0,0
15872,264.31718061674,4,2,1,95,1,0
15872,-90.9090909090909,4,2,1,95,0,0
16136,-90.9090909090909,4,2,1,95,0,0
16400,258.620689655172,4,2,1,95,1,0
16400,-90.9090909090909,4,2,1,95,0,0
16917,291.26213592233,4,2,1,95,1,0
17062,241.935483870968,4,2,1,95,1,0
17062,-90.9090909090909,4,2,1,95,0,0
17182,270.27027027027,4,2,1,95,1,0
17452,263.157894736842,4,2,1,95,1,0
17452,-90.9090909090909,4,2,1,95,0,0
17649,-90.9090909090909,4,2,1,5,0,0
17715,-90.9090909090909,4,2,1,95,0,0
18701,-90.9090909090909,4,2,1,5,0,0
18767,-90.9090909090909,4,2,1,95,0,0
18964,-90.9090909090909,4,2,1,5,0,0
19030,-90.9090909090909,4,2,1,95,0,0
19425,-90.9090909090909,4,2,1,85,0,0
20017,-90.9090909090909,4,2,1,5,0,0
20083,-90.9090909090909,4,2,1,85,0,0
20806,-90.9090909090909,4,2,1,5,0,0
20873,-90.9090909090909,4,2,1,85,0,0
21662,283.018867924528,4,2,1,85,1,0
21662,-90.9090909090909,4,2,1,85,0,0
21874,-90.9090909090909,4,2,1,5,0,0
21945,263.157894736842,4,2,1,85,1,0
21945,-90.9090909090909,4,2,1,85,0,0
22405,-90.9090909090909,4,2,1,5,0,0
22471,269.058295964126,4,2,1,85,1,0
22471,-90.9090909090909,4,2,1,85,0,0
22729,260.869565217391,4,2,1,85,1,0
22729,-90.9090909090909,4,2,1,85,0,0
22924,-90.9090909090909,4,2,1,5,0,0
22989,-90.9090909090909,4,2,1,85,0,0
23120,263.157894736842,4,2,1,85,1,0
23120,-90.9090909090909,4,2,1,85,0,0
23777,265.486725663717,4,2,1,85,1,0
23777,-90.9090909090909,4,2,1,85,0,0
23976,-90.9090909090909,4,2,1,5,0,0
24043,269.058295964126,4,2,1,85,1,0
24043,-90.9090909090909,4,2,1,85,0,0
24312,250,4,2,1,85,1,0
24312,-90.9090909090909,4,2,1,85,0,0
24499,-90.9090909090909,4,2,1,5,0,0
24562,267.857142857143,4,2,1,85,1,0
24562,-90.9090909090909,4,2,1,85,0,0
25029,-90.9090909090909,4,2,1,5,0,0
25097,-90.9090909090909,4,2,1,85,0,0
25365,263.157894736842,4,2,1,85,1,0
25496,-90.9090909090909,4,2,1,85,0,0
25891,263.157894736842,4,2,1,100,1,0
26943,-111.111111111111,4,2,1,75,0,0
27075,230.769230769231,4,2,1,75,1,0
27190,263.157894736842,4,2,1,75,1,0
27190,-111.111111111111,4,2,1,75,0,0
27847,275.229357798165,4,2,1,75,1,0
27847,-111.111111111111,4,2,1,75,0,0
28235,265.486725663717,4,2,1,75,1,0
28235,-111.111111111111,4,2,1,75,0,0
28899,269.058295964126,4,2,1,75,1,0
28899,-111.111111111111,4,2,1,75,0,0
29169,263.157894736842,4,2,1,75,1,0
29300,-111.111111111111,4,2,1,75,0,0
29695,270.27027027027,4,2,1,75,1,0
29965,263.157894736842,4,2,1,75,1,0
29965,-111.111111111111,4,2,1,75,0,0
30228,254.237288135593,4,2,1,75,1,0
30482,263.157894736842,4,2,1,75,1,0
30482,-111.111111111111,4,2,1,75,0,0
31139,263.157894736842,4,2,1,75,1,0
31402,-100,4,2,1,75,0,0
31665,-111.111111111111,4,2,1,75,0,0
34823,-83.3333333333333,4,2,1,75,0,0
35020,-83.3333333333333,4,2,1,5,0,0
35086,-83.3333333333333,4,2,1,75,0,0
35283,-83.3333333333333,4,2,1,5,0,0
35349,-83.3333333333333,4,2,1,75,0,0
35612,270.27027027027,4,2,1,85,1,0
35612,-142.857142857143,4,2,1,80,0,0
36422,265.486725663717,4,2,1,75,1,0
36422,-125,4,2,1,75,0,0
36940,263.157894736842,4,2,1,75,1,0
36940,-125,4,2,1,75,0,0
37729,260.869565217391,4,2,1,75,1,0
37989,263.157894736842,4,2,1,75,1,0
37989,-125,4,2,1,75,0,0
39041,-125,4,2,1,75,0,0
39567,259.74025974026,4,2,1,75,1,0
39567,-125,4,2,1,75,0,0
40360,257.510729613734,4,2,1,75,1,0
40617,263.157894736842,4,2,1,75,1,0
40617,-125,4,2,1,75,0,0
41143,-125,4,2,1,75,0,0
43765,269.058295964126,4,2,1,75,1,0
43765,-125,4,2,1,75,0,0
44303,259.74025974026,4,2,1,75,1,0
44562,-125,4,2,1,75,0,0
44827,263.157894736842,4,2,1,55,1,0
44827,-125,4,2,1,55,0,0
46405,256.410256410256,4,2,1,55,1,0
46661,263.157894736842,4,2,1,55,1,0
46924,263.157894736842,4,2,1,55,1,0
46924,-125,4,2,1,55,0,0
47976,-125,4,2,1,55,0,0
51924,275.229357798165,4,2,1,65,1,0
51924,-125,4,2,1,65,0,0
52199,263.157894736842,4,2,1,65,1,0
52199,-125,4,2,1,65,0,0
52396,-125,4,2,1,5,0,0
52462,-125,4,2,1,65,0,0
52725,259.74025974026,4,2,1,75,1,0
52984,-125,4,2,1,75,0,0
53244,263.157894736842,4,2,1,75,1,0
53244,-125,4,2,1,75,0,0
55349,275.229357798165,4,2,1,75,1,0
55349,-125,4,2,1,75,0,0
55624,258.620689655172,4,2,1,75,1,0
55882,263.157894736842,4,2,1,75,1,0
55882,-125,4,2,1,75,0,0
56408,263.157894736842,4,2,1,75,1,0
56408,-125,4,2,1,75,0,0
57131,-125,4,2,1,5,0,0
57197,-125,4,2,1,75,0,0
57986,258.620689655172,4,2,1,75,1,0
57986,-125,4,2,1,75,0,0
58179,-125,4,2,1,5,0,0
58244,-125,4,2,1,75,0,0
58503,263.157894736842,4,2,1,75,1,0
58503,-125,4,2,1,75,0,0
58700,-125,4,2,1,5,0,0
58766,-125,4,2,1,75,0,0
59029,255.31914893617,4,2,1,75,1,0
59029,-125,4,2,1,75,0,0
59284,271.493212669683,4,2,1,75,1,0
59555,263.157894736842,4,2,1,85,1,0
59555,-111.111111111111,4,2,1,85,0,0
60344,275.229357798165,4,2,1,95,1,0
60344,-111.111111111111,4,2,1,95,0,0
60619,263.157894736842,4,2,1,65,1,0
60619,-111.111111111111,4,2,1,95,0,0
60882,-111.111111111111,4,2,1,95,0,0
61671,-166.666666666667,4,2,1,65,0,0
62724,-142.857142857143,4,2,1,55,0,0
63184,-142.857142857143,4,2,1,5,0,0
63250,-142.857142857143,4,2,1,85,0,0
63645,-90.9090909090909,4,2,1,95,0,0
65355,258.620689655172,4,2,1,95,1,0
65355,-90.9090909090909,4,2,1,95,0,0
65613,263.157894736842,4,2,1,95,1,0
65744,-90.9090909090909,4,2,1,95,0,0
65876,263.157894736842,4,2,1,95,1,0
66139,-90.9090909090909,4,2,1,95,0,0
66402,253.164556962025,4,2,1,95,1,0
66402,-90.9090909090909,4,2,1,95,0,0
66655,263.157894736842,4,2,1,95,1,0
66655,-90.9090909090909,4,2,1,95,0,0
66918,263.157894736842,4,2,1,95,1,0
66918,-90.9090909090909,4,2,1,95,0,0
67970,270.27027027027,4,2,1,95,1,0
67970,-90.9090909090909,4,2,1,95,0,0
68172,-90.9090909090909,4,2,1,5,0,0
68240,263.157894736842,4,2,1,95,1,0
68240,-90.9090909090909,4,2,1,95,0,0
69029,263.157894736842,4,2,1,95,1,0
69029,-90.9090909090909,4,2,1,95,0,0
69292,-90.9090909090909,4,2,1,95,0,0
69555,257.510729613734,4,2,1,95,1,0
69683,-90.9090909090909,4,2,1,95,0,0
69812,263.157894736842,4,2,1,95,1,0
69943,-90.9090909090909,4,2,1,95,0,0
70338,-90.9090909090909,4,2,1,95,0,0
70601,272.727272727273,4,2,1,95,1,0
70601,-90.9090909090909,4,2,1,95,0,0
70873,266.666666666667,4,2,1,95,1,0
70873,-90.9090909090909,4,2,1,95,0,0
71272,279.06976744186,4,2,1,95,1,0
71411,275.229357798165,4,2,1,95,1,0
71411,-90.9090909090909,4,2,1,95,0,0
71686,251.046025104603,4,2,1,95,1,0
71686,-90.9090909090909,4,2,1,95,0,0
72062,260.869565217391,4,2,1,95,1,0
72062,-90.9090909090909,4,2,1,95,0,0
72193,260.869565217391,4,2,1,95,1,0
72453,263.157894736842,4,2,1,95,1,0
72453,-90.9090909090909,4,2,1,95,0,0
72716,263.157894736842,4,2,1,95,1,0
72716,-90.9090909090909,4,2,1,95,0,0
73768,256.410256410256,4,2,1,95,1,0
73768,-90.9090909090909,4,2,1,95,0,0
74024,263.157894736842,4,2,1,95,1,0
74155,-90.9090909090909,4,2,1,95,0,0
74550,267.857142857143,4,2,1,95,1,0
74550,-90.9090909090909,4,2,1,95,0,0
74817,255.31914893617,4,2,1,95,1,0
74817,-90.9090909090909,4,2,1,95,0,0
75072,263.157894736842,4,2,1,95,1,0
75072,-90.9090909090909,4,2,1,95,0,0
75861,285.714285714286,4,2,1,95,1,0
76003,262.008733624454,4,2,1,95,1,0
76003,-90.9090909090909,4,2,1,95,0,0
76134,263.157894736842,4,2,1,95,1,0
76397,263.157894736842,4,2,1,95,1,0
76397,-90.9090909090909,4,2,1,95,0,0
76594,-90.9090909090909,4,2,1,5,0,0
76660,-90.9090909090909,4,2,1,95,0,0
77646,-90.9090909090909,4,2,1,5,0,0
77712,-90.9090909090909,4,2,1,95,0,0
77909,-90.9090909090909,4,2,1,5,0,0
77976,260.869565217391,4,2,1,85,1,0
78106,-90.9090909090909,4,2,1,85,0,0
78367,263.157894736842,4,2,1,85,1,0
78367,-90.9090909090909,4,2,1,85,0,0
78498,263.157894736842,4,2,1,85,1,0
78761,-90.9090909090909,4,2,1,85,0,0
79287,-90.9090909090909,4,2,1,85,0,0
79550,250,4,2,1,85,1,0
79550,-90.9090909090909,4,2,1,85,0,0
79737,-90.9090909090909,4,2,1,5,0,0
79800,272.727272727273,4,2,1,85,1,0
80072,269.058295964126,4,2,1,85,1,0
80072,-90.9090909090909,4,2,1,85,0,0
80610,263.157894736842,4,2,1,85,1,0
80610,-90.9090909090909,4,2,1,85,0,0
80807,-90.9090909090909,4,2,1,5,0,0
80873,-90.9090909090909,4,2,1,85,0,0
81859,-90.9090909090909,4,2,1,5,0,0
81925,-90.9090909090909,4,2,1,85,0,0
82912,-90.9090909090909,4,2,1,5,0,0
82978,-90.9090909090909,4,2,1,85,0,0
83965,-90.9090909090909,4,2,1,5,0,0
84031,-90.9090909090909,4,2,1,85,0,0
85881,256.410256410256,4,2,1,85,1,0
86522,271.493212669683,4,2,1,85,1,0
86929,258.620689655172,4,2,1,85,1,0
87316,270.27027027027,4,2,1,75,1,0
87592,271.493212669683,4,2,1,85,1,0
87999,257.510729613734,4,2,1,95,1,0
87999,-83.3333333333333,4,2,1,85,0,0
88449,-83.3333333333333,4,2,1,5,0,0
88514,-83.3333333333333,4,2,1,85,0,0
88771,-133.333333333333,4,2,1,95,0,0
89286,-133.333333333333,4,2,1,5,0,0

[Colours]
Combo1 : 78,152,214
Combo2 : 231,235,52
Combo3 : 198,173,159
Combo4 : 225,77,81

[HitObjects]
166,64,528,5,8,2:3:0:0:
166,64,588,1,8,2:3:0:0:
166,64,649,2,0,P|197:90|245:82,1,72.0000000000001,10|10,2:0|2:0,0:0:0:0:
298,47,881,2,0,P|335:47|363:72,1,72.0000000000001,10|2,2:0|3:2,0:0:0:0:
512,190,1273,6,0,P|453:208|354:251,1,144,2|0,3:2|2:0,0:0:0:0:
323,314,1691,6,0,P|282:316|248:282,1,72.0000000000001,10|10,2:0|2:0,0:0:0:0:
226,222,1931,2,0,P|195:200|158:204,1,79,10|2,2:0|3:2,0:0:0:0:
42,368,2302,6,0,P|30:317|1:203,1,144,10|0,2:0|2:0,0:0:0:0:
49,50,2738,6,0,B|87:28|133:43|145:77|141:85|136:96|148:136|200:153|240:126,1,216,2|0,3:2|0:0,0:0:0:0:
232,130,3278,1,0,3:2:0:0:
294,220,3397,2,0,P|335:201|382:191,1,72.0000000000001,10|0,2:0|2:0,0:0:0:0:
498,20,3643,6,0,P|457:16|446:126,1,168,10|0,2:0|2:0,0:0:0:0:
477,258,4284,6,0,P|456:298|461:355,1,83.9999999999999,2|0,2:0|2:0,0:0:0:0:
467,359,4549,1,10,2:0:0:0:
363,290,4677,6,0,B|310:268|271:311|279:320|281:328|253:369|191:344,1,175.345872037761,6|0,3:2|2:0,0:0:0:0:
126,384,5080,2,0,P|118:331|103:273,1,88,8|0,2:0|0:0,0:0:0:0:
223,171,5343,2,0,P|212:216|205:262,1,88,2|2,3:2|2:0,0:0:0:0:
108,152,5613,1,10,2:0:0:0:
228,28,5748,6,0,P|263:90|378:70,1,170.790405371094,2|0,2:0|2:0,0:0:0:0:
509,43,6142,2,0,P|458:71|447:127,1,88,8|0,2:0|2:0,0:0:0:0:
410,238,6409,2,0,P|411:179|368:142,1,88,2|2,3:2|2:0,0:0:0:0:
313,211,6668,1,10,2:0:0:0:
433,321,6798,6,0,B|388:343|342:306|342:306|286:345|326:396,1,176,2|0,2:0|2:0,0:0:0:0:
209,366,7188,2,0,P|166:386|113:363,1,88,10|0,2:0|2:0,0:0:0:0:
112,222,7453,2,0,P|150:249|157:306,1,88,2|0,3:2|0:0,0:0:0:0:
29,373,7717,2,0,P|33:325|79:291,1,88,10|0,2:0|2:0,0:0:0:0:
234,168,7981,6,0,P|247:227|258:281,1,88,2|0,3:2|2:0,0:0:0:0:
319,131,8244,2,0,P|328:85|338:39,1,88,8|0,2:0|2:0,0:0:0:0:
401,187,8507,1,2,3:2:0:0:
401,187,8638,1,2,2:0:0:0:
475,87,8770,2,0,P|488:146|499:200,1,88,8|2,2:0|2:0,0:0:0:0:
416,320,9033,6,0,P|383:277|292:296,1,132,0|0,3:0|2:0,0:0:0:0:
296,298,9296,2,0,P|254:324|196:298,1,88,10|0,2:0|2:0,0:0:0:0:
101,232,9559,2,0,P|114:291|129:359,1,88,2|0,3:2|2:0,0:0:0:0:
231,145,9823,2,0,P|218:204|203:272,1,88,10|0,2:0|2:0,0:0:0:0:
47,96,10086,6,0,P|96:121|154:65,1,132,2|0,3:2|2:0,0:0:0:0:
157,58,10349,2,0,P|179:18|239:18,1,88,10|0,2:0|2:0,0:0:0:0:
280,87,10616,1,2,3:2:0:0:
357,21,10751,2,0,P|410:45|462:56,1,88,2|8,2:0|2:0,0:0:0:0:
407,158,11021,6,0,P|353:149|313:265,1,179.256005371094,2|0,2:0|0:0,0:0:0:0:
341,340,11411,2,0,P|389:356|450:385,1,88,10|0,2:0|2:0,0:0:0:0:
221,270,11674,2,0,P|178:288|133:303,1,88,2|0,3:2|2:0,0:0:0:0:
288,147,11921,2,0,P|305:202|323:254,1,88,10|0,2:0|2:0,0:0:0:0:
271,36,12187,5,2,3:2:0:0:
178,122,12321,1,8,2:0:0:0:
178,122,12389,1,8,2:0:0:0:
178,122,12457,2,0,P|129:110|75:89,1,88,8|8,2:0|2:0,0:0:0:0:
32,232,12712,2,0,P|79:213|129:201,1,88,10|8,2:0|2:3,0:0:0:0:
186,299,12971,1,8,2:3:0:0:
277,232,13101,6,0,P|330:227|384:342,1,177.355205371094,6|0,3:2|2:0,0:0:0:0:
485,274,13494,2,0,P|503:208|520:158,1,88,8|0,2:0|0:0,0:0:0:0:
359,45,13757,2,0,P|374:93|386:139,1,88,2|2,3:2|2:0,0:0:0:0:
490,56,14020,1,10,2:0:0:0:
395,216,14152,6,0,B|348:232|315:192|323:183|325:175|292:133|244:153,1,176,2|0,2:0|2:0,0:0:0:0:
168,229,14546,2,0,P|113:253|67:282,1,88,8|0,2:0|0:0,0:0:0:0:
137,38,14809,2,0,P|166:77|144:140,1,88,2|2,3:2|2:0,0:0:0:0:
35,110,15073,1,10,2:0:0:0:
88,267,15204,6,0,P|147:284|269:351,1,175.331205371094,2|0,2:0|2:0,0:0:0:0:
386,293,15614,2,0,P|412:249|395:193,1,88,10|0,2:0|2:0,0:0:0:0:
263,140,15872,2,0,P|283:195|293:244,1,88,2|0,3:2|0:0,0:0:0:0:
365,85,16136,2,0,P|359:39|384:0,1,88,10|0,2:0|2:0,0:0:0:0:
484,156,16400,6,0,P|428:170|382:191,1,88,2|0,3:2|2:0,0:0:0:0:
262,45,16658,2,0,P|305:62|350:72,1,88,8|0,2:0|2:0,0:0:0:0:
184,140,16917,1,2,3:2:0:0:
280,243,17062,2,0,P|292:194|309:135,1,88.000002685547,2|8,2:0|2:0,0:0:0:0:
156,251,17317,1,2,2:0:0:0:
271,371,17452,6,0,P|299:323|393:350,1,132,2|0,3:2|2:0,0:0:0:0:
387,346,17715,2,0,P|427:370|479:350,1,88,10|0,2:0|2:0,0:0:0:0:
491,192,17978,2,0,P|474:245|459:306,1,88,2|0,3:2|2:0,0:0:0:0:
325,134,18241,2,0,P|342:187|357:248,1,88,10|0,2:0|2:0,0:0:0:0:
505,87,18504,6,0,P|453:107|391:42,1,132,10|0,2:0|2:0,0:0:0:0:
397,43,18767,2,0,P|349:-4|285:13,1,132,10|0,2:0|2:0,0:0:0:0:
267,42,19030,1,8,2:3:0:0:
172,130,19162,2,0,P|119:146|56:173,1,88,8|0,2:3|2:0,0:0:0:0:
251,248,19425,6,0,P|317:267|435:316,1,176,2|0,3:2|2:0,0:0:0:0:
489,253,19820,2,0,P|467:203|512:124,1,132,10|0,2:0|0:0,0:0:0:0:
509,115,20083,2,0,P|471:85|403:108,1,88,6|0,3:2|0:0,0:0:0:0:
310,229,20346,2,0,P|323:166|337:113,1,88,10|0,2:0|2:0,0:0:0:0:
116,49,20609,6,0,P|179:27|227:84,1,132,2|0,3:2|2:0,0:0:0:0:
238,97,20873,1,10,2:0:0:0:
158,166,21004,2,0,P|110:183|56:223,1,88,6|8,3:2|2:0,0:0:0:0:
316,326,21267,2,0,B|336:274|300:220|278:268|236:213|269:141,1,176,6|0,3:2|2:0,0:0:0:0:
383,56,21662,6,0,P|399:115|493:117,1,132,10|0,2:0|2:0,0:0:0:0:
479,120,21945,2,0,P|504:86|481:30,1,88,10|0,2:0|2:0,0:0:0:0:
334,164,22208,6,0,P|318:223|224:225,1,132,6|0,3:2|2:0,0:0:0:0:
238,223,22471,2,0,P|213:189|236:133,1,88,10|0,2:0|2:0,0:0:0:0:
354,301,22729,6,0,P|414:321|501:365,1,132,2|0,3:2|2:0,0:0:0:0:
507,356,22989,1,10,2:0:0:0:
443,150,23120,2,0,P|431:205|414:261,1,88,6|8,3:2|2:3,0:0:0:0:
332,381,23383,2,0,P|314:308|273:177,1,176,6|0,3:2|2:0,0:0:0:0:
69,68,23777,6,0,P|93:121|175:104,1,132,2|0,3:2|2:0,0:0:0:0:
171,93,24043,2,0,P|214:63|258:80,1,88,10|0,2:0|2:0,0:0:0:0:
386,236,24312,6,0,P|362:183|280:200,1,132,6|0,3:2|2:0,0:0:0:0:
284,211,24562,2,0,P|241:241|197:224,1,88,10|0,2:0|2:0,0:0:0:0:
46,273,24829,6,0,P|111:293|191:336,1,132,2|0,3:2|2:0,0:0:0:0:
183,344,25097,1,10,2:0:0:0:
176,118,25231,2,0,P|127:138|75:148,1,88.6570693522137,6|0,3:2|3:0,0:0:0:0:
273,264,25496,2,0,P|289:209|305:158,2,88,14|8|8,2:0|2:0|2:0,0:0:0:0:
334,368,25891,5,4,2:0:0:0:
334,368,26943,6,0,P|305:347|252:353,1,72.5471978027344,2|2,2:0|2:0,0:0:0:0:
185,384,27190,2,0,P|147:384|116:362,1,72.0000000000001,10|2,2:0|2:0,0:0:0:0:
34,303,27453,2,0,P|22:254|10:207,2,72.0000000000001,8|8|8,2:3|2:3|2:3,0:0:0:0:
121,223,27847,6,0,P|140:174|239:179,1,144,10|2,2:0|2:0,0:0:0:0:
283,220,28235,2,0,P|269:263|257:307,1,72.0000000000001,2|2,3:2|2:0,0:0:0:0:
321,355,28500,2,0,P|389:356|422:296,1,144,10|0,2:0|3:0,0:0:0:0:
491,223,28899,6,0,P|478:163|457:69,1,144.535195605469,2|10,3:2|2:0,0:0:0:0:
393,26,29300,2,0,P|425:8|474:-8,1,72.0000000000001,2|2,3:2|2:0,0:0:0:0:
354,132,29563,2,0,P|304:113|184:88,1,146.188795605469,10|0,2:0|2:0,0:0:0:0:
59,157,29965,6,0,P|36:205|111:265,1,143.999995605469,10|2,2:0|2:0,0:0:0:0:
204,259,30355,1,2,3:2:0:0:
144,354,30482,2,0,P|91:369|51:386,1,72.0000000000001,10|0,2:0|3:0,0:0:0:0:
207,248,30745,2,0,P|240:260|275:269,1,72.0000000000001,2|0,2:0|3:0,0:0:0:0:
90,265,31008,6,0,P|107:205|130:107,1,143.452795605469,10|8,2:0|2:0,0:0:0:0:
115,115,31402,1,0,3:0:0:0:
269,14,31665,2,0,P|285:84|305:153,1,144,8|0,2:0|3:0,0:0:0:0:
480,221,32060,6,0,P|418:216|378:304,1,144,6|2,3:2|2:0,0:0:0:0:
314,355,32454,2,0,P|362:370|415:390,1,72.0000000000001,2|0,3:2|2:0,0:0:0:0:
239,268,32717,2,0,P|192:290|87:330,1,144,10|0,2:0|2:0,0:0:0:0:
13,238,33112,6,0,P|25:190|33:142,1,72.0000000000001,2|0,3:2|0:0,0:0:0:0:
117,54,33375,1,8,2:0:0:0:
117,54,33507,2,0,P|124:89|133:124,1,72.0000000000001,2|0,3:2|2:0,0:0:0:0:
239,268,33770,2,0,P|199:253|148:238,1,72.0000000000001,10|0,2:0|2:0,0:0:0:0:
285,128,34033,2,0,P|319:117|352:104,1,72.0000000000001,2|8,3:2|2:0,0:0:0:0:
494,235,34296,5,2,3:2:0:0:
494,235,34428,1,8,2:0:0:0:
448,66,34560,2,0,P|440:116|426:169,1,72.0000000000001,2|0,3:2|2:0,0:0:0:0:
330,341,34823,6,0,P|271:312|284:226,1,144,10|0,2:0|2:0,0:0:0:0:
315,180,35086,2,0,P|316:111|255:79,1,144,10|0,2:0|2:0,0:0:0:0:
232,92,35349,5,10,2:0:0:0:
21,148,35612,6,0,B|68:109|140:127|154:177|150:186|146:199|155:257|241:275|286:228,1,308,14|0,2:0|0:0,0:0:0:0:
333,186,36422,6,0,P|340:232|357:321,1,128,6|2,3:2|2:0,0:0:0:0:
355,312,36820,1,2,2:0:0:0:
292,384,36940,2,0,P|269:346|283:302,1,64,10|0,2:0|0:0,0:0:0:0:
429,260,37203,2,0,P|450:290|437:338,1,64,2|0,2:0|3:0,0:0:0:0:
270,154,37466,5,2,3:2:0:0:
270,154,37597,2,0,L|287:83,1,64.4864,10|0,2:0|3:0,0:0:0:0:
157,206,37859,1,2,3:2:0:0:
157,206,37989,2,0,L|174:277,1,64,8|0,2:0|2:0,0:0:0:0:
10,375,38252,6,0,P|48:333|132:346,1,128,2|0,3:2|2:0,0:0:0:0:
196,384,38646,1,10,2:0:0:0:
196,384,38778,2,0,P|236:368|281:361,1,64,2|0,3:2|2:0,0:0:0:0:
308,298,39041,2,0,P|348:314|393:321,1,64,10|0,2:0|0:0,0:0:0:0:
461,366,39304,2,0,P|472:329|492:278,1,64,2|0,3:2|3:0,0:0:0:0:
364,159,39567,6,0,P|375:196|395:247,1,64,2|8,3:2|2:0,0:0:0:0:
467,80,39826,1,2,3:2:0:0:
467,80,39956,2,0,P|430:68|401:55,1,64,2|10,3:2|2:0,0:0:0:0:
203,172,40360,1,8,2:0:0:0:
211,180,40488,1,8,2:0:0:0:
218,186,40617,6,0,L|231:112,1,64,2|0,3:2|0:0,0:0:0:0:
134,231,40880,2,0,L|121:157,1,64,2|0,2:0|3:0,0:0:0:0:
315,277,41143,2,0,L|302:203,1,64,10|0,2:0|0:0,0:0:0:0:
403,332,41406,2,0,L|416:258,1,64,0|0,3:0|3:0,0:0:0:0:
187,338,41669,5,2,3:2:0:0:
187,338,41801,2,0,P|153:350|110:363,1,64,8|2,2:0|3:2,0:0:0:0:
24,303,42064,1,2,3:2:0:0:
24,303,42195,2,0,P|13:256|5:221,1,64,8|0,2:0|2:0,0:0:0:0:
102,97,42459,6,0,P|137:133|115:228,1,128,10|0,2:0|2:0,0:0:0:0:
24,303,42853,2,0,P|37:254|130:226,1,128,2|0,3:2|2:0,0:0:0:0:
193,263,43248,2,0,P|231:288|271:284,1,64,10|0,2:0|0:0,0:0:0:0:
330,223,43511,2,0,P|368:198|408:202,1,64,2|2,3:2|2:0,0:0:0:0:
398,307,43765,5,8,2:0:0:0:
398,307,43899,1,8,2:0:0:0:
506,193,44034,2,0,P|497:223|491:255,1,64,8|8,2:3|2:3,0:0:0:0:
372,116,44303,1,8,2:0:0:0:
372,116,44432,1,8,2:0:0:0:
503,69,44562,2,0,P|463:57|386:26,1,96,0|0,3:0|0:0,0:0:0:0:
335,4,44827,6,0,P|280:32|282:113,2,128,6|0|2,2:0|0:0|3:2,0:0:0:0:
335,4,45616,1,2,3:2:0:0:
311,200,45879,6,0,P|265:186|178:164,1,128,10|0,2:0|0:0,0:0:0:0:
187,166,46405,1,2,2:0:0:0:
4,334,46661,1,10,2:0:0:0:
21,319,46792,1,10,2:0:0:0:
36,304,46924,6,0,P|71:327|148:273,1,128,2|2,3:2|0:0,0:0:0:0:
198,215,47318,2,0,P|248:179|304:204,1,128
380,274,47713,2,0,P|370:314|362:359,1,64,2|0,3:2|0:0,0:0:0:0:
499,238,47976,6,0,P|487:182|465:94,1,128,10|2,2:0|2:0,0:0:0:0:
265,19,48502,2,0,P|249:81|236:143,1,128,2|2,2:0|2:0,0:0:0:0:
54,258,49029,6,0,P|16:247|0:157,2,128,2|0|2,3:2|0:0|2:0,0:0:0:0:
54,258,49818,1,2,3:2:0:0:
254,321,50081,6,0,P|201:342|130:374,1,128,10|0,2:0|0:0,0:0:0:0:
136,371,50608,1,2,2:0:0:0:
339,173,50871,1,10,2:0:0:0:
346,192,51002,1,8,2:0:0:0:
354,209,51134,6,0,P|367:166|385:122,1,64,2|0,3:2|0:0,0:0:0:0:
247,49,51397,2,0,P|277:81|306:119,1,64,2|0,2:0|3:0,0:0:0:0:
439,43,51660,2,0,P|395:53|348:59,1,64,2|0,2:0|0:0,0:0:0:0:
450,174,51924,2,0,P|493:184|540:190,1,64,2|0,3:2|0:0,0:0:0:0:
361,273,52199,6,0,P|347:312|335:350,2,64,8|0|0,2:0|0:0|3:0,0:0:0:0:
213,157,52725,1,8,2:0:0:0:
194,166,52854,1,8,2:0:0:0:
177,175,52984,2,0,P|134:157|89:142,1,64,8|0,2:3|2:0,0:0:0:0:
333,9,53244,6,0,P|340:67|357:154,1,128,10|2,2:0|2:0,0:0:0:0:
257,182,53638,1,0,3:0:0:0:
257,182,53770,2,0,P|250:240|233:327,1,128,10|2,2:0|3:2,0:0:0:0:
322,360,54165,1,0,2:0:0:0:
322,360,54296,6,0,P|377:345|446:332,1,128,8|0,2:0|3:0,0:0:0:0:
479,245,54691,1,0,2:0:0:0:
479,245,54822,2,0,P|416:233|354:216,1,128,8|0,2:0|0:0,0:0:0:0:
267,270,55217,5,0,2:0:0:0:
267,270,55349,2,0,P|246:226|278:145,1,128,10|2,2:0|3:2,0:0:0:0:
371,110,55753,1,0,2:0:0:0:
371,110,55882,2,0,P|327:131|246:99,1,128,10|2,2:0|3:2,0:0:0:0:
210,14,56276,5,0,3:0:0:0:
210,14,56408,2,0,P|231:57|199:138,1,128,8|0,2:0|3:0,0:0:0:0:
106,173,56802,1,0,3:0:0:0:
106,173,56934,2,0,P|150:152|231:184,1,128,10|2,2:0|2:0,0:0:0:0:
307,238,57329,1,0,2:0:0:0:
307,238,57460,6,0,P|316:176|330:83,1,128,10|2,2:0|3:2,0:0:0:0:
314,98,57855,1,0,2:0:0:0:
207,290,57986,2,0,P|198:228|184:135,1,128,10|2,2:0|3:2,0:0:0:0:
200,150,58373,1,0,3:0:0:0:
362,312,58503,6,0,P|353:250|339:157,1,128,10|2,2:0|3:2,0:0:0:0:
355,172,58897,1,0,3:0:0:0:
256,322,59029,2,0,L|266:246,1,64,10|0,2:0|0:0,0:0:0:0:
175,371,59284,2,0,L|167:279,1,80,10|0,2:0|2:0,0:0:0:0:
199,73,59555,6,0,P|174:104|184:155,1,72.0000000000001,0|0,3:0|2:0,0:0:0:0:
102,150,59818,2,0,P|115:185|171:203,1,71.9999978027344,0|0,3:0|2:0,0:0:0:0:
112,269,60081,2,0,P|155:278|192:251,1,72.0000000000001,0|0,3:0|2:0,0:0:0:0:
229,322,60344,2,0,P|251:293|240:231,1,72.0000000000001,8|0,2:0|2:0,0:0:0:0:
277,194,60619,6,0,P|254:222|266:284,1,72.0000000000001,8|0,2:0|0:0,0:0:0:0:
299,101,60882,2,0,P|262:96|214:136,1,72.0000000000001,8|0,2:0|2:0,0:0:0:0:
407,70,61145,2,0,P|392:36|333:14,1,72.0000000000001,8|0,2:0|2:0,0:0:0:0:
485,149,61408,2,0,P|507:120|496:58,1,72.0000000000001,8|0,2:0|2:0,0:0:0:0:
421,264,61671,6,0,P|450:268|483:276,2,47.9999999999999,2|2|2,2:0|2:0|2:0,0:0:0:0:
415,257,62066,1,2,2:0:0:0:
203,369,62329,6,0,P|174:373|141:381,2,47.9999999999999,2|2|2,2:0|2:0|2:0,0:0:0:0:
270,295,62724,6,0,B|292:257|277:211|243:199|235:203|224:208|184:196|167:144|200:95,1,224,2|2,3:2|2:0,0:0:0:0:
189,115,63513,1,10,2:0:0:0:
368,53,63645,6,0,B|405:76|451:39|451:39|507:78|467:129,1,176,6|0,3:2|2:0,0:0:0:0:
364,245,64040,2,0,P|341:206|359:150,1,88,8|0,2:0|0:0,0:0:0:0:
512,263,64303,2,0,P|518:305|495:342,1,88,2|2,3:2|3:2,0:0:0:0:
427,184,64566,1,10,2:0:0:0:
330,341,64697,6,0,B|283:317|233:346|266:366|205:400|150:358,1,176,2|0,2:0|2:0,0:0:0:0:
26,300,65092,2,0,P|48:343|65:389,1,88,8|0,2:0|2:0,0:0:0:0:
181,169,65355,2,0,P|159:212|142:258,1,88,2|2,3:2|3:2,0:0:0:0:
19,107,65613,1,10,2:0:0:0:
249,48,65744,6,0,P|193:28|125:117,1,176.000005371094,2|0,2:0|2:0,0:0:0:0:
330,105,66139,2,0,P|345:65|318:3,1,88,10|0,2:0|2:0,0:0:0:0:
363,207,66402,2,0,P|405:221|462:248,1,88,2|0,3:2|0:0,0:0:0:0:
246,145,66655,2,0,P|205:162|164:176,1,88,10|0,2:0|2:0,0:0:0:0:
186,335,66918,6,0,P|196:287|213:227,1,88,2|0,3:2|2:0,0:0:0:0:
48,86,67181,2,0,P|59:128|68:171,1,88,8|0,2:0|2:0,0:0:0:0:
37,294,67444,1,2,3:2:0:0:
37,294,67575,1,2,3:2:0:0:
163,176,67707,2,0,P|204:190|245:207,1,88,8|2,2:0|2:0,0:0:0:0:
466,352,67970,6,0,P|409:351|379:278,1,132,2|0,3:2|2:0,0:0:0:0:
379,261,68240,2,0,P|395:235|465:235,1,88,10|0,2:0|2:0,0:0:0:0:
328,160,68503,2,0,P|286:146|243:135,1,88,2|0,3:2|3:0,0:0:0:0:
374,58,68766,2,0,P|416:47|458:33,1,88,10|0,2:0|2:0,0:0:0:0:
175,6,69029,6,0,P|136:46|139:98,1,88,2|0,3:2|0:0,0:0:0:0:
195,242,69292,2,0,P|179:188|133:164,1,88,10|0,2:0|2:0,0:0:0:0:
0,142,69555,1,2,3:2:0:0:
0,142,69683,2,0,P|54:155|97:127,1,88.6834693522137,2|8,3:2|2:0,0:0:0:0:
243,86,69943,6,0,P|227:156|207:271,1,176,2|0,2:0|0:0,0:0:0:0:
146,300,70338,2,0,P|185:332|248:325,1,88,10|0,2:0|2:0,0:0:0:0:
312,200,70601,2,0,P|325:248|337:306,1,88,2|0,3:2|3:0,0:0:0:0:
422,380,70873,2,0,P|431:337|443:294,1,88,10|0,2:0|2:0,0:0:0:0:
507,109,71139,5,8,2:0:0:0:
392,202,71272,1,8,2:0:0:0:
392,202,71341,1,8,2:0:0:0:
392,202,71411,2,0,P|344:182|291:166,1,88,8|8,2:0|2:0,0:0:0:0:
176,34,71686,2,0,P|193:90|206:143,1,88,10|10,2:0|2:0,0:0:0:0:
309,6,71937,1,10,2:0:0:0:
309,170,72062,6,0,P|283:241|244:372,1,176.000005371094,6|0,3:2|2:0,0:0:0:0:
172,359,72453,2,0,P|164:310|198:266,1,88,8|0,2:0|0:0,0:0:0:0:
101,185,72716,2,0,P|56:199|9:219,1,88,2|2,3:2|3:2,0:0:0:0:
96,54,72979,1,10,2:0:0:0:
211,145,73110,6,0,B|242:126|281:139|291:167|287:174|283:183|293:216|337:231|378:203,1,176,2|0,2:0|2:0,0:0:0:0:
410,307,73505,2,0,P|467:325|513:354,1,88,8|0,2:0|0:0,0:0:0:0:
416,73,73768,2,0,P|378:102|382:168,1,88,2|2,3:2|3:2,0:0:0:0:
512,118,74024,1,10,2:0:0:0:
328,248,74155,6,0,P|267:280|148:313,1,176,2|0,2:0|2:0,0:0:0:0:
72,270,74550,2,0,P|47:227|69:173,1,88,10|0,2:0|2:0,0:0:0:0:
137,116,74817,2,0,P|175:136|217:150,1,88,2|0,3:2|0:0,0:0:0:0:
33,90,75072,2,0,P|59:52|50:0,1,88,10|0,2:0|2:0,0:0:0:0:
295,53,75335,6,0,P|301:107|313:167,1,88,2|0,3:2|2:0,0:0:0:0:
192,312,75598,2,0,P|199:268|203:224,1,88,8|0,2:0|2:0,0:0:0:0:
334,296,75861,1,2,3:2:0:0:
220,151,76003,2,0,P|177:152|144:180,1,88.000002685547,2|8,3:2|2:0,0:0:0:0:
224,314,76265,1,2,2:0:0:0:
330,184,76397,6,0,P|384:172|432:243,1,132,2|0,3:2|2:0,0:0:0:0:
446,241,76660,2,0,P|458:189|480:122,1,88,10|0,2:0|2:0,0:0:0:0:
284,286,76923,2,0,P|296:328|305:371,1,88,2|0,3:2|3:0,0:0:0:0:
133,223,77186,2,0,P|181:198|225:180,1,88,10|0,2:0|2:0,0:0:0:0:
396,142,77449,6,0,P|335:153|294:77,1,132,10|0,2:0|2:0,0:0:0:0:
289,67,77712,2,0,P|248:18|186:29,1,132,10|0,2:0|2:0,0:0:0:0:
160,52,77976,1,10,2:0:0:0:
50,129,78106,2,0,P|38:66|26:14,1,88,10|10,2:0|2:0,0:0:0:0:
207,191,78367,6,0,P|188:252|160:363,1,175.331205371094,2|0,3:2|2:0,0:0:0:0:
17,330,78761,2,0,P|52:277|136:297,1,132,14|0,2:0|0:0,0:0:0:0:
133,300,79024,2,0,P|175:323|225:295,1,88,2|0,3:2|0:0,0:0:0:0:
326,204,79287,2,0,P|344:264|353:317,1,88,10|0,2:0|2:0,0:0:0:0:
468,194,79550,6,0,P|484:126|513:4,1,176.000005371094,2|10,3:2|2:0,0:0:0:0:
390,122,79936,1,6,3:2:0:0:
312,22,80072,2,0,P|364:9|398:-1,2,58.6666666666667,8|8|8,2:0|2:0|2:3,0:0:0:0:
250,150,80341,2,0,P|221:142|193:135,2,58.6666666666667,12|8|8,2:3|2:3|2:3,0:0:0:0:
340,216,80610,6,0,P|306:270|345:346,1,132,2|0,3:2|2:0,0:0:0:0:
333,349,80873,2,0,P|292:376|238:360,1,88,14|0,2:0|2:0,0:0:0:0:
93,300,81136,2,0,P|115:348|134:397,1,88,2|0,3:2|0:0,0:0:0:0:
179,208,81399,2,0,P|195:167|214:127,1,88,10|0,2:0|3:0,0:0:0:0:
17,19,81662,6,0,P|49:62|137:50,1,132,2|0,3:2|2:0,0:0:0:0:
148,39,81925,1,10,2:0:0:0:
213,127,82057,2,0,P|265:147|314:170,1,88,6|0,3:2|2:0,0:0:0:0:
171,282,82320,1,6,3:2:0:0:
109,221,82452,2,0,P|57:241|8:264,1,88,8|0,2:0|2:0,0:0:0:0:
277,365,82715,6,0,P|314:324|403:354,1,132,2|0,3:2|2:0,0:0:0:0:
401,354,82978,2,0,P|445:374|485:356,1,88,14|0,2:0|2:0,0:0:0:0:
345,215,83241,2,0,P|302:204|258:188,1,88,2|0,3:2|0:0,0:0:0:0:
476,100,83504,2,0,P|458:155|441:212,1,88,10|0,2:0|2:0,0:0:0:0:
366,18,83767,6,0,P|311:8|282:89,1,132,2|0,3:2|2:0,0:0:0:0:
288,100,84031,1,2,3:2:0:0:
240,215,84162,2,0,P|273:251|262:313,1,88,14|0,2:0|3:0,0:0:0:0:
164,377,84425,1,10,2:0:0:0:
85,363,84557,1,0,3:0:0:0:
55,290,84688,1,8,2:0:0:0:
103,228,84820,5,6,3:2:0:0:
386,333,85881,5,10,2:0:0:0:
475,284,86009,1,10,2:0:0:0:
393,247,86137,1,10,2:0:0:0:
462,369,86265,1,2,3:2:0:0:
343,168,86522,5,2,3:2:0:0:
126,333,86929,5,10,2:0:0:0:
37,284,87058,1,10,2:0:0:0:
119,247,87187,1,10,2:0:0:0:
50,369,87316,1,2,3:2:0:0:
169,168,87592,5,2,3:2:0:0:
169,168,87999,6,0,B|203:133|254:161|268:221|218:270|137:268|98:240|62:172|124:111,1,336,6|0,3:2|0:0,0:0:0:0:
139,88,88514,6,0,P|177:51|207:11,1,96.0000000000001,6|0,3:2|2:0,0:0:0:0:
50,168,88771,6,0,B|37:227|-10:265|-10:265|58:248|134:274,1,240.000000000001,6|0,3:2|2:0,0:0:0:0:
