osu file format v14

[General]
AudioFilename: audio.mp3
AudioLeadIn: 0
PreviewTime: 44185
Countdown: 0
SampleSet: Soft
StackLeniency: 0.5
Mode: 0
LetterboxInBreaks: 0
WidescreenStoryboard: 1

[Editor]
Bookmarks: 795,13219,19717,32374,44964,57637,70269,76387,84254
DistanceSpacing: 1.3
BeatDivisor: 4
GridSize: 32
TimelineZoom: 1.7

[Metadata]
Title:Blue Bird (TV Size)
TitleUnicode:ブルーバード (TV Size)
Artist:Ikimono Gakari
ArtistUnicode:いきものがかり
Creator:Marianna
Version:Alone
Source:NARUTO-ナルト- 疾風伝
Tags:Seto Kousuke Alexsander Naruto Shippuden Net0
BeatmapID:2336789
BeatmapSetID:790770

[Difficulty]
HPDrainRate:6
CircleSize:4
OverallDifficulty:7.5
ApproachRate:9
SliderMultiplier:1.7
SliderTickRate:2

[Events]
//Background and Video events
0,0,"wallhaven-614151_1280x720.png",0,0
//Break Periods
//Storyboard Layer 0 (Background)
//Storyboard Layer 1 (Fail)
//Storyboard Layer 2 (Pass)
//Storyboard Layer 3 (Foreground)
//Storyboard Layer 4 (Overlay)
//Storyboard Sound Samples

[TimingPoints]
795,394.736842105263,4,2,1,60,1,0
795,-111.111111111111,4,2,1,60,0,0
13031,377.358490566038,4,2,1,60,1,0
13219,394.736842105263,4,2,1,75,1,0
13219,-100,4,2,1,75,0,0
13416,394.736842105263,4,2,1,75,1,0
16573,389.61038961039,4,2,1,75,1,0
18131,392.156862745098,4,2,1,75,1,0
19503,428.571428571429,4,2,1,75,1,0
19717,-100,4,2,2,70,0,0
20138,394.736842105263,4,2,2,70,1,0
32374,-100,4,2,1,70,0,0
41848,389.61038961039,4,2,1,70,1,0
44964,-100,4,2,1,80,0,1
45401,394.736842105263,4,2,1,80,1,1
46585,394.736842105263,4,2,1,80,1,1
76387,-100,4,2,1,70,0,0
83670,389.61038961039,4,2,1,70,1,0
84351,-100,4,2,1,5,0,0

[Colours]
Combo1 : 103,157,87
Combo2 : 91,91,140
Combo3 : 184,65,65
Combo4 : 145,139,79
Combo5 : 115,168,146

[HitObjects]
83,109,795,6,0,P|147:144|209:106,1,152.999995330811,2|2,0:0|0:0,0:0:0:0:
146,67,1387,1,0,0:0:0:0:
34,180,1584,2,0,B|8:226|32:256|37:253|60:285|35:325,1,152.999995330811,2|2,0:0|0:0,0:0:0:0:
113,366,2176,1,0,0:0:0:0:
191,327,2373,1,2,0:0:0:0:
416,89,3360,6,0,L|339:92,2,76.4999976654053,0|0|2,0:0|0:0|0:0,0:0:0:0:
253,25,3952,6,0,L|270:176,1,152.999995330811,2|2,0:0|0:0,0:0:0:0:
339,92,4544,1,0,0:0:0:0:
176,45,4742,2,0,P|103:49|67:113,1,152.999995330811,2|0,0:0|0:0,0:0:0:0:
270,176,5334,6,0,L|346:168,1,76.4999976654053,2|0,0:0|0:0,0:0:0:0:
144,120,5729,2,0,L|67:112,1,76.4999976654053,2|0,0:0|0:0,0:0:0:0:
356,333,6518,6,0,L|362:256,2,76.4999976654053,0|2|2,0:0|0:0|0:0,0:0:0:0:
210,278,7110,6,0,L|361:255,1,152.999995330811,2|2,0:0|0:0,0:0:0:0:
269,183,7702,1,0,0:0:0:0:
208,356,7900,2,0,L|283:346,1,76.4999976654053,0|2,0:0|0:0,0:0:0:0:
361,254,8294,1,2,0:0:0:0:
210,278,8492,1,0,0:0:0:0:
433,309,8689,6,0,P|437:201|336:166,1,229.499992996216,0|2,0:0|0:0,0:0:0:0:
45,255,9676,5,2,0:0:0:0:
147,242,9873,1,0,0:0:0:0:
4,260,10071,2,0,L|15:184,1,76.4999976654053,2|0,0:0|0:0,0:0:0:0:
167,321,10466,5,2,0:0:0:0:
45,255,10663,1,0,0:0:0:0:
259,209,10860,2,0,L|247:284,1,76.4999976654053,2|0,0:0|0:0,0:0:0:0:
90,196,11255,6,0,L|14:183,1,76.4999976654053,2|0,0:0|0:0,0:0:0:0:
207,143,11650,2,0,L|282:130,1,76.4999976654053,2|0,0:0|0:0,0:0:0:0:
75,91,12044,1,0,0:0:0:0:
198,35,12242,1,2,0:0:0:0:
90,196,12439,6,0,L|85:214,4,19.1249994163513,2|0|0|0|0,0:0|0:0|0:0|0:0|0:0,0:0:0:0:
165,10,12834,1,2,0:0:0:0:
232,234,13031,1,8,0:0:0:0:
458,116,13219,6,0,P|384:80|314:121,1,170,4|4,0:0|0:3,0:0:0:0:
389,166,13810,1,10,0:0:0:0:
263,50,14008,2,0,P|227:123|268:193,1,170,2|4,0:0|0:3,0:0:0:0:
314,121,14600,1,8,0:0:0:0:
179,243,14797,6,0,L|189:327,1,85,2|0,0:0|0:0,0:0:0:0:
268,193,15192,1,4,0:3:0:0:
91,257,15389,1,10,0:0:0:0:
318,284,15587,2,0,B|404:275|377:340|476:325,1,170,2|4,0:0|0:3,0:0:0:0:
338,360,16179,1,8,0:0:0:0:
446,249,16376,6,0,B|459:209|459:209|446:167,1,85,4|0,0:0|0:0,0:0:0:0:
366,207,16767,1,4,0:3:0:0:
511,127,16962,1,10,0:0:0:0:
328,83,17157,1,2,0:0:0:0:
317,81,17254,1,0,0:0:0:0:
305,79,17352,1,2,0:0:0:0:
459,46,17547,1,4,0:3:0:0:
366,207,17741,1,8,0:0:0:0:
305,79,17936,1,4,0:0:0:0:
125,283,18327,5,8,0:0:0:0:
115,299,18425,1,8,0:0:0:0:
107,312,18523,1,0,0:0:0:0:
237,238,18719,1,8,0:0:0:0:
247,254,18817,1,8,0:0:0:0:
255,267,18915,1,0,0:0:0:0:
176,131,19111,1,8,0:0:0:0:
207,343,19307,1,8,0:0:0:0:
166,47,19717,5,4,0:0:0:0:
166,47,19931,1,0,0:0:0:0:
258,138,20138,1,8,0:0:0:0:
134,170,20335,2,0,P|93:180|52:168,1,85,0|8,0:0|0:0,0:0:0:0:
166,47,20730,1,2,0:0:0:0:
207,202,20927,1,8,0:0:0:0:
52,168,21124,1,2,0:0:0:0:
166,47,21322,5,8,0:0:0:0:
166,47,21519,1,0,0:0:0:0:
215,233,21716,1,8,0:0:0:0:
155,131,21914,2,0,L|166:46,1,85,2|8,0:0|0:0,0:0:0:0:
282,92,22309,2,0,L|270:176,2,85,2|8|2,0:0|0:0|0:0,0:0:0:0:
124,260,22901,5,8,0:0:0:0:
124,260,23098,1,0,0:0:0:0:
255,295,23295,1,10,0:0:0:0:
57,221,23493,2,0,P|44:261|59:300,1,85,0|8,0:0|0:0,0:0:0:0:
252,374,23888,2,0,P|266:334|254:294,1,85,2|8,0:0|0:0,0:0:0:0:
116,156,24282,5,2,0:0:0:0:
116,156,24480,1,8,0:0:0:0:
284,192,24677,1,2,0:0:0:0:
124,260,24874,1,8,0:0:0:0:
323,169,25072,2,0,L|310:253,1,85,2|0,0:0|0:0,0:0:0:0:
169,124,25466,1,2,0:0:0:0:
173,105,25565,1,2,0:0:0:0:
177,88,25664,1,8,0:0:0:0:
323,169,25861,1,2,0:3:0:0:
124,260,26059,5,8,0:0:0:0:
124,260,26256,1,0,0:0:0:0:
169,124,26453,1,8,0:0:0:0:
303,268,26651,2,0,L|218:263,1,85,2|8,0:0|0:0,0:0:0:0:
349,202,27045,1,2,0:0:0:0:
319,344,27243,1,8,0:0:0:0:
218,263,27440,1,2,0:0:0:0:
419,285,27637,5,8,0:0:0:0:
419,285,27835,1,2,0:0:0:0:
309,349,28032,1,8,0:0:0:0:
381,216,28230,2,0,B|421:202|421:202|462:215,1,85,2|8,0:0|0:0,0:0:0:0:
309,349,28624,1,2,0:0:0:0:
256,233,28822,2,0,B|242:193|242:193|255:152,1,85,8|2,0:0|0:0,0:0:0:0:
456,310,29216,5,8,0:0:0:0:
456,310,29414,1,0,0:0:0:0:
309,349,29611,2,0,L|225:343,1,85,8|0,0:0|0:0,0:0:0:0:
108,335,30006,1,8,0:0:0:0:
273,268,30203,1,0,0:0:0:0:
149,156,30401,2,0,P|137:196|149:236,1,85,2|4,0:0|0:0,0:0:0:0:
461,68,30993,5,2,0:0:0:0:
427,62,31091,1,0,0:0:0:0:
393,57,31190,1,2,0:0:0:0:
398,86,31288,1,0,0:0:0:0:
402,116,31387,1,0,0:0:0:0:
407,145,31486,1,0,0:0:0:0:
412,175,31585,1,2,0:0:0:0:
428,150,31683,1,0,0:0:0:0:
445,125,31782,1,0,0:0:0:0:
461,101,31881,1,0,0:0:0:0:
478,76,31979,1,2,0:0:0:0:
326,140,32177,1,2,0:0:0:0:
488,248,32374,6,0,P|416:210|342:246,1,170,4|8,0:0|0:0,0:0:0:0:
414,303,32966,1,4,0:3:0:0:
489,249,33164,1,0,0:0:0:0:
296,170,33361,2,0,P|257:242|293:316,1,170,8|0,0:0|0:0,0:0:0:0:
388,142,33953,6,0,L|220:114,1,170,2|8,0:0|0:0,0:0:0:0:
128,87,34545,1,0,0:0:0:0:
280,47,34743,1,4,0:3:0:0:
71,160,34940,2,0,P|35:85|73:13,1,170,8|0,0:0|0:0,0:0:0:0:
220,114,35532,6,0,P|255:188|217:260,1,170,4|8,0:3|0:0,0:0:0:0:
141,316,36124,1,4,0:3:0:0:
163,188,36322,1,0,0:0:0:0:
304,293,36519,2,0,B|216:272|226:337|140:315,1,170,8|0,0:0|0:0,0:0:0:0:
0,243,37111,6,0,B|56:219|56:219|118:242,2,127.5,4|2|2,0:3|0:0|0:0,0:0:0:0:
62,318,37901,1,2,0:0:0:0:
204,214,38098,1,8,0:0:0:0:
171,187,38196,1,8,0:0:0:0:
129,178,38295,1,8,0:0:0:0:
89,189,38394,1,4,0:3:0:0:
57,216,38492,1,8,0:0:0:0:
207,317,38690,6,0,B|278:311|278:311|300:326|300:326|371:319,1,170,4|8,0:0|0:0,0:0:0:0:
501,307,39282,1,0,0:0:0:0:
329,229,39480,1,8,0:0:0:0:
329,229,39578,1,0,0:0:0:0:
329,229,39677,1,2,0:0:0:0:
452,131,39874,2,0,P|465:170|454:210,1,85,8|2,0:0|0:0,0:0:0:0:
303,127,40269,1,8,0:0:0:0:
480,128,40466,1,2,0:0:0:0:
383,328,40664,6,0,L|383:243,1,85,8|2,0:0|0:0,0:0:0:0:
386,48,41059,1,8,0:0:0:0:
496,214,41256,1,2,0:0:0:0:
286,227,41453,1,8,0:0:0:0:
480,128,41651,1,0,0:0:0:0:
210,324,42042,5,4,0:0:0:0:
256,140,42237,1,8,0:0:0:0:
204,350,42432,1,0,0:0:0:0:
159,139,42627,5,2,0:0:0:0:
335,262,42822,1,8,0:0:0:0:
133,363,43016,1,8,0:0:0:0:
293,187,43211,2,0,P|332:173|372:185,1,85,6|0,0:0|0:0,0:0:0:0:
73,268,43601,5,10,0:0:0:0:
252,121,43796,1,10,0:0:0:0:
252,121,43893,1,0,0:0:0:0:
252,121,43990,1,8,0:0:0:0:
59,43,44185,2,0,L|72:126,1,85,10|8,0:0|0:0,0:0:0:0:
179,275,44575,5,4,0:3:0:0:
206,242,44673,1,8,0:0:0:0:
215,200,44772,1,4,0:3:0:0:
204,160,44871,1,4,0:3:0:0:
177,128,44969,5,6,0:0:0:0:
107,213,45159,1,0,0:0:0:0:
179,275,45401,2,0,B|227:267|256:300|256:300|285:267|334:275,1,170,8|4,0:0|0:3,0:0:0:0:
257,191,45993,1,4,0:3:0:0:
179,275,46190,2,0,L|114:329,1,85,8|0,0:0|0:0,0:0:0:0:
255,180,46585,5,2,0:0:0:0:
333,274,46782,1,4,0:3:0:0:
256,361,46979,1,8,0:0:0:0:
179,274,47177,2,0,P|255:244|332:274,1,170,2|2,0:0|0:0,0:0:0:0:
256,361,47769,1,8,0:0:0:0:
179,274,47966,1,2,0:0:0:0:
94,169,48163,6,0,B|187:146|168:206|259:181,1,170,2|8,0:0|0:0,0:0:0:0:
180,89,48756,1,0,0:0:0:0:
94,169,48953,2,0,P|79:208|94:246,1,85,4|4,0:3|0:3,0:0:0:0:
174,320,49348,1,8,0:0:0:0:
258,181,49545,6,0,P|272:141|257:103,1,85,2|0,0:0|0:0,0:0:0:0:
93,91,49940,2,0,P|78:130|93:168,1,85,2|8,0:0|0:0,0:0:0:0:
177,273,50335,1,2,0:0:0:0:
177,273,50433,1,0,0:0:0:0:
177,273,50532,1,4,0:3:0:0:
257,103,50729,1,4,0:3:0:0:
75,121,50927,1,8,0:0:0:0:
290,235,51124,1,2,0:3:0:0:
290,235,51223,1,4,0:3:0:0:
290,235,51321,6,0,B|367:228|367:228|385:237|385:237|457:229,1,170,4|8,0:0|0:0,0:0:0:0:
361,150,51913,1,0,0:0:0:0:
353,314,52111,1,2,0:0:0:0:
495,250,52308,1,4,0:3:0:0:
361,150,52506,1,8,0:0:0:0:
340,331,52703,6,0,P|414:364|487:325,1,170,2|2,0:0|0:0,0:0:0:0:
411,271,53295,1,8,0:0:0:0:
340,331,53492,2,0,L|265:371,1,85,2|4,0:0|0:3,0:0:0:0:
411,271,53887,1,4,0:3:0:0:
337,209,54085,1,10,0:0:0:0:
415,140,54282,1,2,0:0:0:0:
415,140,54381,1,4,0:3:0:0:
414,140,54479,6,0,P|455:128|494:142,1,85,4|4,0:0|0:3,0:0:0:0:
333,82,54874,1,8,0:0:0:0:
256,141,55071,2,0,P|215:152|176:138,1,85,2|4,0:0|0:3,0:0:0:0:
331,66,55466,1,4,0:3:0:0:
414,140,55663,1,8,0:0:0:0:
258,221,55861,6,0,B|243:180|243:180|255:140,1,85,2|0,0:0|0:0,0:0:0:0:
329,42,56256,1,2,0:0:0:0:
414,140,56453,2,0,B|426:179|426:179|411:220,1,85,8|2,0:0|0:0,0:0:0:0:
329,304,56848,1,4,0:3:0:0:
258,221,57045,1,4,0:3:0:0:
183,142,57242,1,8,0:0:0:0:
90,272,57440,1,8,0:0:0:0:
90,272,57538,1,4,0:3:0:0:
90,272,57637,5,4,0:3:0:0:
258,221,57835,1,4,0:3:0:0:
87,192,58032,2,0,B|14:238|14:238|90:271,1,170,4|4,0:0|0:3,0:0:0:0:
240,223,58624,1,4,0:3:0:0:
87,192,58821,2,0,L|2:183,1,85,8|2,0:0|0:0,0:0:0:0:
258,221,59216,5,4,0:3:0:0:
90,271,59413,1,4,0:3:0:0:
127,110,59611,1,8,0:0:0:0:
331,277,59808,2,0,P|257:313|183:276,1,170,2|4,0:0|0:3,0:0:0:0:
258,221,60400,1,8,0:0:0:0:
331,277,60598,1,2,0:0:0:0:
132,349,60795,6,0,P|95:275|132:201,1,170,2|8,0:0|0:0,0:0:0:0:
183,276,61387,1,0,0:0:0:0:
132,349,61584,2,0,L|47:349,1,85,2|0,0:0|0:0,0:0:0:0:
183,276,61979,1,8,0:0:0:0:
30,151,62177,6,0,B|18:193|18:193|29:232,1,85,2|0,0:0|0:0,0:0:0:0:
183,276,62571,2,0,B|195:234|195:234|183:194,1,85,2|8,0:0|0:0,0:0:0:0:
47,349,62966,1,2,0:0:0:0:
47,349,63065,1,4,0:3:0:0:
47,349,63163,1,4,0:3:0:0:
183,276,63361,1,4,0:3:0:0:
51,199,63558,1,8,0:0:0:0:
144,362,63756,1,4,0:3:0:0:
144,362,63854,1,8,0:0:0:0:
144,362,63953,6,0,B|221:334|221:334|305:359,1,170,4|8,0:0|0:0,0:0:0:0:
414,339,64545,1,0,0:0:0:0:
255,216,64742,1,4,0:3:0:0:
305,359,64940,1,4,0:3:0:0:
408,244,65137,1,8,0:0:0:0:
199,137,65334,6,0,B|173:221|173:221|201:298,1,170,2|2,0:0|0:0,0:0:0:0:
255,216,65927,1,8,0:0:0:0:
199,137,66124,2,0,L|119:107,1,85,2|4,0:0|0:3,0:0:0:0:
17,196,66519,1,4,0:3:0:0:
120,283,66716,1,10,0:0:0:0:
119,107,66913,1,2,0:0:0:0:
119,107,67012,1,4,0:3:0:0:
119,107,67111,6,0,P|78:95|38:107,1,85,4|4,0:0|0:3,0:0:0:0:
176,33,67506,1,10,0:0:0:0:
256,111,67703,2,0,P|296:122|336:110,1,85,2|4,0:0|0:3,0:0:0:0:
178,24,68098,1,4,0:3:0:0:
119,107,68295,1,8,0:0:0:0:
256,190,68492,6,0,P|269:150|255:110,1,85,2|0,0:0|0:0,0:0:0:0:
178,24,68887,1,2,0:0:0:0:
119,107,69085,2,0,P|105:146|118:186,1,85,8|2,0:0|0:0,0:0:0:0:
255,110,69479,1,4,0:3:0:0:
119,107,69677,1,4,0:3:0:0:
184,233,69874,1,10,0:0:0:0:
299,45,70071,1,0,0:0:0:0:
299,45,70170,1,4,0:3:0:0:
299,45,70269,6,0,B|257:33|257:33|217:43,1,85,4|4,0:0|0:3,0:0:0:0:
373,94,70663,1,10,0:0:0:0:
295,152,70861,2,0,B|253:164|253:164|213:153,1,85,0|4,0:0|0:3,0:0:0:0:
399,94,71256,1,6,0:3:0:0:
217,43,71453,1,8,0:0:0:0:
296,233,71650,6,0,P|305:192|294:151,1,85,4|0,0:0|0:0,0:0:0:0:
399,94,72045,1,2,0:0:0:0:
399,94,72242,2,0,P|389:134|400:175,1,85,8|0,0:0|0:0,0:0:0:0:
481,332,72637,1,8,0:0:0:0:
447,309,72735,1,8,0:0:0:0:
405,301,72834,1,4,0:3:0:0:
364,309,72933,1,4,0:3:0:0:
329,333,73031,1,8,0:0:0:0:
181,268,73229,5,4,0:0:0:0:
266,199,73427,1,0,0:0:0:0:
170,287,73624,5,4,0:0:0:0:
199,121,73821,1,0,0:0:0:0:
70,221,74019,5,4,0:0:0:0:
303,203,74216,1,0,0:0:0:0:
88,115,74413,5,4,0:0:0:0:
199,320,74611,1,4,0:3:0:0:
350,121,74808,2,0,P|268:108|207:163,1,170,4|2,0:0|0:0,0:0:0:0:
170,348,75400,5,8,0:0:0:0:
100,195,75598,1,8,0:0:0:0:
178,366,75795,1,4,0:3:0:0:
0,345,75992,1,8,0:0:0:0:
38,326,76090,1,0,0:0:0:0:
76,307,76189,1,8,0:0:0:0:
206,162,76387,6,0,B|129:197|129:197|53:162,1,170,4|2,0:0|0:0,0:0:0:0:
127,96,76979,1,8,0:0:0:0:
332,268,77177,1,4,0:3:0:0:
298,245,77275,1,8,0:0:0:0:
256,237,77374,1,4,0:3:0:0:
215,245,77473,1,4,0:3:0:0:
180,269,77571,1,4,0:3:0:0:
255,335,77769,1,8,0:0:0:0:
316,171,77966,6,0,L|307:86,1,85,6|0,0:0|0:0,0:0:0:0:
215,245,78361,1,2,0:0:0:0:
332,268,78558,1,10,0:0:0:0:
192,147,78756,2,0,B|105:142|121:204|33:192,1,170,2|2,0:0|0:0,0:0:0:0:
82,86,79348,1,8,0:0:0:0:
142,248,79545,6,0,B|156:288|156:288|142:328,1,85,4|0,0:0|0:0,0:0:0:0:
64,284,79940,1,2,0:0:0:0:
224,232,80137,1,8,0:0:0:0:
33,192,80334,1,2,0:0:0:0:
22,190,80431,1,2,0:0:0:0:
10,188,80529,1,4,0:3:0:0:
146,140,80729,1,4,0:3:0:0:
30,92,80927,1,8,0:0:0:0:
143,248,81124,6,0,L|227:237,1,85,4|0,0:0|0:0,0:0:0:0:
53,181,81519,1,8,0:0:0:0:
42,179,81616,1,8,0:0:0:0:
30,177,81714,1,4,0:3:0:0:
215,119,81913,1,8,0:0:0:0:
226,117,82010,1,0,0:0:0:0:
238,115,82108,1,4,0:3:0:0:
77,85,82308,1,4,0:3:0:0:
143,248,82506,1,8,0:3:0:0:
238,115,82703,6,0,L|227:30,1,85,4|0,0:0|0:0,0:0:0:0:
116,167,83098,1,8,0:0:0:0:
114,178,83195,1,8,0:0:0:0:
112,190,83293,1,4,0:3:0:0:
294,241,83492,1,8,0:0:0:0:
296,252,83589,1,0,0:0:0:0:
298,264,83670,1,4,0:3:0:0:
136,316,83864,1,8,0:0:0:0:
213,182,84059,1,4,0:3:0:0:
303,367,84254,5,4,0:0:0:0:
256,192,84351,12,0,89416,0:0:0:0:
