osu file format v14

[General]
AudioFilename: audio.mp3
AudioLeadIn: 0
PreviewTime: 45141
Countdown: 0
SampleSet: Soft
StackLeniency: 0.4
Mode: 0
LetterboxInBreaks: 0
WidescreenStoryboard: 0

[Editor]
Bookmarks: 1669,14293,33229,74257
DistanceSpacing: 1.9
BeatDivisor: 4
GridSize: 4
TimelineZoom: 2.999999

[Metadata]
Title:Blue Bird (TV Size)
TitleUnicode:ブルーバード
Artist:Ikimono Gakari
ArtistUnicode:いきものがかり
Creator:Josefumi
Version:Insane
Source:NARUTO -ナルト-
Tags:疾風伝
BeatmapID:1341593
BeatmapSetID:631904

[Difficulty]
HPDrainRate:7
CircleSize:3.9
OverallDifficulty:8
ApproachRate:8.5
SliderMultiplier:1.1
SliderTickRate:2

[Events]
//Background and Video events
0,0,"BG.png",0,0
Video,0,"video.mp4"
//Break Periods
//Storyboard Layer 0 (Background)
//Storyboard Layer 1 (Fail)
//Storyboard Layer 2 (Pass)
//Storyboard Layer 3 (Foreground)
//Storyboard Sound Samples

[TimingPoints]
63,394.736842105263,4,2,1,50,1,0
12477,-200,4,2,1,50,0,0
12575,-200,4,2,1,5,0,0
13760,-66.6666666666667,4,2,1,50,0,0
19207,382.165605095541,4,2,1,50,1,0
20588,394.736842105263,4,2,1,50,1,0
20588,-76.9230769230769,4,2,1,50,0,0
26262,-76.9230769230769,4,2,1,5,0,0
26361,-76.9230769230769,4,2,1,50,0,0
26558,-76.9230769230769,4,2,1,5,0,0
26657,-76.9230769230769,4,2,1,50,0,0
26755,-76.9230769230769,4,2,1,5,0,0
26854,-76.9230769230769,4,2,1,50,0,0
42890,380.952380952381,4,2,1,50,1,0
45175,413.793103448276,4,2,1,50,1,0
45795,-66.6666666666667,4,2,1,50,0,0
45837,394.736842105263,4,2,1,50,1,0
45837,-66.6666666666667,4,2,1,50,0,1
77218,-66.6666666666667,4,2,1,50,0,0
89154,-66.6666666666667,4,2,1,5,0,0
89352,-66.6666666666667,4,2,1,50,0,0

[Colours]
Combo1 : 128,128,128
Combo2 : 106,230,255
Combo3 : 255,243,15
Combo4 : 21,138,255
Combo5 : 192,192,192

[HitObjects]
76,108,1074,53,0,0:0:0:0:
56,240,1271,1,0,0:0:0:0:
180,196,1469,1,0,0:0:0:0:
180,196,1666,2,0,P|200:256|228:320,1,110
332,188,2431,2,0,P|312:128|284:64,1,110
200,36,3023,1,0,0:0:0:0:
92,104,4207,5,0,0:0:0:0:
96,188,4405,1,0,0:0:0:0:
160,240,4602,1,0,0:0:0:0:
244,240,4799,2,0,P|320:224|424:248,1,165
332,144,5589,2,0,P|280:116|212:112,1,110
112,120,6181,1,0,0:0:0:0:
112,120,6576,1,0,0:0:0:0:
344,300,7365,53,0,0:0:0:0:
312,224,7563,1,0,0:0:0:0:
356,144,7760,1,0,0:0:0:0:
308,76,7957,2,0,B|264:40|200:36|200:36|136:64,1,165
208,112,8747,2,0,L|208:244,1,110
164,304,9339,1,0,0:0:0:0:
57,100,10523,5,2,0:0:0:0:
158,38,10720,1,0,0:0:0:0:
209,99,10918,1,2,0:0:0:0:
453,99,11312,1,2,0:0:0:0:
402,38,11510,1,0,0:0:0:0:
301,100,11707,1,2,0:0:0:0:
256,192,12102,1,0,0:0:0:0:
256,192,12497,54,0,L|256:364,1,165,2|0,0:0|0:0,0:0:0:0:
140,212,13878,37,0,0:1:0:0:
256,120,14076,2,0,P|332:104|436:100,1,165.000006294251,4|0,1:1|0:1,0:1:0:0:
240,20,14668,1,2,0:1:0:0:
150,130,14865,2,0,L|138:226,1,82.5000031471254,0|0,0:1|0:1,0:1:0:0:
224,340,15260,1,0,0:1:0:0:
248,144,15457,1,2,0:1:0:0:
320,296,15655,2,0,P|344:320|396:332,1,82.5000031471254,0|0,0:1|0:1,0:1:0:0:
118,273,16049,1,0,0:1:0:0:
276,220,16247,1,2,0:1:0:0:
151,132,16444,6,0,P|103:188|127:284,1,165.000006294251,0|0,0:1|0:1,0:1:0:0:
264,360,17036,1,2,0:1:0:0:
56,348,17234,2,0,P|144:364|208:304,1,165.000006294251,4|0,0:0|0:1,0:1:0:0:
144,196,17826,1,2,0:1:0:0:
269,102,18023,2,0,L|285:190,1,82.5000031471254,0|0,0:1|0:1,0:1:0:0:
400,200,18418,1,0,0:1:0:0:
492,116,18615,1,2,0:1:0:0:
284,184,18812,38,0,B|224:168|224:168|192:132|192:132|132:112,1,165.000006294251,4|0,0:0|0:1,0:0:0:0:
140,114,19302,1,0,0:1:0:0:
140,114,19398,1,0,0:1:0:0:
116,232,19589,1,0,0:1:0:0:
116,232,19684,1,0,0:1:0:0:
116,232,19780,1,0,0:1:0:0:
240,296,19971,1,0,0:1:0:0:
296,216,20162,1,0,0:1:0:0:
272,120,20353,1,0,0:1:0:0:
396,232,20588,5,0,1:0:0:0:
240,296,20785,2,0,P|212:272|196:228,1,71.4999967269899
104,144,21180,2,0,L|100:286,1,142.99999345398,0|0,1:0|0:0,0:0:0:0:
212,204,21772,2,0,P|243:187|269:163,1,71.4999967269899
360,72,22166,1,0,1:0:0:0:
444,180,22364,2,0,L|448:264,1,71.4999967269899
328,320,22759,2,0,B|240:308|240:308|184:320,1,142.99999345398,0|0,1:0|0:0,0:0:0:0:
64,356,23351,1,0,0:0:0:0:
140,252,23548,1,0,0:0:0:0:
56,156,23745,5,0,1:0:0:0:
184,132,23943,2,0,L|248:172,1,71.4999967269899,0|0,1:0|1:0,1:0:0:0:
220,40,24338,2,0,P|156:28|88:76,1,142.99999345398,0|0,1:0|0:0,0:0:0:0:
76,196,24930,1,0,0:0:0:0:
184,132,25127,1,0,0:0:0:0:
228,252,25324,38,0,L|320:244,1,71.4999967269899,0|0,1:0|1:0,1:0:0:0:
392,336,25719,1,0,1:0:0:0:
480,240,25916,1,0,1:0:0:0:
364,188,26114,2,0,P|360:156|376:112,1,71.4999967269899
328,124,26410,2,0,P|335:92|369:52,1,71.4999967269899
256,52,26706,2,0,P|256:37|256:16,1,35.749998363495
256,17,26903,5,0,1:0:0:0:
220,152,27101,1,0,1:0:0:0:
92,112,27298,2,0,P|81:146|85:181,1,71.4999967269899,0|0,1:0|0:0,0:0:0:0:
156,300,27693,1,0,0:0:0:0:
24,324,27890,1,0,0:0:0:0:
160,308,28087,2,0,L|152:384,1,71.4999967269899
260,292,28482,1,0,1:0:0:0:
336,180,28680,2,0,P|368:172|416:172,1,71.4999967269899,0|0,1:0|0:0,0:0:0:0:
492,288,29074,2,0,P|500:217|480:140,1,142.99999345398
380,60,29666,5,0,0:0:0:0:
272,144,29864,1,0,0:0:0:0:
272,144,30061,2,0,B|176:160|176:160|104:144,1,142.99999345398,0|0,1:0|1:0,0:0:0:0:
32,60,30653,1,0,0:0:0:0:
168,72,30851,2,0,P|172:36|168:-12,1,71.4999967269899
16,88,31245,2,0,P|-8:160|28:300,1,214.49999018097,2|0,0:0|0:0,0:0:0:0:
156,336,32035,1,0,0:0:0:0:
276,276,32232,37,0,0:0:0:0:
180,180,32430,2,0,P|180:148|180:104,1,71.4999967269899,2|0,0:0|0:0,0:0:0:0:
288,28,32824,1,0,0:0:0:0:
84,64,33022,1,0,0:0:0:0:
188,192,33219,6,0,P|256:212|348:188,1,142.99999345398,0|2,1:1|0:1,0:1:0:0:
428,288,33811,1,0,1:1:0:0:
472,160,34009,1,0,1:1:0:0:
384,56,34206,2,0,B|328:49|328:49|288:68|260:113,1,142.99999345398,2|0,0:1|0:1,0:1:0:0:
116,168,34798,2,0,L|244:189,1,142.99999345398,0|2,1:1|0:1,0:1:0:0:
160,288,35390,1,0,1:1:0:0:
40,352,35587,1,0,1:1:0:0:
172,300,35785,2,0,L|260:312,1,71.4999967269899,2|0,0:1|0:1,0:1:0:0:
359,231,36180,1,0,1:1:0:0:
376,374,36377,6,0,L|356:202,1,142.99999345398,0|2,1:1|0:1,0:1:0:0:
452,132,36969,1,0,1:1:0:0:
316,132,37166,1,0,1:1:0:0:
216,40,37364,2,0,B|164:32|164:32|48:44,1,142.99999345398,2|0,0:1|1:1,0:1:0:0:
180,128,37956,2,0,P|236:168|320:156,1,142.99999345398,0|2,1:1|0:1,0:1:0:0:
388,72,38548,1,0,1:1:0:0:
272,32,38745,1,4,1:2:0:0:
128,72,38943,37,10,0:1:0:0:
122,107,39041,1,8,0:1:0:0:
116,142,39140,1,2,1:1:0:0:
148,216,39239,1,8,0:1:0:0:
143,251,39337,1,8,0:1:0:0:
138,286,39436,1,8,0:1:0:0:
136,320,39535,2,2,P|195:347|287:308,1,142.99999345398,4|2,1:1|0:1,0:1:0:0:
316,188,40127,5,0,0:0:0:0:
444,252,40324,1,0,1:0:0:0:
308,300,40522,2,0,L|300:384,1,71.4999967269899,0|2,1:0|1:0,1:0:0:0:
180,216,40916,1,0,0:0:0:0:
288,120,41114,5,0,1:0:0:0:
164,48,41311,1,0,1:0:0:0:
72,124,41509,2,0,P|24:112|-16:96,1,71.4999967269899,2|0,1:0|0:0,1:0:0:0:
44,268,41903,1,0,1:0:0:0:
180,216,42101,1,0,1:0:0:0:
296,300,42298,1,2,1:1:0:0:
324,160,42495,2,0,B|336:80|336:80|320:16,1,142.99999345398,0|0,1:0|1:0,1:0:0:0:
420,120,43080,37,0,1:0:0:0:
476,280,43270,1,0,1:0:0:0:
312,232,43461,1,0,0:0:0:0:
432,116,43651,5,0,0:0:0:0:
492,276,43842,1,0,1:0:0:0:
320,248,44032,2,0,L|188:220,1,110,2|2,0:1|0:1,0:0:0:0:
136,88,44604,1,2,0:3:0:0:
88,200,44794,1,2,0:3:0:0:
120,316,44985,1,2,0:3:0:0:
400,296,45381,1,2,0:1:0:0:
369,278,45485,1,2,0:1:0:0:
349,249,45588,1,2,0:1:0:0:
343,215,45692,1,2,0:1:0:0:
351,191,45795,6,0,P|411:207|519:191,1,165.000006294251,6|10,0:1|0:1,0:1:0:0:
364,84,46429,1,0,0:1:0:0:
224,168,46626,2,0,B|196:224|196:224|208:348,1,165.000006294251,0|10,1:1|0:1,0:1:0:0:
112,188,47218,1,0,0:1:0:0:
216,56,47415,1,0,1:1:0:0:
368,124,47613,2,0,L|476:96,1,82.5000031471254,0|10,1:1|1:1,1:1:0:0:
247,128,48008,2,0,P|190:187|97:181,1,165.000006294251,0|0,0:1|1:1,0:1:0:0:
136,40,48600,1,10,1:1:0:0:
276,124,48797,1,0,0:1:0:0:
424,40,48994,38,0,P|388:96|384:200,1,165.000006294251,0|10,1:1|1:1,1:1:0:0:
308,340,49587,1,0,0:1:0:0:
216,204,49784,2,0,L|212:112,1,82.5000031471254,0|0,1:1|1:1,0:1:0:0:
92,264,50179,2,0,L|100:356,1,82.5000031471254,10|0,1:1|0:1,0:1:0:0:
116,164,50573,1,0,1:1:0:0:
208,304,50771,1,0,1:1:0:0:
316,180,50968,2,0,P|355:171|403:170,1,82.5000031471254,10|0,1:1|0:1,0:1:0:0:
208,304,51363,6,0,L|111:301,1,82.5000031471254,0|0,1:1|1:1,1:1:0:0:
40,160,51758,1,10,1:1:0:0:
208,112,51955,1,0,0:1:0:0:
208,112,52054,1,0,0:1:0:0:
208,112,52152,6,0,P|292:120|392:104,1,165.000006294251,4|10,1:1|1:1,0:1:0:0:
452,252,52744,1,0,0:1:0:0:
288,224,52942,2,0,P|246:223|206:232,1,82.5000031471254,0|0,1:1|1:1,0:1:0:0:
376,340,53337,2,0,L|458:341,1,82.5000031471254,10|0,1:1|1:1,0:1:0:0:
260,320,53731,1,0,1:1:0:0:
96,352,53929,1,0,1:1:0:0:
206,232,54126,1,10,1:1:0:0:
328,120,54323,2,0,B|224:104|224:104|160:120,1,165.000006294251,0|0,0:1|1:1,0:1:0:0:
100,268,54915,37,10,1:1:0:0:
56,108,55113,1,0,0:1:0:0:
56,108,55212,1,0,0:1:0:0:
56,108,55310,2,0,P|51:156|59:220,1,82.5000031471254,4|0,1:1|1:1,1:1:0:0:
152,324,55705,1,10,1:1:0:0:
296,248,55902,2,0,L|400:260,1,82.5000031471254,0|0,0:1|1:1,0:1:0:0:
500,148,56297,1,0,1:1:0:0:
472,308,56494,1,10,1:1:0:0:
380,172,56692,6,0,B|360:48|360:48|412:92,1,165.000006294251,0|0,0:1|1:1,0:1:0:0:
377,257,57284,1,10,1:1:0:0:
220,200,57481,2,0,L|116:196,2,82.5000031471254,0|0|0,0:1|1:1|1:1,0:1:0:0:
107,65,58073,1,10,1:1:0:0:
124,47,58172,1,8,0:1:0:0:
145,35,58271,1,8,0:1:0:0:
169,30,58369,1,8,0:1:0:0:
192,32,58468,6,0,B|252:36|252:36|296:24|296:24|364:28,1,165.000006294251,4|14,0:1|1:1,0:1:0:0:
464,136,59060,1,0,0:1:0:0:
308,112,59258,1,0,1:1:0:0:
180,216,59455,2,0,P|176:260|188:320,1,82.5000031471254,0|10,1:1|1:1,1:1:0:0:
48,176,59850,2,0,L|48:4,1,165.000006294251,0|0,0:1|1:1,0:1:0:0:
192,96,60442,1,10,1:1:0:0:
344,36,60639,2,0,P|408:24|528:44,1,165.000006294251,0|0,0:1|1:1,0:1:0:0:
384,136,61231,1,10,1:1:0:0:
496,256,61429,1,0,0:1:0:0:
336,216,61626,38,0,L|320:312,1,82.5000031471254,0|0,1:1|1:1,1:1:0:0:
156,288,62021,2,0,L|168:400,1,82.5000031471254,10|0,1:1|0:1,0:1:0:0:
232,192,62415,1,0,1:1:0:0:
72,228,62613,1,0,1:1:0:0:
192,116,62810,1,10,1:1:0:0:
28,100,63008,2,0,P|108:84|196:100,1,165.000006294251,0|0,0:1|1:1,0:1:0:0:
328,188,63600,5,10,1:1:0:0:
472,104,63797,2,0,P|472:64|476:16,1,82.5000031471254,0|0,0:1|1:1,0:1:0:0:
332,104,64192,1,0,1:1:0:0:
424,240,64389,1,10,1:1:0:0:
280,360,64586,5,0,0:1:0:0:
280,360,64685,1,0,0:1:0:0:
279,359,64784,2,0,L|275:194,1,165.000006294251,4|10,1:1|1:1,0:1:0:0:
180,60,65376,1,0,0:1:0:0:
32,136,65573,2,0,L|28:235,1,82.5000031471254,0|0,1:1|1:1,1:1:0:0:
160,320,65968,1,2,1:1:0:0:
275,194,66165,2,0,P|319:186|451:202,1,165.000006294251,0|0,0:1|1:1,0:1:0:0:
304,96,66758,1,10,1:1:0:0:
192,216,66955,2,0,P|148:224|16:208,1,165.000006294251,0|0,0:1|1:1,0:1:0:0:
160,100,67547,37,10,1:1:0:0:
324,124,67744,2,0,L|428:116,1,82.5000031471254,0|4,0:1|1:1,0:1:0:0:
192,216,68139,5,0,1:1:0:0:
356,244,68337,2,0,L|460:236,2,82.5000031471254,10|0|0,1:1|0:1|1:1,0:1:0:0:
192,216,68929,1,0,1:1:0:0:
264,364,69126,1,10,1:1:0:0:
104,332,69323,2,0,P|64:268|100:184,1,165.000006294251,0|0,0:1|1:1,0:1:0:0:
212,76,69915,1,10,1:1:0:0:
376,64,70113,2,0,P|424:72|484:56,1,82.5000031471254,0|0,0:1|1:1,0:1:0:0:
336,180,70508,5,0,0:0:0:0:
212,76,70705,1,10,1:1:0:0:
176,237,70902,2,0,L|176:341,1,82.5000031471254,0|4,0:1|1:1,0:1:0:0:
94,99,71297,37,0,1:1:0:0:
54,261,71495,2,0,L|54:365,2,82.5000031471254,10|0|0,1:1|0:1|1:1,0:1:0:0:
172,144,72087,1,0,1:1:0:0:
332,184,72284,1,10,1:1:0:0:
496,172,72481,6,0,P|420:140|332:184,1,165.000006294251,2|0,0:1|1:1,0:1:0:0:
212,264,73073,2,0,L|232:376,1,82.5000031471254,10|0,1:1|0:1,0:1:0:0:
80,224,73468,1,8,1:1:0:0:
83,196,73567,1,8,0:1:0:0:
86,169,73665,1,8,1:1:0:0:
89,141,73764,1,8,0:1:0:0:
93,114,73863,1,10,1:1:0:0:
236,52,74060,5,4,0:2:0:0:
236,52,74159,1,0,0:1:0:0:
236,52,74258,2,0,P|276:48|324:52,2,82.5000031471254,0|4|0,1:1|1:2|1:1,1:1:0:0:
104,152,74850,2,0,L|16:160,2,82.5000031471254,4|0|4,1:2|1:1|1:2,1:1:0:0:
232,260,75442,2,0,L|348:264,1,82.5000031471254,0|4,1:1|1:2,1:1:0:0:
444,176,75836,37,0,1:1:0:0:
496,324,76034,1,0,1:1:0:0:
344,288,76231,1,0,1:1:0:0:
288,140,76429,1,0,1:1:0:0:
164,236,76626,1,0,1:1:0:0:
124,80,76823,1,0,1:1:0:0:
276,120,77021,1,0,1:1:0:0:
176,240,77218,6,0,P|92:220|12:236,1,165.000006294251,4|0,0:0|0:1,0:1:0:0:
152,128,77810,1,2,0:1:0:0:
308,188,78008,2,0,L|348:300,1,82.5000031471254,0|0,0:1|0:1,0:1:0:0:
456,152,78402,1,0,0:1:0:0:
304,84,78600,1,2,0:1:0:0:
204,204,78797,2,0,P|196:128|204:28,1,165.000006294251,4|0,0:0|0:1,0:1:0:0:
56,96,79389,1,2,0:1:0:0:
88,252,79587,2,0,L|76:372,1,82.5000031471254,0|0,0:1|0:1,0:1:0:0:
224,272,79981,1,0,0:1:0:0:
364,316,80179,1,2,0:1:0:0:
288,180,80376,6,0,P|336:164|448:184,1,165.000006294251,4|0,0:0|0:1,0:1:0:0:
304,84,80968,1,2,0:1:0:0:
212,212,81165,2,0,P|164:228|52:208,1,165.000006294251,0|0,0:1|0:1,0:1:0:0:
140,76,81758,1,2,0:1:0:0:
304,84,81955,2,0,L|308:-12,1,82.5000031471254,4|0,0:0|0:1,0:1:0:0:
444,108,82350,37,8,0:1:0:0:
444,108,82448,1,8,0:1:0:0:
444,108,82547,1,8,0:1:0:0:
332,216,82744,1,8,0:1:0:0:
332,216,82843,1,8,0:1:0:0:
332,216,82942,1,8,0:1:0:0:
200,132,83139,1,8,0:1:0:0:
96,248,83337,1,8,0:1:0:0:
44,100,83534,2,0,L|44:-4,1,82.5000031471254,8|0,0:1|0:1,0:1:0:0:
204,40,83929,5,8,0:1:0:0:
204,40,84027,1,8,0:1:0:0:
204,40,84126,1,8,0:1:0:0:
352,84,84323,1,8,0:1:0:0:
352,84,84422,1,8,0:1:0:0:
352,84,84521,1,8,0:1:0:0:
208,148,84718,1,8,0:1:0:0:
356,204,84915,1,8,0:1:0:0:
140,292,85113,1,12,0:1:0:0:
256,192,85212,12,0,89258,0:1:0:0:
