osu file format v14

[General]
AudioFilename: audio.mp3
AudioLeadIn: 0
PreviewTime: 45141
Countdown: 0
SampleSet: Soft
StackLeniency: 0.4
Mode: 0
LetterboxInBreaks: 0
WidescreenStoryboard: 1

[Editor]
Bookmarks: 1669,14293,33229,74257
DistanceSpacing: 1.3
BeatDivisor: 4
GridSize: 4
TimelineZoom: 2

[Metadata]
Title:Blue Bird (TV Size)
TitleUnicode:ブルーバード
Artist:Ikimono Gakari
ArtistUnicode:いきものがかり
Creator:Josefumi
Version:Hard
Source:NARUTO -ナルト-
Tags:疾風伝
BeatmapID:1391964
BeatmapSetID:631904

[Difficulty]
HPDrainRate:5
CircleSize:3.3
OverallDifficulty:5
ApproachRate:6.8
SliderMultiplier:1
SliderTickRate:2

[Events]
//Background and Video events
0,0,"BG.png",0,0
Video,0,"video.mp4"
//Break Periods
//Storyboard Layer 0 (Background)
//Storyboard Layer 1 (Fail)
//Storyboard Layer 2 (Pass)
//Storyboard Layer 3 (Foreground)
//Storyboard Sound Samples

[TimingPoints]
63,394.736842105263,4,2,1,50,1,0
12477,-200,4,2,1,50,0,0
12575,-200,4,2,1,5,0,0
13760,-66.6666666666667,4,2,1,50,0,0
19207,382.165605095541,4,2,1,50,1,0
19207,-66.6666666666667,4,2,1,50,0,0
20588,394.736842105263,4,2,1,50,1,0
20588,-76.9230769230769,4,2,1,50,0,0
42890,380.952380952381,4,2,1,50,1,0
42890,-76.9230769230769,4,2,1,50,0,0
45175,413.793103448276,4,2,1,50,1,0
45175,-76.9230769230769,4,2,1,50,0,0
45795,-66.6666666666667,4,2,1,50,0,0
45837,394.736842105263,4,2,1,50,1,0
45837,-66.6666666666667,4,2,1,50,0,1
77218,-66.6666666666667,4,2,1,50,0,0
89154,-66.6666666666667,4,2,1,5,0,0
89352,-66.6666666666667,4,2,1,50,0,0

[Colours]
Combo1 : 128,128,128
Combo2 : 106,230,255
Combo3 : 255,243,15
Combo4 : 21,138,255
Combo5 : 192,192,192

[HitObjects]
192,128,1049,54,0,L|180:56,2,50,0|0|0,0:0|0:0|0:0,0:0:0:0:
256,192,1641,2,0,P|356:208|464:192,1,200,0|0,0:0|0:0,0:0:0:0:
132,204,3023,1,0,0:0:0:0:
400,88,4207,6,0,L|392:32,2,50,0|0|0,0:0|0:0|0:0,0:0:0:0:
336,152,4799,2,0,P|264:164|180:144,1,150
168,56,5589,2,0,P|100:120|132:224,1,200
432,292,7365,54,0,L|448:339,2,50,0|0|0,0:0|0:0|0:0,0:0:0:0:
396,208,7957,2,0,P|384:136|396:44,1,150,0|0,0:0|0:0,0:0:0:0:
312,16,8747,2,0,P|264:28|196:20,1,100,0|0,0:0|0:0,0:0:0:0:
124,12,9339,1,0,0:0:0:0:
176,104,10523,5,0,0:0:0:0:
256,60,10720,1,2,0:0:0:0:
336,104,10918,1,0,0:0:0:0:
335,241,11312,53,0,0:0:0:0:
255,285,11509,1,2,0:0:0:0:
175,240,11707,1,0,0:0:0:0:
256,140,12102,5,0,0:0:0:0:
256,140,12497,2,0,B|256:172|264:192|264:192|260:212|248:240|248:240|256:268|256:292,1,150,2|0,0:0|0:0,0:0:0:0:
176,340,13878,1,0,0:0:0:0:
92,292,14076,22,0,P|80:220|96:140,1,150.000005722046,4|0,0:1|1:1,0:1:0:0:
160,72,14668,1,2,0:1:0:0:
256,72,14865,2,0,P|284:48|304:8,1,75.0000028610231,0|0,0:1|0:1,0:1:0:0:
364,92,15260,2,0,L|360:176,1,75.0000028610231,0|2,0:1|0:1,0:1:0:0:
300,244,15655,2,0,P|228:256|144:244,1,150.000005722046,0|0,0:1|0:1,0:1:0:0:
76,184,16247,1,2,0:1:0:0:
32,272,16444,2,0,L|36:360,2,75.0000028610231,0|0|0,0:1|0:1|0:1,0:1:0:0:
120,320,17036,1,2,0:1:0:0:
204,328,17234,6,0,B|252:325|252:325|302:346|302:346|367:345,1,150.000005722046,4|0,0:0|0:1,0:1:0:0:
440,332,17826,1,2,0:1:0:0:
436,240,18023,2,0,P|424:168|440:84,1,150.000005722046,0|0,0:1|0:1,0:1:0:0:
476,4,18615,1,2,0:1:0:0:
380,24,18812,2,0,B|284:36|284:36|228:24,1,150.000005722046,4|0,0:1|0:1,0:1:0:0:
148,76,19398,2,0,P|136:104|132:152,1,75.0000028610231,0|0,0:1|0:1,0:1:0:0:
192,224,19780,2,0,P|186:248|156:296,1,75.0000028610231,0|0,0:1|0:1,0:1:0:0:
76,340,20162,1,0,0:1:0:0:
260,336,20588,38,0,P|296:340|328:328,1,64.9999970245363,0|0,1:1|1:1,1:1:0:0:
404,316,20982,1,0,0:1:0:0:
480,280,21180,2,0,P|434:236|367:236,1,129.999994049073,0|0,0:1|0:1,0:1:0:0:
288,256,21772,1,0,0:1:0:0:
224,200,21969,2,0,B|224:155|224:155|207:123|207:123|204:65,1,129.999994049073,0|0,0:1|1:1,0:1:0:0:
120,72,22561,1,0,0:1:0:0:
120,72,22759,1,0,0:1:0:0:
288,60,23153,6,0,P|320:60|364:60,1,64.9999970245363,0|0,0:1|0:1,0:1:0:0:
436,80,23548,1,0,0:1:0:0:
484,148,23745,2,0,P|500:212|488:276,1,129.999994049073,0|0,1:1|0:1,0:1:0:0:
428,332,24338,1,0,1:1:0:0:
284,248,24732,2,0,L|284:172,1,64.9999970245363,0|0,0:1|0:1,0:1:0:0:
260,104,25127,1,0,1:1:0:0:
184,136,25324,2,0,L|184:292,1,129.999994049073,0|0,1:1|0:1,0:1:0:0:
116,316,25916,1,0,0:1:0:0:
192,356,26114,2,0,P|232:364|288:356,2,97.4999955368044,0|0|0,0:1|0:1|0:1,0:1:0:0:
116,316,26903,5,0,1:1:0:0:
76,240,27101,2,0,L|76:148,1,64.9999970245363,0|0,1:1|0:1,0:1:0:0:
16,116,27495,2,0,P|72:88|136:116,1,129.999994049073,0|0,0:1|0:1,0:1:0:0:
192,168,28087,1,0,0:1:0:0:
276,156,28285,2,0,B|324:168|324:168|420:152,1,129.999994049073,0|0,0:1|1:1,0:1:0:0:
484,120,28877,1,0,0:1:0:0:
512,212,29074,1,0,0:1:0:0:
356,280,29469,38,0,L|284:312,1,64.9999970245363,0|0,0:1|0:1,0:1:0:0:
220,340,29864,1,0,0:1:0:0:
144,304,30061,2,0,P|116:248|136:180,1,129.999994049073,0|0,1:1|0:1,0:1:0:0:
200,32,30851,1,0,0:1:0:0:
276,172,31245,2,0,B|304:176|336:160|336:160|368:164|400:180|400:180|436:164|480:176,1,194.999991073609,0|0,0:1|0:1,0:1:0:0:
452,256,32035,2,0,P|478:273|440:256,1,194.999991073609,0|0,0:1|0:1,0:1:0:0:
340,244,32824,1,0,0:1:0:0:
340,244,33219,6,0,P|276:256|212:240,1,129.999994049073,0|2,0:1|0:1,0:1:0:0:
152,180,33811,2,0,L|152:112,1,64.9999970245363,0|0,1:1|1:1,1:1:0:0:
92,56,34206,2,0,P|148:28|212:52,1,129.999994049073,2|0,0:1|1:1,0:1:0:0:
272,104,34798,2,0,P|331:124|388:96,1,129.999994049073,0|2,1:1|2:1,2:1:0:0:
464,56,35390,2,0,L|476:136,1,64.9999970245363,0|0,1:1|1:1,1:1:0:0:
468,204,35785,1,2,0:1:0:0:
468,204,35982,1,0,0:1:0:0:
384,220,36180,1,0,1:1:0:0:
384,220,36377,6,0,P|376:288|388:352,1,129.999994049073,0|2,1:1|0:1,0:1:0:0:
304,372,36969,2,0,L|232:380,1,64.9999970245363,0|0,1:1|1:1,1:1:0:0:
164,340,37364,2,0,B|80:360|80:360|24:352,1,129.999994049073,2|0,0:1|1:1,0:1:0:0:
80,272,37956,2,0,P|136:244|204:260,1,129.999994049073,0|2,1:1|0:1,0:1:0:0:
264,316,38548,1,0,1:1:0:0:
336,276,38745,1,2,0:3:0:0:
412,312,38943,2,0,L|416:360,5,32.4999985122681,0|0|0|0|0|0,0:1|0:1|0:1|0:1|0:1|0:1,0:1:0:0:
412,288,39535,38,0,P|418:224|463:170,1,129.999994049073,4|2,0:1|0:1,0:1:0:0:
492,96,40127,1,0,1:1:0:0:
432,36,40324,1,0,1:1:0:0:
352,64,40522,2,0,L|312:140,2,64.9999970245363,0|2|0,1:1|0:1|0:1,0:1:0:0:
272,32,41114,2,0,B|228:27|228:27|187:34|187:34|140:29,1,129.999994049073,0|2,1:1|0:1,0:1:0:0:
60,48,41706,1,0,0:1:0:0:
52,132,41903,2,0,P|92:184|156:192,2,129.999994049073,0|2|0,1:1|1:1|0:1,0:1:0:0:
136,112,42890,6,0,P|176:113|208:132,1,64.9999970245363,0|0,0:1|0:1,0:1:0:0:
268,172,43270,2,0,L|352:164,1,64.9999970245363,0|0,0:1|0:1,0:1:0:0:
404,112,43651,1,0,0:1:0:0:
404,112,43842,1,0,0:1:0:0:
488,136,44032,2,0,L|488:280,1,129.999994049073,0|0,0:1|0:1,0:1:0:0:
424,324,44604,2,0,P|392:332|344:320,1,64.9999970245363
284,292,44985,1,0,0:0:0:0:
276,132,45381,6,8,L|276:76,3,32.4999985122681,8|8|8|8,0:1|0:1|0:1|0:1,0:1:0:0:
264,148,45795,2,0,P|180:176|128:148,1,150.000005722046,4|2,1:2|1:1,0:1:0:0:
52,76,46429,1,0,0:1:0:0:
140,36,46626,2,0,L|296:32,1,150.000005722046,0|2,1:1|1:1,0:1:0:0:
340,116,47218,2,0,L|180:120,1,150.000005722046,0|0,0:1|1:1,0:1:0:0:
100,156,47810,1,2,1:1:0:0:
124,248,48008,2,0,P|156:292|252:304,1,150.000005722046,0|0,0:1|1:1,0:1:0:0:
344,288,48600,1,2,1:1:0:0:
344,288,48797,1,0,0:1:0:0:
348,192,48994,38,0,B|292:172|244:168|244:168|200:184,1,150.000005722046,0|2,1:1|1:1,0:1:0:0:
132,252,49587,1,0,0:1:0:0:
48,200,49784,2,0,L|48:108,1,75.0000028610231,0|0,1:1|1:1,1:1:0:0:
104,44,50179,1,2,1:1:0:0:
200,36,50376,2,0,B|256:28|256:28|368:40,1,150.000005722046,0|0,0:1|1:1,0:1:0:0:
256,116,50968,2,0,P|184:132|120:88,1,150.000005722046,2|0,1:1|1:1,0:1:0:0:
52,24,51560,1,0,1:1:0:0:
12,112,51758,2,0,L|12:196,1,75.0000028610231,2|0,1:1|0:1,0:1:0:0:
88,248,52152,6,0,P|164:236|236:256,1,150.000005722046,4|2,1:1|1:1,0:1:0:0:
304,320,52744,1,0,0:1:0:0:
400,296,52942,2,0,L|408:136,1,150.000005722046,0|2,1:1|1:1,0:1:0:0:
372,56,53534,2,0,P|292:68|220:52,1,150.000005722046,0|0,0:1|1:1,0:1:0:0:
136,12,54126,1,2,1:1:0:0:
64,80,54323,2,0,L|68:164,2,75.0000028610231,0|0|0,0:1|1:1|1:1,0:1:0:0:
156,108,54915,5,2,1:1:0:0:
208,192,55113,2,0,L|212:344,1,150.000005722046,0|0,0:1|1:1,0:1:0:0:
308,364,55705,1,2,1:1:0:0:
308,364,55902,2,0,L|304:214,1,150.000005722046,0|0,0:1|1:1,0:1:0:0:
392,172,56494,1,2,1:1:0:0:
392,172,56692,2,0,L|395:321,1,150.000005722046,0|0,0:1|1:1,0:1:0:0:
492,320,57284,1,2,1:1:0:0:
496,224,57481,2,0,B|492:200|504:176|504:176|492:152|484:124|484:124|492:100|492:60,1,150.000005722046,0|0,0:1|1:1,0:1:0:0:
404,32,58073,38,0,L|432:0,3,37.5000014305115,2|0|0|0,0:1|0:1|0:1|0:1,0:1:0:0:
380,60,58468,1,0,1:1:0:0:
196,120,58863,2,0,B|140:104|88:128|88:128|128:144,1,150.000005722046,4|0,0:0|1:1,0:1:0:0:
156,236,59455,1,0,1:1:0:0:
156,236,59652,1,2,1:1:0:0:
232,300,59850,2,0,L|388:296,1,150.000005722046,0|0,0:1|1:1,0:1:0:0:
460,236,60442,1,2,1:1:0:0:
492,144,60639,2,0,P|420:140|368:200,1,150.000005722046,0|0,1:1|1:1,0:1:0:0:
276,168,61231,2,0,L|236:96,1,75.0000028610231,2|0,1:1|0:1,0:1:0:0:
144,120,61626,6,0,P|100:76|84:-16,2,150.000005722046,0|2|0,1:1|1:1|1:1,0:1:0:0:
312,220,62810,1,2,1:1:0:0:
312,220,63008,2,0,P|236:216|160:220,1,150.000005722046,0|0,0:1|1:1,0:1:0:0:
160,316,63600,2,0,P|236:320|312:316,1,150.000005722046,2|0,1:1|1:1,0:1:0:0:
400,280,64192,1,0,1:1:0:0:
424,188,64389,2,0,L|432:84,1,75.0000028610231,2|0,1:1|0:1,0:1:0:0:
396,20,64784,6,0,P|324:32|240:16,1,150.000005722046,4|2,1:1|1:1,0:1:0:0:
172,80,65376,1,0,0:1:0:0:
80,116,65573,2,0,L|84:224,1,75.0000028610231,0|0,1:1|1:1,1:1:0:0:
132,276,65968,1,2,1:1:0:0:
132,276,66165,2,0,P|184:264|212:164,1,150.000005722046,0|0,0:1|1:1,0:1:0:0:
304,124,66758,1,2,1:1:0:0:
304,124,66955,2,0,L|304:292,1,150.000005722046,0|0,0:1|1:1,0:1:0:0:
332,368,67547,37,2,1:1:0:0:
236,364,67744,2,0,B|180:360|180:360|140:372|140:372|80:368,1,150.000005722046,0|0,0:1|1:1,0:1:0:0:
24,296,68337,1,2,1:1:0:0:
64,208,68534,2,0,P|72:136|68:48,1,150.000005722046,0|0,0:1|1:1,0:1:0:0:
164,84,69126,1,2,1:1:0:0:
164,84,69323,2,0,B|224:88|224:88|312:124,1,150.000005722046,0|0,0:1|1:1,0:1:0:0:
396,168,69915,2,0,L|396:12,1,150.000005722046,2|0,1:1|1:1,0:1:0:0:
480,68,70508,1,0,1:1:0:0:
488,164,70705,5,2,1:1:0:0:
488,164,70902,2,0,P|468:232|392:256,1,150.000005722046,0|0,0:1|1:1,0:1:0:0:
304,236,71494,1,2,1:1:0:0:
212,208,71692,2,0,P|132:196|72:236,1,150.000005722046,0|0,0:1|1:1,0:1:0:0:
156,288,72284,2,0,L|168:364,1,75.0000028610231,2|4,1:1|0:2,0:1:0:0:
252,312,72679,2,0,L|240:228,1,75.0000028610231,0|0,1:1|1:1,1:1:0:0:
300,160,73073,2,0,B|356:144|356:144|456:156,1,150.000005722046,6|0,1:1|0:1,0:1:0:0:
480,184,73567,2,8,L|480:244,3,37.5000014305115,8|8|8|8,0:1|0:1|0:1|0:1,0:1:0:0:
504,88,74060,6,0,P|472:72|428:68,1,75.0000028610231,4|0,0:2|1:1,0:1:0:0:
340,92,74455,2,0,P|302:87|269:71,1,75.0000028610231,4|0,0:2|1:1,0:1:0:0:
184,24,74850,2,0,P|147:15|110:19,1,75.0000028610231,4|0,0:2|1:1,0:1:0:0:
100,116,75244,1,4,0:2:0:0:
100,116,75442,1,0,1:1:0:0:
100,116,75639,2,0,P|96:192|104:272,1,150.000005722046,4|0,0:2|0:1,0:1:0:0:
192,308,76231,2,0,P|292:284|192:288,1,300.000011444092,0|0,0:1|0:1,0:1:0:0:
148,200,77218,38,0,P|216:164|296:172,1,150.000005722046,4|0,0:2|1:1,0:1:0:0:
372,220,77810,1,2,1:1:0:0:
424,304,78008,2,0,L|424:136,1,150.000005722046,0|0,1:1|1:1,0:1:0:0:
416,56,78600,1,2,0:1:0:0:
320,52,78797,2,0,L|240:40,1,75.0000028610231,4|0,1:2|1:1,1:1:0:0:
152,64,79192,1,0,0:1:0:0:
152,64,79389,1,2,0:1:0:0:
60,88,79586,2,0,P|108:152|180:160,1,150.000005722046,0|0,1:1|1:1,1:1:0:0:
268,136,80179,1,0,1:1:0:0:
268,136,80376,6,0,L|268:296,1,150.000005722046,6|0,0:2|1:1,0:1:0:0:
220,372,80968,1,2,0:1:0:0:
152,300,81165,2,0,P|136:272|128:220,1,75.0000028610231,0|0,0:1|1:1,0:1:0:0:
180,148,81560,2,0,P|187:111|182:74,1,75.0000028610231,0|2,1:1|0:1,0:1:0:0:
276,44,81955,6,0,B|324:60|324:60|424:52,1,150.000005722046,4|0,1:2|0:1,0:1:0:0:
492,124,82547,2,8,L|496:208,2,75.0000028610231,8|8|8,0:1|0:1|0:1,0:1:0:0:
412,180,83139,2,8,L|416:284,1,75.0000028610231,8|8,0:1|0:1,0:1:0:0:
344,324,83534,38,0,P|276:344|196:308,1,150.000005722046,4|0,0:2|0:1,0:1:0:0:
140,248,84126,2,8,L|140:152,1,75.0000028610231,8|8,0:1|0:1,0:1:0:0:
220,120,84521,2,8,L|220:208,1,75.0000028610231,8|8,0:1|0:1,0:1:0:0:
304,244,84915,1,8,0:1:0:0:
392,200,85113,1,12,0:1:0:0:
256,192,85310,12,2,89258,0:1:0:0:
