osu file format v14

[General]
AudioFilename: audio.mp3
AudioLeadIn: 0
PreviewTime: 45141
Countdown: 0
SampleSet: Soft
StackLeniency: 0.5
Mode: 0
LetterboxInBreaks: 0
WidescreenStoryboard: 1

[Editor]
Bookmarks: 1669,14293,33219,74257
DistanceSpacing: 1.1
BeatDivisor: 2
GridSize: 4
TimelineZoom: 1.7

[Metadata]
Title:Blue Bird (TV Size)
TitleUnicode:ブルーバード
Artist:Ikimono Gakari
ArtistUnicode:いきものがかり
Creator:Josefumi
Version:Easy
Source:NARUTO -ナルト-
Tags:疾風伝
BeatmapID:1394009
BeatmapSetID:631904

[Difficulty]
HPDrainRate:3.5
CircleSize:2.7
OverallDifficulty:4.5
ApproachRate:3
SliderMultiplier:0.8
SliderTickRate:1

[Events]
//Background and Video events
0,0,"BG.png",0,0
Video,0,"video.mp4"
//Break Periods
//Storyboard Layer 0 (Background)
//Storyboard Layer 1 (Fail)
//Storyboard Layer 2 (Pass)
//Storyboard Layer 3 (Foreground)
//Storyboard Sound Samples

[TimingPoints]
63,394.736842105263,4,2,1,50,1,0
12477,-142.857142857143,4,2,1,50,0,0
12575,-142.857142857143,4,2,1,5,0,0
13760,-66.6666666666667,4,2,1,50,0,0
19207,382.165605095541,4,2,1,50,1,0
19207,-66.6666666666667,4,2,1,50,0,0
20588,394.736842105263,4,2,1,50,1,0
20588,-76.9230769230769,4,2,1,50,0,0
42890,380.952380952381,4,2,1,50,1,0
42890,-76.9230769230769,4,2,1,50,0,0
45175,413.793103448276,4,2,1,50,1,0
45175,-76.9230769230769,4,2,1,50,0,0
45795,-66.6666666666667,4,2,1,50,0,0
45837,394.736842105263,4,2,1,50,1,0
45837,-66.6666666666667,4,2,1,50,0,1
77218,-66.6666666666667,4,2,1,50,0,0
89154,-66.6666666666667,4,2,1,5,0,0
89352,-66.6666666666667,4,2,1,50,0,0

[Colours]
Combo1 : 128,128,128
Combo2 : 106,230,255
Combo3 : 255,243,15
Combo4 : 21,138,255
Combo5 : 192,192,192

[HitObjects]
176,88,1641,54,0,P|252:72|336:88,1,160,0|0,0:0|0:0,0:0:0:0:
256,196,3023,1,0,0:0:0:0:
64,328,4799,6,0,B|56:280|56:280|64:252|72:232|72:232|64:204|64:164,1,160
144,76,6181,2,0,P|184:72|232:76,1,80,0|0,0:0|0:0,0:0:0:0:
448,284,7957,54,0,P|408:328|304:308,1,160,0|0,0:0|0:0,0:0:0:0:
256,200,9339,1,0,0:0:0:0:
152,80,11115,5,2,0:0:0:0:
324,124,11905,1,2,0:0:0:0:
256,192,12497,2,0,B|248:224|260:252|260:252|256:276|244:300|244:300|252:328|252:360,1,167.999994873047,2|0,0:0|0:0,0:0:0:0:
124,204,14273,22,0,P|112:144|128:84,1,120.000004577637,0|2,0:1|0:1,0:1:0:0:
244,28,15062,1,0,0:1:0:0:
356,100,15457,1,2,0:1:0:0:
268,196,15852,2,0,B|248:236|248:236|252:324,1,120.000004577637,0|2,0:1|0:1,0:1:0:0:
376,280,16641,2,0,P|432:264|472:216,1,120.000004577637,0|2,0:1|0:1,0:1:0:0:
476,92,17431,5,0,0:1:0:0:
356,144,17826,1,2,0:1:0:0:
240,80,18220,2,0,P|172:60|116:72,1,120.000004577637,0|2,0:1|0:1,0:1:0:0:
16,144,19010,1,0,0:1:0:0:
128,220,19398,2,0,L|128:320,2,60.0000022888184,8|0|0,0:1|0:1|0:1,0:1:0:0:
256,188,20162,1,8,0:1:0:0:
344,276,20588,38,0,P|380:180|328:88,1,207.999990478516,0|0,1:1|0:1,0:1:0:0:
220,76,21772,1,0,0:1:0:0:
100,92,22166,2,0,P|148:180|252:196,1,207.999990478516,0|0,1:1|0:1,0:1:0:0:
356,160,23351,1,0,0:1:0:0:
456,212,23745,2,0,B|468:316|468:316|456:368,2,155.999992858887,0|0|0,1:1|0:1|0:1,0:1:0:0:
376,132,25324,2,0,L|248:128,1,103.999995239258,0|0,1:1|0:1,0:1:0:0:
164,168,26114,2,0,P|156:208|160:252,2,77.9999964294435,0|0|0,0:1|0:1|0:1,0:1:0:0:
172,112,26903,6,0,P|72:92|8:108,2,155.999992858887,0|0|0,1:1|0:1|0:1,0:1:0:0:
264,180,28482,2,0,P|360:212|472:180,1,207.999990478516,0|0,1:1|0:1,0:1:0:0:
420,80,29666,1,0,0:1:0:0:
320,24,30061,2,0,L|212:20,1,103.999995239258,0|0,1:1|0:1,0:1:0:0:
112,68,30851,2,0,P|100:120|108:176,1,103.999995239258,0|0,0:1|0:1,0:1:0:0:
176,256,31640,2,0,P|231:276|147:271,1,311.999985717774,0|0,0:1|0:1,0:1:0:0:
106,169,33219,6,0,P|100:118|112:68,1,103.999995239258,0|2,0:1|0:1,0:1:0:0:
220,32,34009,2,0,L|323:35,1,103.999995239258,0|0,1:1|0:1,0:1:0:0:
424,92,34798,1,0,1:1:0:0:
440,204,35193,2,0,L|440:324,2,103.999995239258,2|0|0,0:1|1:1|0:1,0:1:0:0:
340,148,36377,38,0,P|292:140|232:148,1,103.999995239258,0|2,1:1|0:1,0:1:0:0:
144,212,37166,2,0,P|92:218|41:210,1,103.999995239258,0|0,1:1|0:1,0:1:0:0:
32,96,37956,1,0,1:1:0:0:
136,44,38351,1,2,0:1:0:0:
232,96,38745,2,0,B|276:108|276:108|348:96,1,103.999995239258,4|0,1:2|0:1,0:1:0:0:
436,48,39535,5,4,0:1:0:0:
480,156,39930,1,2,0:1:0:0:
440,264,40324,2,0,L|332:284,1,103.999995239258,0|2,1:1|1:1,1:1:0:0:
228,252,41114,2,0,P|164:240|120:252,1,103.999995239258,0|2,1:1|1:1,1:1:0:0:
40,172,41903,2,0,P|30:121|43:71,1,103.999995239258,0|2,1:1|1:1,1:1:0:0:
148,20,42693,1,0,1:1:0:0:
248,80,43080,6,0,B|244:120|260:148|260:148|240:180|232:212|232:212|252:248|252:280,1,207.999990478516,0|0,0:1|0:1,0:1:0:0:
164,352,44223,1,0,0:1:0:0:
80,272,44604,1,8,0:1:0:0:
112,164,44985,1,8,0:1:0:0:
376,56,45837,38,0,P|368:116|388:184,1,120.000004577637,4|2,0:1|1:1,0:1:0:0:
276,248,46626,2,0,L|152:264,1,120.000004577637,0|2,1:1|0:1,0:1:0:0:
36,208,47415,1,0,1:1:0:0:
72,80,47810,1,2,1:1:0:0:
196,40,48205,2,0,P|252:28|320:52,1,120.000004577637,0|2,1:1|1:1,1:1:0:0:
400,144,48994,6,0,L|404:268,1,120.000004577637,0|2,1:1|1:1,1:1:0:0:
284,316,49784,2,0,L|280:192,1,120.000004577637,0|2,1:1|1:1,1:1:0:0:
236,72,50573,1,0,1:1:0:0:
112,112,50968,2,0,B|36:108|36:108|-12:124,2,120.000004577637,2|0|2,1:1|1:1|1:1,1:1:0:0:
200,212,52152,6,0,P|212:272|196:332,1,120.000004577637,4|2,1:2|1:1,1:1:0:0:
64,328,52942,2,0,P|52:268|68:208,1,120.000004577637,0|2,1:1|1:1,1:1:0:0:
140,104,53731,1,0,1:1:0:0:
240,188,54126,1,2,1:1:0:0:
344,108,54521,2,0,P|400:96|476:108,1,120.000004577637,0|2,1:1|1:1,1:1:0:0:
396,216,55310,38,0,P|340:227|264:216,1,120.000004577637,4|2,1:2|1:1,1:1:0:0:
152,184,56100,1,0,1:1:0:0:
68,288,56494,1,2,1:1:0:0:
0,176,56889,2,0,P|-8:112|8:48,2,120.000004577637,0|2|0,1:1|1:1|1:1,1:1:0:0:
120,120,58073,1,4,0:2:0:0:
236,184,58468,1,0,0:1:0:0:
256,52,58863,6,0,P|316:72|352:124,1,120.000004577637,6|0,0:2|1:1,0:1:0:0:
372,244,59652,1,2,1:1:0:0:
276,336,60047,1,0,1:1:0:0:
176,248,60442,2,0,B|164:204|164:204|188:112,1,120.000004577637,2|0,1:1|1:1,1:1:0:0:
256,24,61231,1,2,1:1:0:0:
124,32,61626,6,0,P|56:48|24:100,1,120.000004577637,0|2,1:1|1:1,1:1:0:0:
140,160,62415,2,0,L|260:164,1,120.000004577637,0|2,1:1|1:1,1:1:0:0:
376,228,63205,1,0,1:1:0:0:
452,120,63600,2,0,P|456:64|452:-8,2,120.000004577637,2|0|2,1:1|1:1|1:1,1:1:0:0:
489,247,64784,38,0,P|429:251|369:223,1,120.000004577637,4|2,1:1|1:1,1:1:0:0:
256,172,65573,2,0,P|201:148|142:152,1,120.000004577637,0|2,1:1|1:1,1:1:0:0:
32,224,66363,1,0,1:1:0:0:
108,332,66758,1,2,1:1:0:0:
232,288,67152,2,0,B|280:280|280:280|356:288,1,120.000004577637,0|2,1:1|1:1,1:1:0:0:
460,212,67942,6,0,L|460:80,1,120.000004577637,6|2,1:2|1:1,1:1:0:0:
340,144,68731,2,0,L|340:276,1,120.000004577637,0|2,1:1|1:1,1:1:0:0:
216,216,69521,2,0,L|216:84,1,120.000004577637,0|2,1:1|1:1,1:1:0:0:
104,28,70310,1,0,1:1:0:0:
40,144,70705,1,2,1:1:0:0:
132,240,71100,6,0,B|180:228|180:228|256:240,1,120.000004577637,4|2,1:2|1:1,1:1:0:0:
348,324,71889,2,0,B|300:336|300:336|224:324,1,120.000004577637,0|2,1:1|1:1,1:1:0:0:
332,240,72679,2,0,B|380:228|380:228|456:240,1,120.000004577637,0|2,1:1|1:1,1:1:0:0:
440,108,73468,1,0,1:1:0:0:
308,128,73863,1,2,1:1:0:0:
284,116,74060,38,6,P|220:104|160:120,2,120.000004577637,6|6|6,1:2|1:2|1:2,1:2:0:0:
224,236,75244,1,6,1:2:0:0:
116,308,75639,1,4,1:2:0:0:
84,184,76034,2,0,P|46:147|129:177,1,300.000011444092,0|0,1:1|1:1,1:1:0:0:
116,308,77415,5,4,0:2:0:0:
224,232,77810,1,2,0:1:0:0:
344,292,78205,2,0,P|412:304|472:284,1,120.000004577637,0|2,0:1|0:1,0:1:0:0:
400,172,78994,1,0,0:1:0:0:
304,84,79389,2,0,B|232:72|232:72|180:80,1,120.000004577637,2|0,0:1|0:1,0:1:0:0:
60,124,80179,1,2,0:1:0:0:
160,208,80573,6,0,L|168:332,1,120.000004577637,0|2,0:1|0:1,0:1:0:0:
284,264,81363,2,0,L|292:388,1,120.000004577637,0|2,0:1|0:1,0:1:0:0:
404,312,82152,1,0,0:1:0:0:
400,180,82547,2,8,P|412:124|463:71,2,120.000004577637,8|8|8,0:1|0:1|0:1,0:1:0:0:
288,248,83731,37,0,1:1:0:0:
164,200,84126,2,8,L|40:220,1,120.000004577637,8|8,0:1|0:1,0:1:0:0:
104,336,84915,1,8,0:1:0:0:
104,336,85113,1,12,0:1:0:0:
256,192,85310,12,2,89258,0:1:0:0:
