osu file format v14

[General]
AudioFilename: audio.mp3
AudioLeadIn: 0
PreviewTime: 44571
Countdown: 1
SampleSet: None
StackLeniency: 0.7
Mode: 0
LetterboxInBreaks: 0
WidescreenStoryboard: 1

[Editor]
Bookmarks: 13005,57019,66306
DistanceSpacing: 0.3
BeatDivisor: 2
GridSize: 8
TimelineZoom: 1

[Metadata]
Title:Blue Bird
TitleUnicode:Blue Bird
Artist:Ikimono Gakari
ArtistUnicode:Ikimono Gakari
Creator:Kyutei
Version:Hard!!
Source:NARUTO -ナルト- 疾風伝
Tags:Naruto Sasuke Sakura Naruto Shippuden OP3
BeatmapID:2061056
BeatmapSetID:985080

[Difficulty]
HPDrainRate:5
CircleSize:3.5
OverallDifficulty:7.3
ApproachRate:8
SliderMultiplier:1.4
SliderTickRate:1

[Events]
//Background and Video events
0,0,"605596 (1).jpg",0,0
//Break Periods
//Storyboard Layer 0 (Background)
//Storyboard Layer 1 (Fail)
//Storyboard Layer 2 (Pass)
//Storyboard Layer 3 (Foreground)
//Storyboard Sound Samples

[TimingPoints]
763,394.918712564997,4,2,1,100,1,0
19324,-133.333333333333,4,2,1,100,0,0
32356,-100,4,2,1,100,0,0
41805,395.178818415333,4,2,1,100,1,0
45164,-66.6666666666667,4,2,1,100,0,1
76383,-133.333333333333,4,2,1,100,0,0

[Colours]
Combo1 : 0,128,192
Combo2 : 128,128,128

[HitObjects]
80,104,763,6,0,P|152:88|232:120,1,140
376,208,1355,1,0,0:0:0:0:
192,312,1552,2,0,P|168:224|184:176,1,140
264,80,2342,1,0,0:0:0:0:
368,232,3132,6,0,P|296:248|232:208,1,140
160,128,3724,1,0,0:0:0:0:
320,64,3922,2,0,P|336:144|304:208,1,140
152,288,4712,1,0,0:0:0:0:
136,56,5107,1,0,0:0:0:0:
272,160,5502,1,0,0:0:0:0:
64,224,5896,1,0,0:0:0:0:
216,64,6291,6,0,P|288:96|304:168,1,140
224,296,6884,1,0,0:0:0:0:
112,112,7082,2,0,P|200:96|248:128,1,140
360,216,7674,1,0,0:0:0:0:
272,280,7871,2,0,P|248:192|288:136,1,140
336,72,8463,1,0,0:0:0:0:
120,136,9451,6,0,L|208:104,3,70
368,72,10241,6,0,L|352:152,3,70
232,208,11030,6,0,L|288:264,3,70
376,344,11820,1,0,0:0:0:0:
448,144,12215,6,0,P|352:128|304:152,1,140
176,224,12808,1,0,0:0:0:0:
112,104,13005,6,0,P|160:96|200:120,1,70
256,144,13400,1,0,0:0:0:0:
192,232,13597,1,0,0:0:0:0:
117,297,13795,6,0,P|84:230|91:197,1,70
162,97,14190,2,0,P|194:160|192:182,1,70
192,264,14585,1,0,0:0:0:0:
280,192,14782,1,0,0:0:0:0:
288,320,14980,1,0,0:0:0:0:
368,256,15177,6,0,P|408:192|400:168,1,70
336,120,15572,2,0,P|288:184|296:208,1,70
272,264,15967,1,0,0:0:0:0:
160,232,16164,1,0,0:0:0:0:
56,192,16362,2,0,P|80:120|88:112,1,70
144,56,16757,5,0,0:0:0:0:
144,56,16954,2,0,P|160:128|152:152,1,70
160,216,17349,1,0,0:0:0:0:
256,120,17547,1,0,0:0:0:0:
272,264,17744,1,0,0:0:0:0:
360,160,17941,1,0,0:0:0:0:
416,280,18139,6,0,L|280:312,1,140
152,344,18929,1,0,0:0:0:0:
80,232,19324,6,0,P|136:208|160:216,1,52.5000020027161
240,272,19719,2,0,P|176:304|168:304,2,52.5000020027161
304,168,20311,1,0,0:0:0:0:
208,88,20508,6,0,P|168:128|168:144,1,52.5000020027161
168,232,20903,2,0,P|224:200|224:184,1,52.5000020027161
304,120,21298,1,0,0:0:0:0:
352,232,21496,6,0,P|360:296|352:312,2,52.5000020027161
272,80,22088,1,0,0:0:0:0:
224,240,22286,1,0,0:0:0:0:
376,120,22483,6,0,P|400:224|392:272,1,157.500006008148
240,176,23273,2,0,P|224:256|232:272,1,52.5000020027161
112,304,23668,6,0,P|96:224|112:184,1,105.000004005432
296,264,24260,2,0,P|304:200|296:184,1,52.5000020027161
176,192,24655,2,0,P|176:136|184:128,1,52.5000020027161
248,56,25050,1,0,0:0:0:0:
400,88,25247,6,0,P|416:160|384:192,1,105.000004005432
312,248,25840,1,0,0:0:0:0:
256,128,26037,1,0,0:0:0:0:
176,224,26235,2,0,P|168:296|184:312,2,52.5000020027161
272,128,26827,1,0,0:0:0:0:
312,264,27025,1,0,0:0:0:0:
160,160,27222,1,0,0:0:0:0:
152,288,27420,6,0,P|208:296|208:288,1,52.5000020027161
280,256,27814,2,0,P|232:216|216:224,3,52.5000020027161
120,88,28604,5,0,0:0:0:0:
120,88,28802,2,0,P|224:80|240:96,1,105.000004005432
352,152,29592,2,0,P|280:168|232:144,1,105.000004005432
112,192,30381,2,0,P|136:272|176:280,1,105.000004005432
264,264,30974,1,0,0:0:0:0:
376,192,31171,1,0,0:0:0:0:
344,104,31961,6,0,P|304:56|272:64,1,52.5000020027161
192,128,32356,2,0,P|256:176|320:184,1,140
416,176,32948,1,0,0:0:0:0:
384,288,33146,1,0,0:0:0:0:
152,272,33343,5,0,0:0:0:0:
152,272,33541,2,0,P|160:192|208:152,1,140
352,96,34331,2,0,P|376:184|352:240,1,140
312,304,34923,1,0,0:0:0:0:
216,184,35120,1,0,0:0:0:0:
168,320,35318,1,0,0:0:0:0:
80,208,35515,2,0,P|96:128|112:120,1,70
136,56,35910,1,0,0:0:0:0:
280,232,36305,5,0,0:0:0:0:
280,232,36503,1,0,0:0:0:0:
280,232,36700,2,0,P|288:152|224:88,1,140
112,64,37292,1,0,0:0:0:0:
136,208,37490,1,0,0:0:0:0:
224,104,37688,1,0,0:0:0:0:
264,280,37885,1,0,0:0:0:0:
416,128,38280,6,2,P|320:104|280:136,1,140
224,208,38872,1,2,0:0:0:0:
152,120,39070,1,2,0:0:0:0:
224,208,39267,1,2,0:0:0:0:
280,112,39465,1,2,0:0:0:0:
320,272,39662,1,2,0:0:0:0:
352,152,39859,1,2,0:0:0:0:
224,208,40057,1,2,0:0:0:0:
128,72,40254,6,2,P|112:168|136:216,1,140
320,112,40847,1,2,0:0:0:0:
320,112,41044,2,2,P|344:192|320:256,1,140
272,328,41637,1,2,0:0:0:0:
256,192,41805,12,2,44571,0:0:0:0:
120,128,44966,5,0,0:0:0:0:
120,128,45164,6,0,P|224:104|256:120,1,105.000004005432
336,128,45559,1,0,0:0:0:0:
248,224,45756,1,0,0:0:0:0:
336,128,45954,1,0,0:0:0:0:
360,272,46151,1,0,0:0:0:0:
336,128,46349,1,0,0:0:0:0:
184,168,46547,6,0,P|256:80|280:80,1,105.000004005432
368,48,46942,1,0,0:0:0:0:
368,48,47139,2,0,P|392:152|376:176,1,105.000004005432
336,240,47535,1,0,0:0:0:0:
288,112,47732,1,0,0:0:0:0:
232,264,47930,1,0,0:0:0:0:
200,128,48127,2,0,P|104:176|104:224,1,105.000004005432
64,256,48523,1,0,0:0:0:0:
64,256,48720,2,0,P|176:264|200:248,1,105.000004005432
328,208,49115,6,0,P|216:192|200:176,1,105.000004005432
120,120,49510,1,0,0:0:0:0:
72,272,49708,1,0,0:0:0:0:
192,200,49906,1,0,0:0:0:0:
168,336,50103,1,0,0:0:0:0:
392,312,50301,6,0,L|272:272,1,105.000004005432
192,216,50696,1,0,0:0:0:0:
192,216,50894,2,0,L|304:120,1,105.000004005432
368,64,51289,1,0,0:0:0:0:
400,192,51486,1,0,0:0:0:0:
288,120,51684,5,0,0:0:0:0:
296,256,51882,1,0,0:0:0:0:
400,192,52079,5,0,0:0:0:0:
312,88,52277,1,0,0:0:0:0:
280,232,52474,5,0,0:0:0:0:
208,136,52672,1,0,0:0:0:0:
168,288,52870,5,0,0:0:0:0:
96,144,53067,1,0,0:0:0:0:
72,312,53265,5,0,0:0:0:0:
184,168,53462,1,0,0:0:0:0:
296,304,53660,6,0,P|312:192|264:104,1,210.000008010865
160,48,54253,1,0,0:0:0:0:
120,192,54450,2,0,P|224:208|336:144,1,210.000008010865
392,80,55043,1,0,0:0:0:0:
432,192,55241,2,0,P|328:224|312:216,1,105.000004005432
184,224,55636,2,0,P|288:272|336:256,1,105.000004005432
352,304,56031,1,0,0:0:0:0:
352,304,56229,1,0,0:0:0:0:
264,120,56426,1,0,0:0:0:0:
136,240,56821,6,0,P|160:136|192:128,1,105.000004005432
296,80,57216,2,0,P|304:192|280:224,1,105.000004005432
280,272,57612,1,0,0:0:0:0:
160,192,57809,1,0,0:0:0:0:
328,184,58007,5,0,0:0:0:0:
200,112,58204,1,0,0:0:0:0:
272,264,58402,5,0,0:0:0:0:
360,144,58600,1,0,0:0:0:0:
368,304,58797,5,0,0:0:0:0:
256,144,58995,1,0,0:0:0:0:
184,264,59192,6,0,P|112:192|112:160,3,105.000004005432
88,88,59983,2,0,P|192:80|208:96,3,105.000004005432
288,112,60773,1,0,0:0:0:0:
192,200,60971,1,0,0:0:0:0:
352,192,61168,1,0,0:0:0:0:
256,264,61366,1,0,0:0:0:0:
416,288,61563,6,0,P|296:320|232:248,1,210.000008010865
160,112,62156,1,0,0:0:0:0:
160,112,62354,2,0,P|280:96|360:168,1,210.000008010865
408,224,62947,1,0,0:0:0:0:
272,280,63144,1,0,0:0:0:0:
352,112,63342,1,0,0:0:0:0:
360,312,63539,1,0,0:0:0:0:
256,112,63737,5,0,0:0:0:0:
256,112,63935,2,0,P|216:224|304:296,1,210.000008010865
392,320,64527,5,0,0:0:0:0:
392,320,64725,2,0,P|408:216|336:136,1,210.000008010865
176,96,65515,1,0,0:0:0:0:
192,280,65910,6,0,P|200:168|280:112,1,210.000008010865
368,48,66503,2,0,P|392:160|376:192,3,105.000004005432
352,264,67294,2,0,P|320:160|328:144,3,105.000004005432
320,64,68084,2,0,P|208:80|192:120,3,105.000004005432
144,128,68874,1,0,0:0:0:0:
144,128,69072,1,0,0:0:0:0:
152,256,69269,6,0,P|256:224|256:200,3,105.000004005432
384,160,70060,2,0,P|264:128|224:160,3,105.000004005432
168,112,70850,1,0,0:0:0:0:
144,296,71048,1,0,0:0:0:0:
320,280,71245,6,0,P|256:192|256:176,3,105.000004005432
248,88,72036,2,0,P|360:96|368:112,2,105.000004005432
152,96,72628,5,0,0:0:0:0:
224,192,72826,1,0,0:0:0:0:
96,192,73024,1,0,0:0:0:0:
176,288,73221,1,0,0:0:0:0:
48,296,73419,1,0,0:0:0:0:
176,288,73616,1,0,0:0:0:0:
128,144,73814,1,0,0:0:0:0:
280,208,74012,1,0,0:0:0:0:
232,64,74209,6,0,P|352:112|392:192,1,210.000008010865
352,296,74802,1,0,0:0:0:0:
352,296,75000,2,0,P|232:248|224:160,1,210.000008010865
256,64,75592,1,0,0:0:0:0:
256,64,75790,1,0,0:0:0:0:
256,64,75987,1,0,0:0:0:0:
256,64,76185,1,0,0:0:0:0:
385,116,76383,6,0,L|344:162,1,52.5000020027161
280,224,76778,1,0,0:0:0:0:
280,224,76975,2,0,L|248:144,1,52.5000020027161
224,64,77371,1,0,0:0:0:0:
176,176,77568,1,0,0:0:0:0:
320,120,77766,1,0,0:0:0:0:
288,224,77963,6,0,L|256:296,1,52.5000020027161
240,352,78359,1,0,0:0:0:0:
160,240,78556,1,0,0:0:0:0:
320,248,78754,1,0,0:0:0:0:
248,160,78951,2,0,L|192:104,1,52.5000020027161
120,24,79346,1,0,0:0:0:0:
120,24,79544,1,0,0:0:0:0:
144,144,79742,5,0,0:0:0:0:
144,144,79939,1,0,0:0:0:0:
240,48,80137,5,0,0:0:0:0:
240,48,80334,1,0,0:0:0:0:
240,144,80532,6,0,P|312:168|344:144,1,105.000004005432
448,96,81125,1,0,0:0:0:0:
448,96,81322,2,0,P|464:168|440:208,1,105.000004005432
360,256,81915,1,0,0:0:0:0:
232,136,82113,2,0,L|288:128,2,52.5000020027161
104,144,82706,2,0,L|112:208,4,52.5000020027161
96,40,83693,1,0,0:0:0:0:
240,112,83891,1,0,0:0:0:0:
112,184,84089,2,0,P|208:232|304:176,1,210.000008010865
256,192,85077,12,0,87645,0:0:0:0:
