osu file format v14

[General]
AudioFilename: audio.mp3
AudioLeadIn: 0
PreviewTime:49501
Countdown: 0
SampleSet: Soft
StackLeniency: 0.7
Mode: 0
LetterboxInBreaks: 0
WidescreenStoryboard: 1

[Editor]
Bookmarks:12623
DistanceSpacing: 1.3
BeatDivisor: 4
GridSize: 16
TimelineZoom: 1.5

[Metadata]
Title:ABC Taisou (TV Size)
TitleUnicode:ABC体操 (TV Size)
Artist:Iketeru Oniisan (CV: Mamoru Miyano), Utano Oneesan (CV: Mizuki Nana)
ArtistUnicode:いけてるお兄さん(CV:宮野真守)、うたのお姉さん(CV:水樹奈々)
Creator:Flask
Version:Hard
Source:うらみちお兄さん
Tags:omota uramichi 表田裏道 daga 蛇賀池照 tadano 多田野詩乃 usahara tobikichi 兎原跳吉 kumatani mitsuo 熊谷みつ夫 chindaru genshou chin チンダル現象 anime japanese jpop j-pop pop opening life lesson lessons with uramichi-oniisan KennethBBG Aurorance iRedi arronchu1207 Chu male female vocal vocalists
BeatmapID:3804958
BeatmapSetID:1850640

[Difficulty]
HPDrainRate:4
CircleSize:3.5
OverallDifficulty:6
ApproachRate:8
SliderMultiplier:1.4
SliderTickRate:1

[Events]
//Background and Video events
0,0,"Life-Lessons-with-Uramichi-Oniisan.png",0,0
Video,-62,"Video.mp4"
//Break Periods
//Storyboard Layer 0 (Background)
//Storyboard Layer 1 (Fail)
//Storyboard Layer 2 (Pass)
//Storyboard Layer 3 (Foreground)
//Storyboard Layer 4 (Overlay)
//Storyboard Sound Samples

[TimingPoints]
-158,355.029585798817,4,2,1,60,1,0
552,-100,4,2,1,60,0,0
1262,-100,4,2,1,70,0,0
1617,-100,4,2,1,70,0,0
1972,-100,4,2,1,70,0,0
2327,-100,4,2,1,70,0,0
3392,-100,4,2,1,70,0,0
3924,-100,4,2,1,50,0,0
4102,-100,4,2,1,70,0,0
4457,-100,4,2,1,70,0,0
5167,-100,4,2,1,70,0,0
6232,-100,4,2,1,70,0,0
6942,-100,4,2,1,60,0,0
7208,-100,4,2,1,60,0,0
7297,-100,4,2,1,60,0,0
7563,-100,4,2,1,60,0,0
7652,-100,4,2,1,60,0,0
8185,-100,4,2,1,60,0,0
8451,-100,4,2,1,60,0,0
8540,-100,4,2,1,60,0,0
8806,-100,4,2,1,60,0,0
8895,-100,4,2,1,60,0,0
9782,-100,4,2,1,60,0,0
10404,-100,4,2,1,60,0,0
10492,-100,4,2,1,60,0,0
10936,-100,4,2,1,60,0,0
11025,-100,4,2,1,60,0,0
11913,-100,4,2,1,60,0,0
12623,-100,4,2,1,75,0,0
12800,-100,4,2,1,75,0,0
12978,-100,4,2,1,75,0,0
13155,-100,4,2,1,75,0,0
13865,-100,4,2,1,75,0,0
15463,-100,4,2,1,75,0,0
15640,-100,4,2,1,75,0,0
15818,-100,4,2,1,75,0,0
16705,-100,4,2,1,75,0,0
18303,-100,4,2,1,60,0,0
19013,-100,4,2,1,60,0,0
22208,-100,4,2,1,60,0,0
23984,-100,4,2,1,60,0,0
24516,-100,4,2,1,60,0,0
29664,-100,4,2,1,60,0,0
30019,-100,4,2,1,60,0,0
33747,-100,4,2,1,60,0,0
34102,-100,4,2,1,60,0,0
35344,-133.333333333333,4,2,2,45,0,0
45995,-117.647058823529,4,2,1,60,0,0
46350,-105.263157894737,4,2,1,60,0,0
46705,-100,4,2,1,60,0,0
47948,-100,4,2,1,60,0,0
48658,-100,4,2,1,60,0,0
49546,-100,4,2,1,70,0,0
49679,-100,4,2,1,70,0,0
49723,-100,4,2,1,70,0,0
50034,-100,4,2,1,70,0,0
50078,-100,4,2,1,70,0,0
52208,-100,4,2,1,70,0,0
53628,-83.3333333333333,4,2,1,70,0,0
54339,-83.3333333333333,4,2,1,70,0,0
54516,-83.3333333333333,4,2,1,80,0,0
54694,-83.3333333333333,4,2,1,80,0,0
55226,-90.9090909090909,4,2,1,90,0,1
70670,-90.9090909090909,4,2,1,90,0,1
71380,-90.9090909090909,4,2,1,90,0,1
71557,-90.9090909090909,4,2,1,90,0,1
74220,-90.9090909090909,4,2,1,90,0,1
75108,-90.9090909090909,4,2,1,90,0,1
75640,-90.9090909090909,4,2,1,90,0,1
75995,-90.9090909090909,4,2,1,90,0,1
76350,-90.9090909090909,4,2,1,90,0,1
77948,-100,4,2,1,75,0,0
79191,-100,4,2,1,75,0,0
80788,-100,4,2,1,75,0,0
81498,-100,4,2,1,75,0,0
82031,-100,4,2,1,75,0,0
82741,-100,4,2,1,75,0,0
83628,-90.9090909090909,4,2,1,90,0,1
86469,-90.9090909090909,4,2,1,90,0,1
87800,-90.9090909090909,4,2,1,50,0,0

[Colours]
Combo1 : 45,187,255
Combo2 : 173,255,91
Combo3 : 255,255,89
Combo4 : 255,149,149
Combo5 : 255,179,102

[HitObjects]
112,40,552,6,0,P|148:80|149:134,1,105,2|8,1:0|2:0,0:0:0:0:
168,170,907,2,0,L|158:216,2,35,8|8|8,2:0|2:0|2:0,0:0:0:0:
122,297,1262,6,0,P|176:314|235:254,1,140,4|8,3:2|2:0,0:0:0:0:
303,196,1794,1,2,2:0:0:0:
360,267,1972,2,0,P|352:310|347:339,1,70,2|0,3:2|0:0,0:0:0:0:
434,377,2327,1,10,2:0:0:0:
434,377,2504,2,0,P|441:315|454:231,1,140,2|0,2:0|0:0,0:0:0:0:
402,161,3037,1,10,2:0:0:0:
472,104,3214,1,2,3:2:0:0:
466,83,3303,1,0,3:0:0:0:
460,62,3392,2,0,P|389:59|353:0,1,140,2|10,3:2|2:0,0:0:0:0:
252,136,3924,6,0,L|237:27,1,105,4|0,2:0|0:0,0:0:0:0:
237,31,4279,2,0,P|205:48|171:53,1,70,0|10,0:0|2:0,0:0:0:0:
89,12,4634,1,0,3:0:0:0:
24,92,4812,2,0,L|46:243,1,140,2|10,3:2|2:0,0:0:0:0:
116,284,5344,2,0,P|169:275|198:193,1,140,2|2,2:0|2:0,0:0:0:0:
166,116,5877,1,10,2:0:0:0:
253,89,6055,1,2,1:2:0:0:
268,103,6143,1,0,1:0:0:0:
284,116,6232,2,0,L|292:159,3,35,2|0|8|8,3:2|0:0|2:0|2:0,0:0:0:0:
316,188,6587,2,0,L|324:231,3,35,8|8|8|8,2:0|2:0|2:0|2:0,0:0:0:0:
355,253,6942,6,0,B|427:253|427:253|399:331,2,140,2|2|2,1:0|1:0|1:0,0:0:0:0:
85,351,8185,5,2,1:0:0:0:
96,169,8540,1,2,1:0:0:0:
245,282,8895,1,2,1:0:0:0:
245,282,9250,5,8,2:0:0:0:
318,335,9427,2,0,L|365:326,3,35,0|0|0|0,3:0|3:0|3:0|0:0,0:0:0:0:
396,315,9782,6,0,B|453:226|453:226|347:227,1,210,6|0,1:0|0:0,0:0:0:0:
257,230,10492,2,0,L|227:85,1,140,6|0,1:0|0:0,0:0:0:0:
183,13,11025,2,0,P|112:2|161:95,1,210,6|0,1:0|0:0,0:0:0:0:
228,92,11735,2,0,P|263:81|307:72,1,70,2|0,1:0|3:0,0:0:0:0:
368,19,12090,1,2,1:0:0:0:
383,33,12179,1,0,3:0:0:0:
399,46,12268,2,0,L|436:57,2,35,8|8|8,2:0|2:0|2:0,0:0:0:0:
414,173,12623,6,0,P|384:165|340:153,1,70,4|2,3:2|2:0,0:0:0:0:
274,210,12978,1,8,2:0:0:0:
188,180,13155,2,0,P|145:217|153:305,1,140,2|2,3:2|2:0,0:0:0:0:
199,369,13688,1,8,2:0:0:0:
285,342,13865,2,0,P|320:334|368:328,1,70,2|0,2:0|3:2,0:0:0:0:
379,241,14220,2,0,P|414:249|462:255,1,70,2|8,2:0|2:0,0:0:0:0:
509,321,14575,1,2,2:0:0:0:
502,189,14753,2,0,L|512:155,3,35,0|2|2|2,3:0|2:0|2:0|2:0,0:0:0:0:
492,114,15108,2,0,L|502:80,3,35,10|2|2|2,2:0|2:0|2:0|2:0,0:0:0:0:
492,35,15463,5,2,3:2:0:0:
402,17,15640,1,2,2:0:0:0:
371,103,15818,1,8,2:0:0:0:
287,68,15995,2,0,P|212:61|146:51,1,140,2|2,3:2|2:0,0:0:0:0:
67,9,16528,1,8,2:0:0:0:
11,128,16705,5,6,3:2:0:0:
11,128,17060,2,0,L|20:212,1,70,6|8,3:2|2:0,0:0:0:0:
37,337,17415,1,4,3:2:0:0:
37,337,17770,1,4,3:2:0:0:
55,347,17859,1,0,3:0:0:0:
73,357,17948,2,0,L|122:345,3,35,8|8|8|8,2:0|2:0|2:0|2:0,0:0:0:0:
145,362,18303,6,0,B|166:259|166:259|244:335,1,210,6|2,1:0|2:0,0:0:0:0:
330,369,19013,6,0,L|435:352,1,105,2|0,3:2|0:0,0:0:0:0:
433,352,19368,2,0,L|446:275,1,70,10|0,2:0|0:0,0:0:0:0:
398,214,19723,1,2,3:2:0:0:
313,248,19901,2,0,P|274:248|247:221,1,70,2|0,2:0|3:2,0:0:0:0:
162,251,20256,2,0,P|167:189|227:141,1,140,2|2,2:0|2:0,0:0:0:0:
312,163,20788,1,8,2:0:0:0:
386,109,20966,6,0,P|379:75|375:34,1,70,2|2,2:0|3:2,0:0:0:0:
466,31,21321,2,0,P|473:65|477:106,1,70,0|2,0:0|3:2,0:0:0:0:
443,185,21676,1,2,2:0:0:0:
446,205,21765,1,2,0:0:0:0:
451,225,21853,2,0,L|381:210,1,70,2|0,3:2|0:0,0:0:0:0:
318,274,22208,2,0,L|248:289,1,70,8|0,3:2|0:0,0:0:0:0:
193,360,22563,1,2,3:2:0:0:
109,322,22741,5,2,2:0:0:0:
109,322,22918,1,0,3:2:0:0:
151,240,23096,2,0,L|121:89,1,140,2|2,3:2|2:0,0:0:0:0:
58,38,23628,1,8,2:0:0:0:
185,18,23806,1,8,2:0:0:0:
197,34,23895,1,8,2:0:0:0:
210,51,23984,6,0,B|232:173|232:173|289:202|311:143,1,210,6|2,1:0|2:0,0:0:0:0:
368,90,24694,6,0,P|405:85|447:145,1,105,2|0,3:2|0:0,0:0:0:0:
446,131,25049,2,0,P|435:167|430:208,1,70,10|2,2:0|2:0,0:0:0:0:
363,261,25404,1,2,3:2:0:0:
378,351,25581,2,0,P|342:338|306:331,1,70,2|0,2:0|3:2,0:0:0:0:
227,368,25936,2,0,P|190:336|218:247,1,140,2|0,2:0|0:0,0:0:0:0:
269,188,26469,1,8,2:0:0:0:
269,188,26646,1,2,2:0:0:0:
337,248,26824,5,2,3:2:0:0:
411,196,27001,2,0,P|399:160|394:121,1,70,2|2,2:0|3:2,0:0:0:0:
321,74,27356,2,0,P|285:85|246:91,1,70,2|2,2:0|3:2,0:0:0:0:
168,123,27711,1,0,0:0:0:0:
119,45,27889,1,10,3:2:0:0:
37,84,28066,2,0,P|46:121|49:166,1,70,2|2,2:0|3:2,0:0:0:0:
112,218,28421,5,2,2:0:0:0:
104,237,28510,1,2,2:0:0:0:
96,256,28599,2,0,L|86:298,3,35,0|2|4|2,3:2|2:0|3:2|3:2,0:0:0:0:
48,313,28954,2,0,L|58:355,3,35,2|2|2|2,3:2|2:0|2:0|2:0,0:0:0:0:
99,373,29309,2,0,L|215:344,1,105,8|8,2:0|2:0,0:0:0:0:
200,347,29664,6,0,P|263:365|266:297,1,140,6|0,1:0|3:0,0:0:0:0:
209,242,30197,1,2,2:0:0:0:
272,177,30374,2,0,L|256:59,1,105,2|0,3:2|0:0,0:0:0:0:
257,72,30729,2,0,P|294:67|339:52,1,70,10|2,2:0|2:0,0:0:0:0:
397,2,31084,2,0,P|454:30|460:109,2,140,2|0|0,3:2|3:2|3:2,0:0:0:0:
375,89,31972,1,2,2:0:0:0:
408,173,32149,2,0,P|396:212|392:249,1,70,8|2,2:0|2:0,0:0:0:0:
323,300,32504,5,2,3:2:0:0:
323,300,32859,2,0,P|289:290|249:281,1,70,2|2,3:2|2:0,0:0:0:0:
188,344,33214,2,0,P|152:332|140:261,1,105,2|0,3:2|3:0,0:0:0:0:
134,272,33569,1,8,3:2:0:0:
174,190,33747,6,0,B|183:144|120:110|120:128|49:117|49:44,1,210,4|0,3:2|3:0,0:0:0:0:
139,33,34457,1,8,2:0:0:0:
159,28,34546,1,8,2:0:0:0:
178,21,34634,2,0,L|225:31,3,35,8|0|8|8,2:0|0:0|2:0|2:0,0:0:0:0:
245,59,34989,2,0,L|292:49,3,35,10|10|10|10,2:0|2:0|2:0|2:0,0:0:0:0:
319,21,35344,6,0,P|377:47|389:142,2,157.500006008148,4|2|2,2:0|2:0|2:0,0:0:0:0:
215,111,36765,2,0,P|230:200|235:279,1,157.500006008148,2|2,2:0|2:0,0:0:0:0:
494,372,38007,1,2,2:0:0:0:
494,372,38185,6,0,P|518:316|497:277,1,105.000004005432,2|8,2:0|2:0,0:0:0:0:
439,230,38717,2,0,L|453:113,1,105.000004005432,2|2,2:0|2:0,0:0:0:0:
345,39,39427,2,0,P|301:52|279:111,1,105.000004005432,2|2,2:0|2:0,0:0:0:0:
234,170,39960,1,8,2:0:0:0:
234,170,40137,2,0,L|118:143,1,105.000004005432,2|2,2:0|2:0,0:0:0:0:
66,102,40670,2,0,P|52:128|54:163,1,52.5000020027161,8|0,2:0|3:2,0:0:0:0:
92,217,41025,6,0,L|110:332,2,105.000004005432,2|8|2,3:2|2:0|2:0,0:0:0:0:
217,270,42090,1,8,2:0:0:0:
318,184,42445,2,0,P|365:179|404:232,1,105.000004005432,2|8,2:0|2:0,0:0:0:0:
401,218,42978,1,2,2:0:0:0:
363,349,43333,1,2,2:0:0:0:
229,321,43688,1,2,3:2:0:0:
229,321,43865,6,0,P|203:292|220:229,1,105.000004005432,2|10,3:2|2:0,0:0:0:0:
265,169,44398,2,0,L|245:51,1,105.000004005432,2|0,2:0|0:0,0:0:0:0:
90,54,45108,2,0,L|110:172,1,105.000004005432,2|2,2:0|2:0,0:0:0:0:
63,222,45640,2,0,L|51:283,1,52.5000020027161,10|2,2:0|2:0,0:0:0:0:
88,341,45995,6,0,L|124:351,3,29.7500005674362,8|8|8|8,2:0|2:0|2:0|2:0,0:0:0:0:
160,370,46350,2,0,L|199:361,3,33.2499991121292,8|8|8|8,2:0|2:0|2:0|2:0,0:0:0:0:
231,371,46705,6,0,P|281:354|296:266,1,140,4|2,3:2|3:2,0:0:0:0:
395,120,47415,2,0,P|445:137|460:225,1,140,6|0,3:2|3:2,0:0:0:0:
412,289,47948,5,4,1:2:0:0:
257,191,48303,1,4,1:2:0:0:
100,95,48658,2,0,L|255:61,1,140,4|8,1:2|2:0,0:0:0:0:
253,51,49102,1,8,2:0:0:0:
268,36,49191,2,0,L|320:41,3,35,0|0|0|0,3:2|3:2|3:2|3:2,0:0:0:0:
340,13,49546,6,0,P|353:51|363:91,1,70,6|2,1:0|2:0,0:0:0:0:
433,163,49901,2,0,P|441:129|453:96,1,70,2|2,1:0|3:2,0:0:0:0:
321,158,50256,2,0,P|334:196|344:236,1,70,2|2,1:0|2:0,0:0:0:0:
423,265,50611,1,8,2:0:0:0:
340,360,50788,6,0,P|310:349|269:344,1,70,2|0,1:0|3:2,0:0:0:0:
194,262,51143,2,0,P|227:251|257:233,1,70,2|8,1:0|3:2,0:0:0:0:
180,380,51498,2,0,P|157:356|123:334,1,70,2|2,1:0|3:2,0:0:0:0:
39,350,51853,1,2,2:0:0:0:
39,350,52031,2,0,P|36:317|30:279,1,70,10|2,2:0|2:0,0:0:0:0:
18,164,52386,6,0,L|60:172,3,35,2|2|2|2,1:0|2:0|2:0|2:0,0:0:0:0:
91,194,52741,2,0,L|133:186,3,35,10|2|2|2,1:0|2:0|2:0|3:2,0:0:0:0:
167,205,53096,1,2,1:0:0:0:
187,210,53185,1,2,2:0:0:0:
207,207,53273,1,2,2:0:0:0:
224,194,53362,1,2,2:0:0:0:
231,174,53451,1,10,2:0:0:0:
191,83,53628,6,0,P|231:34|339:54,1,167.999994873047,14|2,1:0|3:1,0:0:0:0:
436,78,54161,1,0,3:0:0:0:
436,78,54339,1,2,3:1:0:0:
358,154,54516,2,0,P|365:200|370:242,1,83.9999974365235,8|8,2:0|2:0,0:0:0:0:
472,274,54871,1,8,2:0:0:0:
469,294,54960,1,8,2:0:0:0:
467,315,55049,1,8,2:0:0:0:
464,335,55137,1,8,2:0:0:0:
462,356,55226,6,0,P|386:336|302:325,1,154.000004699707,6|8,3:2|2:0,0:0:0:0:
218,365,55759,1,0,3:2:0:0:
151,290,55936,2,0,P|147:254|135:203,1,77.0000023498536,2|2,3:2|2:0,0:0:0:0:
234,186,56291,2,0,P|238:222|250:273,1,77.0000023498536,8|2,2:0|2:0,0:0:0:0:
341,295,56646,6,0,P|393:290|407:191,1,154.000004699707,2|8,3:2|2:0,0:0:0:0:
348,128,57179,2,0,L|310:136,2,38.5000011749268,2|0|2,2:0|0:0|3:2,0:0:0:0:
412,50,57534,1,2,2:0:0:0:
320,10,57711,1,8,2:1:0:0:
320,10,57889,1,2,2:0:0:0:
243,73,58066,6,0,P|177:76|141:30,1,115.50000352478,2|0,3:2|0:0,0:0:0:0:
145,43,58421,2,0,P|133:85|126:139,1,77.0000023498536,10|0,2:0|3:0,0:0:0:0:
42,171,58776,2,0,P|54:216|58:252,1,77.0000023498536,2|2,3:2|2:0,0:0:0:0:
133,311,59131,1,8,2:0:0:0:
163,215,59309,1,2,2:0:0:0:
141,319,59486,6,0,P|178:309|224:300,1,77.0000023498536,2|2,2:1|2:1,0:0:0:0:
298,360,59842,1,8,2:0:0:0:
378,301,60019,1,2,3:1:0:0:
385,279,60108,1,0,3:0:0:0:
390,256,60197,2,0,P|356:241|316:219,1,77.0000023498536,0|2,3:0|2:1,0:0:0:0:
264,139,60552,2,0,P|226:155|176:165,1,77.0000023498536,8|2,2:0|2:1,0:0:0:0:
79,249,60907,6,0,L|36:76,1,154.000004699707,6|8,3:2|2:0,0:0:0:0:
131,56,61439,1,0,3:2:0:0:
41,10,61617,2,0,P|79:12|111:41,1,77.0000023498536,2|2,3:2|2:0,0:0:0:0:
208,42,61972,2,0,P|246:40|278:11,1,77.0000023498536,8|2,2:0|2:0,0:0:0:0:
375,14,62327,6,0,P|359:96|350:181,1,154.000004699707,2|8,3:2|2:0,0:0:0:0:
260,207,62859,1,2,2:0:0:0:
267,228,62948,1,0,0:0:0:0:
274,249,63037,1,2,3:2:0:0:
345,319,63214,2,0,P|381:304|418:297,1,77.0000023498536,2|8,2:0|2:1,0:0:0:0:
509,339,63569,1,2,2:0:0:0:
477,205,63747,5,2,3:2:0:0:
477,205,64102,2,0,P|485:156|502:90,1,115.50000352478,10|0,2:0|3:0,0:0:0:0:
501,92,64457,2,0,P|460:105|420:112,1,77.0000023498536,2|2,3:2|2:0,0:0:0:0:
341,164,64812,1,8,2:0:0:0:
272,91,64989,1,2,2:0:0:0:
178,128,65167,6,0,L|186:174,3,38.5000011749268,2|2|2|2,3:2|2:0|3:2|2:0,0:0:0:0:
161,210,65522,2,0,L|169:256,3,38.5000011749268,10|2|2|2,2:0|2:0|3:2|2:0,0:0:0:0:
144,292,65877,2,0,L|152:338,3,38.5000011749268,2|2|2|2,3:2|2:0|3:2|2:0,0:0:0:0:
119,368,66232,1,10,2:0:0:0:
97,376,66321,1,10,2:0:0:0:
74,369,66410,1,10,2:0:0:0:
58,352,66498,1,10,2:0:0:0:
47,331,66587,6,0,P|55:296|61:250,1,77.0000023498536,4|2,3:2|2:0,0:0:0:0:
127,180,66942,1,8,2:0:0:0:
41,128,67120,2,0,P|30:84|104:10,1,154.000004699707,2|2,3:2|2:0,0:0:0:0:
187,65,67652,1,8,2:0:0:0:
187,65,67830,1,2,2:0:0:0:
275,19,68007,6,0,P|281:65|295:110,1,77.0000023498536,2|2,3:2|2:0,0:0:0:0:
239,181,68362,1,8,2:0:0:0:
319,240,68540,1,2,3:2:0:0:
328,260,68628,1,0,3:2:0:0:
336,281,68717,2,0,P|303:302|271:343,1,77.0000023498536,2|2,3:2|2:0,0:0:0:0:
191,279,69072,1,10,2:0:0:0:
191,279,69427,6,0,P|210:210|226:128,1,154.000004699707,4|8,3:2|2:0,0:0:0:0:
314,176,69960,1,0,3:2:0:0:
376,97,70137,2,0,P|367:68|358:18,2,77.0000023498536,4|0|8,3:2|0:0|2:0,0:0:0:0:
473,120,70670,6,0,B|503:177|468:227|457:216|396:250|426:328,1,231.000007049561,4|8,3:2|2:0,0:0:0:0:
337,375,71380,1,2,2:0:0:0:
244,336,71557,2,0,L|225:218,1,115.50000352478,2|0,3:2|3:0,0:0:0:0:
225,221,71913,2,0,L|235:174,2,38.5000011749268,8|8|8,2:0|2:0|2:0,0:0:0:0:
95,239,72268,6,0,B|52:271|7:239|20:193|64:186|105:207,1,154.000004699707,4|8,3:2|2:0,0:0:0:0:
131,115,72800,2,0,B|99:105|73:69|96:27|150:37|158:90,1,154.000004699707,4|2,3:2|2:0,0:0:0:0:
175,186,73333,1,8,2:0:0:0:
246,116,73510,6,0,P|269:92|304:128,1,77.0000023498536,2|4,2:0|3:2,0:0:0:0:
399,137,73865,2,0,P|437:151|439:186,1,77.0000023498536,2|8,2:0|2:0,0:0:0:0:
402,276,74220,2,0,B|353:296|310:253|310:253|311:232|311:232|302:250|302:250|250:258|213:204,1,231.000007049561,4|10,3:2|2:0,0:0:0:0:
150,286,74930,1,2,2:0:0:0:
73,221,75108,6,0,P|62:156|38:51,1,154.000004699707,4|8,3:2|2:0,0:0:0:0:
122,9,75640,2,0,P|193:13|210:99,1,154.000004699707,4|2,3:2|2:0,0:0:0:0:
287,153,76173,1,8,2:0:0:0:
201,265,76350,6,0,B|250:254|280:282|271:294|302:324|350:306,1,154.000004699707,14|0,2:0|0:0,0:0:0:0:
426,370,76883,1,0,3:2:0:0:
426,370,77060,1,0,3:2:0:0:
485,289,77238,2,0,L|472:245,3,38.5000011749268,8|8|8|8,2:0|2:0|2:0|2:0,0:0:0:0:
439,215,77593,1,10,2:0:0:0:
443,192,77682,1,10,2:0:0:0:
447,169,77770,1,10,2:0:0:0:
451,146,77860,1,10,2:0:0:0:
455,123,77948,5,6,1:0:0:0:
290,45,78303,1,10,1:0:0:0:
243,221,78658,1,2,1:0:0:0:
243,221,79013,1,8,2:0:0:0:
167,169,79191,6,0,P|160:133|147:89,1,70,6|0,1:0|0:0,0:0:0:0:
64,71,79546,2,0,P|36:95|4:128,1,70,6|0,1:0|0:0,0:0:0:0:
31,210,79901,2,0,P|65:221|110:232,1,70,6|0,1:0|0:0,0:0:0:0:
146,307,80256,1,8,2:0:0:0:
223,260,80433,2,0,L|265:249,2,35,0|0|0,3:0|3:0|3:0,0:0:0:0:
329,352,80788,6,0,B|378:261|378:261|428:376,1,210,6|0,1:0|0:0,0:0:0:0:
483,283,81498,2,0,P|513:241|456:179,1,140,6|8,1:0|2:0,0:0:0:0:
392,124,82031,2,0,B|318:147|318:147|343:35|343:35|249:61,1,280,6|2,1:0|1:1,0:0:0:0:
197,125,82918,1,0,3:2:0:0:
129,63,83096,1,10,2:0:0:0:
109,55,83185,1,10,2:0:0:0:
89,47,83273,2,0,L|51:53,3,35,10|10|10|10,2:0|2:0|2:0|2:0,0:0:0:0:
9,39,83628,6,0,P|23:84|29:136,1,77.0000023498536,6|0,3:1|0:0,0:0:0:0:
106,176,83984,2,0,P|92:221|86:273,1,77.0000023498536,10|0,2:1|0:0,0:0:0:0:
12,316,84339,2,0,P|29:354|82:364,1,77.0000023498536,2|0,3:1|0:0,0:0:0:0:
150,323,84694,1,10,2:1:0:0:
240,376,84871,6,0,P|255:326|275:262,1,115.50000352478,2|0,2:1|0:0,0:0:0:0:
273,265,85226,2,0,L|251:184,1,77.0000023498536,2|8,2:1|2:0,0:0:0:0:
210,99,85581,1,2,3:1:0:0:
232,95,85670,1,0,3:0:0:0:
254,90,85759,2,0,L|347:114,1,77.0000023498536,2|0,3:1|0:0,0:0:0:0:
415,161,86114,2,0,L|346:229,1,77.0000023498536,8|2,2:0|2:0,0:0:0:0:
373,361,86469,6,0,P|298:336|216:323,1,154.000004699707,6|8,1:0|2:0,0:0:0:0:
136,143,87179,2,0,P|211:168|293:181,1,154.000004699707,6|8,1:0|2:0,0:0:0:0:
370,73,87711,1,6,1:0:0:0:
256,192,87889,12,0,89309,3:2:0:0:
