osu file format v14

[General]
AudioFilename: audio.mp3
AudioLeadIn: 0
PreviewTime: 53254
Countdown: 0
SampleSet: Soft
StackLeniency: 0.4
Mode: 0
LetterboxInBreaks: 0
WidescreenStoryboard: 1

[Editor]
Bookmarks: 9754,18481,35935,53390,54481,76026,78344
DistanceSpacing: 1.1
BeatDivisor: 4
GridSize: 8
TimelineZoom: 2.3

[Metadata]
Title:Prism (TV Size)
TitleUnicode:プリズム (TV Size)
Artist:Ikeda Ayako
ArtistUnicode:池田綾子
Creator:payney
Version:dog food's Hard
Source:電脳コイル
Tags:dog food door weapon lean monster hanakumo rin japanese pop j-pop jpop female vocal dennou coil op opening anime yasako isako fumie daichi densuke kyouko oyaji satchi augmented reality a circle of children
BeatmapID:3612456
BeatmapSetID:1759586

[Difficulty]
HPDrainRate:5
CircleSize:4
OverallDifficulty:6
ApproachRate:6.8
SliderMultiplier:1.4
SliderTickRate:1

[Events]
//Background and Video events
0,0,"dennou.png",0,0
Video,-3000,"prism momento.mp4"
//Break Periods
//Storyboard Layer 0 (Background)
//Storyboard Layer 1 (Fail)
//Storyboard Layer 2 (Pass)
//Storyboard Layer 3 (Foreground)
//Storyboard Layer 4 (Overlay)
//Storyboard Sound Samples

[TimingPoints]
9752,545.454545454546,4,2,1,40,1,0
9752,-133.333333333333,4,2,1,40,0,0
35933,-111.111111111111,4,2,1,50,0,0
44661,-111.111111111111,4,2,1,60,0,0
54479,545.454545454546,4,2,1,70,1,0
54479,-90.9090909090909,4,2,1,70,0,0
78342,-90.9090909090909,4,2,1,40,0,0

[Colours]
Combo1 : 177,191,228
Combo2 : 211,214,180
Combo3 : 188,218,193
Combo4 : 224,199,231

[HitObjects]
74,79,9752,6,0,L|59:23,1,52.5000020027161,2|2,1:2|0:0,0:0:0:0:
163,132,10297,2,0,P|165:184|152:235,1,105.000004005432,10|0,0:3|1:0,0:0:0:0:
86,306,11115,2,0,P|49:314|31:327,2,52.5000020027161,2|8|2,0:0|0:3|1:2,0:0:0:0:
200,353,11933,6,0,B|278:339|275:382|364:336,1,157.500006008148,2|0,1:2|1:0,0:0:0:0:
440,318,13024,2,0,L|490:331,2,52.5000020027161,0|0|10,1:0|0:0|0:3,0:0:0:0:
345,251,13842,1,0,1:0:0:0:
401,189,14115,2,0,P|452:178|504:159,1,105.000004005432,2|10,1:2|0:3,0:0:0:0:
440,81,14933,1,2,1:2:0:0:
440,81,15206,2,0,P|459:55|468:31,1,52.5000020027161
326,103,15752,2,0,P|307:129|298:153,1,52.5000020027161,8|0,0:3|1:0,0:0:0:0:
218,202,16297,6,0,P|174:195|130:142,1,105.000004005432,2|8,1:2|0:3,0:0:0:0:
159,53,17115,1,0,1:0:0:0:
159,53,17252,1,0,0:0:0:0:
159,53,17388,2,0,L|142:-13,2,52.5000020027161,2|0|8,1:2|0:0|0:3,0:0:0:0:
27,140,18479,6,0,L|-1:258,1,105.000004005432,6|8,0:2|0:3,0:0:0:0:
68,330,19297,2,0,P|83:303|82:275,1,52.5000020027161,2|0,0:0|0:0,0:0:0:0:
164,211,19842,1,2,0:3:0:0:
164,211,20115,2,0,P|200:200|220:197,1,52.5000020027161,10|2,0:3|0:0,0:0:0:0:
286,133,20661,6,0,P|303:89|301:17,1,105.000004005432,2|8,0:3|0:3,0:0:0:0:
187,83,21479,1,2,0:3:0:0:
187,83,21615,1,2,0:3:0:0:
187,83,21752,2,0,L|128:97,1,52.5000020027161,2|2,0:3|0:3,0:0:0:0:
188,203,22297,2,0,P|172:237|167:259,1,52.5000020027161,8|2,0:3|0:0,0:0:0:0:
250,369,22842,6,0,P|282:301|292:257,1,105.000004005432,2|8,0:2|0:3,0:0:0:0:
371,198,23661,2,0,P|420:177|474:177,1,105.000004005432,2|2,0:0|0:3,0:0:0:0:
512,269,24479,2,0,L|496:319,1,52.5000020027161,10|2,0:3|0:0,0:0:0:0:
404,375,25024,5,2,0:3:0:0:
306,318,25297,1,2,0:3:0:0:
306,318,25433,1,2,0:3:0:0:
306,318,25570,2,0,P|342:300|358:298,1,52.5000020027161,8|2,0:3|0:3,0:0:0:0:
404,221,26115,2,0,L|426:116,1,105.000004005432,2|8,0:3|0:3,0:0:0:0:
368,44,26933,1,2,0:3:0:0:
289,97,27206,6,0,P|231:84|191:59,1,105.000004005432,6|8,0:2|0:3,0:0:0:0:
97,8,28025,2,0,P|62:5|4:52,1,105.000004005432,2|2,0:0|0:3,0:0:0:0:
0,153,28842,2,0,L|55:142,1,52.5000020027161,10|2,0:3|0:0,0:0:0:0:
161,198,29388,6,0,B|209:183|209:183|214:178|214:178|277:153,1,105.000004005432,2|8,0:3|0:3,0:0:0:0:
322,61,30206,1,2,0:3:0:0:
322,61,30342,1,2,0:3:0:0:
322,61,30479,2,0,L|305:-1,1,52.5000020027161,2|2,0:3|0:3,0:0:0:0:
433,91,31024,2,0,L|446:141,1,52.5000020027161,8|2,0:3|0:0,0:0:0:0:
475,253,31570,6,0,P|420:240|366:220,1,105.000004005432,2|8,0:0|0:3,0:0:0:0:
288,281,32388,1,2,0:0:0:0:
288,281,32524,2,0,L|268:364,1,78.7500030040742,0|2,0:0|0:3,0:0:0:0:
168,378,33206,2,0,P|141:372|118:361,1,52.5000020027161,10|2,0:3|0:0,0:0:0:0:
59,217,33752,6,0,P|109:226|156:252,1,105.000004005432,2|8,0:3|0:3,0:0:0:0:
236,197,34570,1,2,0:3:0:0:
199,117,34842,1,2,0:3:0:0:
278,66,35115,2,0,L|281:48,3,17.500000667572,2|2|2|2,0:2|0:2|0:2|0:2,0:0:0:0:
373,29,35661,1,2,0:0:0:0:
448,113,35933,6,0,P|447:166|433:208,1,94.499997116089,6|2,1:2|0:0,0:0:0:0:
422,213,36479,2,0,P|385:223|356:231,1,62.9999980773926,2|2,0:3|1:2,0:0:0:0:
289,292,37024,1,0,0:0:0:0:
366,376,37297,2,0,P|384:325|383:309,1,62.9999980773926,2|2,0:0|0:0,0:0:0:0:
361,229,37842,6,0,P|327:218|298:206,1,62.9999980773926,2|0,0:0|1:0,0:0:0:0:
361,97,38388,2,0,P|428:114|488:127,1,125.999996154785,2|2,0:0|1:2,0:0:0:0:
360,2,39206,1,0,0:0:0:0:
277,48,39479,1,0,1:0:0:0:
177,0,39752,1,8,0:0:0:0:
1,165,40297,6,0,P|50:130|122:135,1,125.999996154785,0|2,1:0|0:3,0:0:0:0:
184,217,41115,2,0,P|160:303|149:343,1,125.999996154785,0|2,1:2|0:0,0:0:0:0:
232,384,41933,2,0,P|263:387|304:379,1,62.9999980773926,2|2,0:0|0:0,0:0:0:0:
406,303,42479,6,0,P|338:284|284:268,1,125.999996154785,2|2,1:2|0:0,0:0:0:0:
185,298,43297,2,0,P|174:260|178:234,1,62.9999980773926,0|2,1:0|0:3,0:0:0:0:
243,151,43842,1,0,1:0:0:0:
243,151,44115,2,0,P|273:160|304:169,1,62.9999980773926,10|2,0:0|0:3,0:0:0:0:
438,196,44661,6,0,P|459:139|454:72,1,125.999996154785,2|2,1:2|0:3,0:0:0:0:
393,0,45479,2,0,P|371:56|376:123,1,125.999996154785,2|2,1:2|0:0,0:0:0:0:
303,168,46297,2,0,L|234:181,1,62.9999980773926,8|0,0:0|0:0,0:0:0:0:
173,321,46842,6,0,P|231:300|298:287,1,125.999996154785,0|2,1:0|0:3,0:0:0:0:
360,341,47661,1,2,1:2:0:0:
360,341,47933,2,0,P|370:307|374:275,1,62.9999980773926,2|2,0:3|0:2,0:0:0:0:
236,213,48479,2,0,P|226:247|222:279,1,62.9999980773926,10|2,0:0|0:0,0:0:0:0:
151,329,49024,6,0,P|105:325|43:259,1,125.999996154785,2|2,1:2|0:3,0:0:0:0:
76,161,49842,2,0,P|62:102|46:35,1,125.999996154785,2|2,1:2|0:3,0:0:0:0:
166,79,50661,2,0,P|209:92|237:101,1,62.9999980773926,8|2,0:0|0:3,0:0:0:0:
335,152,51206,5,2,1:2:0:0:
418,106,51479,1,8,0:0:0:0:
418,106,51615,1,2,1:2:0:0:
361,33,51888,1,8,0:0:0:0:
361,33,52024,1,2,1:2:0:0:
35,127,53524,6,0,L|30:141,2,15.7499995193482,8|8|8,0:0|0:0|0:1,0:0:0:0:
48,115,53797,1,8,0:1:0:0:
59,113,53933,1,8,0:1:0:0:
73,123,54070,1,8,0:1:0:0:
95,142,54206,1,0,1:0:0:0:
134,156,54342,1,0,1:0:0:0:
179,132,54479,6,0,P|192:70|204:14,1,115.50000352478,6|0,1:2|1:0,0:0:0:0:
219,12,55024,1,8,0:0:0:0:
316,70,55297,2,0,P|365:62|401:41,1,77.0000023498536,2|0,1:2|0:0,0:0:0:0:
464,120,55842,2,0,L|500:106,2,38.5000011749268,2|0|10,1:2|0:0|0:0,0:0:0:0:
389,212,56388,5,2,1:2:0:0:
389,212,56524,1,0,1:0:0:0:
389,212,56660,2,0,P|346:243|277:235,1,115.50000352478,0|0,1:2|1:0,0:0:0:0:
275,233,57206,1,10,0:0:0:0:
186,158,57479,2,0,P|203:83|222:9,1,154.000004699707,2|2,1:2|1:2,0:0:0:0:
102,88,58297,1,10,0:0:0:0:
39,5,58569,5,2,0:0:0:0:
39,5,58706,1,2,0:3:0:0:
39,5,58842,2,0,P|7:57|2:95,1,77.0000023498536,2|0,1:2|0:0,0:0:0:0:
2,82,59251,1,0,1:0:0:0:
3,95,59388,1,10,0:0:0:0:
47,188,59660,2,0,L|19:304,1,115.50000352478,2|2,1:2|0:3,0:0:0:0:
21,322,60206,2,0,P|47:336|98:350,1,77.0000023498536,2|8,1:2|0:0,0:0:0:0:
227,289,60751,5,2,0:2:0:0:
227,289,60888,1,2,0:3:0:0:
227,289,61024,2,0,L|249:203,1,77.0000023498536,0|2,1:0|0:3,0:0:0:0:
250,199,61433,1,0,1:0:0:0:
254,184,61569,1,8,0:0:0:0:
376,166,61842,1,0,1:0:0:0:
358,44,62115,1,2,0:0:0:0:
236,61,62388,1,0,1:0:0:0:
114,78,62660,5,10,0:0:0:0:
77,103,62797,1,8,0:0:0:0:
66,153,62933,1,8,0:1:0:0:
88,190,63069,1,8,0:1:0:0:
91,203,63206,2,0,P|78:260|59:330,1,115.50000352478,6|0,1:2|1:0,0:0:0:0:
69,328,63751,1,8,0:0:0:0:
141,384,64024,2,0,P|183:383|225:355,1,77.0000023498536,2|0,1:2|0:0,0:0:0:0:
288,276,64569,2,0,L|299:231,2,38.5000011749268,2|0|10,1:2|0:0|0:0,0:0:0:0:
373,377,65115,5,2,1:2:0:0:
373,377,65251,1,0,1:0:0:0:
373,377,65388,2,0,P|430:363|460:357,1,77.0000023498536,0|2,1:0|0:0,0:0:0:0:
512,282,65933,1,10,0:0:0:0:
421,231,66206,1,2,1:2:0:0:
421,231,66342,2,0,P|404:175|408:113,1,115.50000352478,8|2,0:0|1:2,0:0:0:0:
467,39,67024,1,10,0:0:0:0:
361,0,67297,1,2,0:0:0:0:
268,74,67569,5,0,1:0:0:0:
268,74,67706,2,0,B|246:70|246:70|160:47,1,77.0000023498536,8|0,0:0|1:0,0:0:0:0:
177,63,68115,1,10,0:0:0:0:
104,0,68388,2,0,P|72:53|76:109,1,115.50000352478,6|2,1:2|0:3,0:0:0:0:
73,120,68933,2,0,P|28:135|-9:146,1,77.0000023498536,2|8,1:2|0:0,0:0:0:0:
0,261,69479,5,2,1:2:0:0:
0,261,69615,1,2,0:3:0:0:
0,261,69751,1,0,1:0:0:0:
95,212,70024,1,2,0:3:0:0:
154,313,70297,2,0,P|198:319|262:271,1,115.50000352478,12|8,0:0|0:1,0:0:0:0:
270,287,70842,2,0,L|249:208,1,77.0000023498536,0|2,1:0|1:2,0:0:0:0:
156,144,71388,1,8,0:0:0:0:
256,43,71660,5,2,1:2:0:0:
256,43,71797,1,8,1:0:0:0:
256,43,71933,2,0,P|315:38|369:20,1,115.50000352478,4|8,1:2|0:1,0:0:0:0:
375,6,72479,1,8,0:0:0:0:
452,100,72751,2,0,P|471:177|470:264,1,154.000004699707,2|2,1:2|1:2,0:0:0:0:
350,370,73569,2,0,P|340:331|341:288,1,77.0000023498536,8|2,0:0|0:2,0:0:0:0:
349,281,73979,5,8,0:1:0:0:
357,268,74115,2,0,P|270:247|231:237,1,115.50000352478,0|8,1:0|0:1,0:0:0:0:
231,248,74660,1,8,0:0:0:0:
139,176,74933,2,0,P|128:139|140:98,1,77.0000023498536,2|8,1:2|0:0,0:0:0:0:
220,12,75479,5,8,0:1:0:0:
290,99,75751,5,2,1:2:0:0:
369,84,76024,5,6,1:2:0:0:
256,192,76160,12,2,78479,0:0:0:0:
