osu file format v14

[General]
AudioFilename: Alright! Heartcatch Precure! TV Size.mp3
AudioLeadIn: 0
PreviewTime: 53839
Countdown: 0
SampleSet: Soft
StackLeniency: 0.7
Mode: 0
LetterboxInBreaks: 0
WidescreenStoryboard: 0

[Editor]
Bookmarks: 2314,11975
DistanceSpacing: 2
BeatDivisor: 4
GridSize: 4
TimelineZoom: 1.8

[Metadata]
Title:Alright! Heartcatch Precure!
TitleUnicode:Alright! Heartcatch Precure!
Artist:Ikeda Aya
ArtistUnicode:池田彩
Creator:Mythiax
Version:Insane
Source:ハートキャッチプリキュア!
Tags:Pretty Cure Blossom Marine Sunshine Moonlight Dark キュアブロッサム マリン サンシャイン ムーンライト TV Size
BeatmapID:733921
BeatmapSetID:331284

[Difficulty]
HPDrainRate:5
CircleSize:4
OverallDifficulty:7
ApproachRate:9
SliderMultiplier:1.7
SliderTickRate:1

[Events]
//Background and Video events
0,0,"no.jpg",0,0
Video,-338,"op.avi"
//Break Periods
//Storyboard Layer 0 (Background)
//Storyboard Layer 1 (Fail)
//Storyboard Layer 2 (Pass)
//Storyboard Layer 3 (Foreground)
//Storyboard Sound Samples

[TimingPoints]
400,338.983050847458,4,2,0,70,1,0
5823,-100,4,2,0,70,0,1
16671,-100,4,2,0,70,0,0
43789,-200,4,2,0,70,0,0
46840,-133.333333333333,4,2,0,70,0,0
49210,-200,4,2,0,70,0,0
51925,-133.333333333333,4,2,0,70,0,0
54637,-80,4,2,0,70,0,1
77688,-80,4,2,0,70,0,0
79044,-100,4,2,0,70,0,0

[Colours]
Combo1 : 255,217,100
Combo2 : 255,128,255
Combo3 : 0,128,255
Combo4 : 128,0,255

[HitObjects]
176,88,399,5,0,0:0:0:0:
328,136,569,1,0,0:0:0:0:
196,244,738,1,0,0:0:0:0:
176,88,908,1,0,0:0:0:0:
296,96,1077,5,0,0:0:0:0:
248,248,1247,1,0,0:0:0:0:
140,116,1416,1,0,0:0:0:0:
296,96,1586,1,0,0:0:0:0:
232,216,1755,5,0,0:0:0:0:
158,74,1925,1,0,0:0:0:0:
328,91,2094,1,0,0:0:0:0:
232,216,2264,1,0,0:0:0:0:
400,176,2433,6,0,P|408:216|436:252,1,85
256,348,2772,2,0,L|208:352,1,42.5
48,184,3111,6,0,P|80:128|136:92,1,127.5
160,100,3450,2,0,P|224:80|272:24,1,127.5
280,24,3789,2,0,L|316:68,1,42.5
280,24,3959,6,0,L|380:264,1,255
256,192,4806,12,0,5738,0:0:0:0:
152,188,5823,5,0,0:0:0:0:
104,308,5992,1,0,0:0:0:0:
228,336,6162,1,0,0:0:0:0:
260,212,6331,1,0,0:0:0:0:
344,128,6501,2,0,L|432:88,2,85
256,32,7009,1,0,0:0:0:0:
52,192,7179,6,0,P|108:248|196:240,1,170
272,88,7687,1,0,0:0:0:0:
412,184,7857,2,0,P|419:266|362:325,1,170
192,304,8365,1,0,0:0:0:0:
168,292,8450,1,0,0:0:0:0:
140,276,8535,2,0,P|108:236|100:192,1,85
140,80,8874,1,0,0:0:0:0:
264,48,9043,5,0,0:0:0:0:
300,56,9128,1,0,0:0:0:0:
340,68,9213,1,0,0:0:0:0:
424,164,9382,1,0,0:0:0:0:
300,192,9552,2,0,L|244:256,1,85
80,304,9891,2,0,L|136:240,1,85
260,40,10230,6,0,P|288:76|296:120,1,85
204,184,10569,1,0,0:0:0:0:
304,244,10738,1,0,0:0:0:0:
252,344,10908,2,0,P|225:311|215:270,1,85
460,268,11247,6,0,P|427:192|460:116,1,170
332,160,11755,1,0,0:0:0:0:
332,40,11925,2,0,P|256:72|180:39,1,170
168,164,12433,1,0,0:0:0:0:
84,312,12603,2,0,P|51:236|83:160,1,170
252,184,13111,1,0,0:0:0:0:
316,340,13281,2,0,P|392:307|468:340,1,170
380,192,13789,1,0,0:0:0:0:
388,48,13959,6,0,L|456:120,1,85
248,92,14298,2,0,L|164:77,1,85
316,220,14637,2,0,L|416:240,1,85
217,294,14976,2,0,L|164:248,1,42.5
136,232,15145,6,0,P|108:176|144:96,1,127.5
148,88,15484,2,0,L|296:44,1,127.5
292,76,15823,2,0,L|244:200,1,127.5
264,224,16162,2,0,L|392:216,1,127.5
176,348,16670,5,0,0:0:0:0:
115,84,17009,6,0,P|94:120|86:161,1,85
120,292,17348,1,0,0:0:0:0:
220,216,17518,2,0,P|252:164|288:148,1,85
400,132,17857,5,0,0:0:0:0:
388,264,18026,1,0,0:0:0:0:
276,332,18196,1,0,0:0:0:0:
140,308,18365,1,0,0:0:0:0:
56,212,18535,1,0,0:0:0:0:
92,88,18704,1,0,0:0:0:0:
224,52,18874,6,0,L|320:52,1,85
403,192,19213,2,0,L|488:192,2,85
68,320,19721,5,0,0:0:0:0:
136,212,19891,1,0,0:0:0:0:
204,320,20060,2,0,P|276:280|272:200,1,170
200,124,20569,1,0,0:0:0:0:
388,84,20738,1,0,0:0:0:0:
208,32,20908,1,0,0:0:0:0:
352,192,21077,1,0,0:0:0:0:
316,12,21247,1,0,0:0:0:0:
316,12,21755,5,0,0:0:0:0:
208,32,21925,1,0,0:0:0:0:
132,108,22094,2,0,P|137:149|158:186,1,85
252,244,22433,1,0,0:0:0:0:
352,192,22603,1,0,0:0:0:0:
360,304,22772,2,0,P|400:317|442:321,2,85
216,212,23281,5,0,0:0:0:0:
200,44,23450,1,0,0:0:0:0:
316,172,23620,1,0,0:0:0:0:
148,144,23789,1,0,0:0:0:0:
304,72,23959,1,0,0:0:0:0:
304,72,24298,5,0,0:0:0:0:
148,144,24467,1,0,0:0:0:0:
324,216,24637,1,0,0:0:0:0:
164,284,24806,6,0,P|202:300|233:329,1,85
80,244,25145,2,0,P|41:227|10:198,1,85
116,60,25484,1,0,0:0:0:0:
208,168,25653,1,0,0:0:0:0:
344,104,25823,1,0,0:0:0:0:
356,280,25992,1,0,0:0:0:0:
356,280,26331,5,0,0:0:0:0:
260,344,26501,1,0,0:0:0:0:
320,252,26670,1,0,0:0:0:0:
192,328,26840,1,0,0:0:0:0:
280,232,27009,1,0,0:0:0:0:
128,304,27179,5,0,0:0:0:0:
176,140,27348,1,0,0:0:0:0:
32,232,27518,1,0,0:0:0:0:
204,232,27687,1,0,0:0:0:0:
68,136,27857,2,0,P|80:96|120:64,2,85
284,136,28365,5,0,0:0:0:0:
284,136,28704,2,0,P|324:96|368:88,2,85
372,200,29213,2,0,L|436:260,2,85
216,312,29721,1,0,0:0:0:0:
216,312,30230,6,0,P|186:341|145:353,1,85
332,208,30569,1,0,0:0:0:0:
160,184,30738,1,0,0:0:0:0:
316,100,30908,1,0,0:0:0:0:
252,256,31077,1,0,0:0:0:0:
212,96,31247,1,0,0:0:0:0:
36,104,31416,1,0,0:0:0:0:
176,200,31586,1,0,0:0:0:0:
112,40,31755,1,0,0:0:0:0:
80,208,31925,1,0,0:0:0:0:
212,96,32094,1,0,0:0:0:0:
36,104,32264,1,0,0:0:0:0:
32,108,32603,6,0,L|0:188,1,85
140,268,32942,2,0,L|169:188,1,85
288,316,33281,1,0,0:0:0:0:
376,236,33450,1,0,0:0:0:0:
440,136,33620,2,0,L|479:60,1,85
316,24,33959,1,0,0:0:0:0:
228,104,34128,1,0,0:0:0:0:
164,204,34298,2,0,L|125:280,1,85
284,220,34637,5,0,0:0:0:0:
92,156,34806,1,0,0:0:0:0:
252,28,34976,1,0,0:0:0:0:
252,28,35315,5,0,0:0:0:0:
284,220,35484,1,0,0:0:0:0:
368,36,35654,2,0,P|409:45|441:72,1,85
252,28,35993,2,0,P|211:37|179:65,1,85
356,164,36331,1,0,0:0:0:0:
384,336,36501,1,0,0:0:0:0:
448,236,36670,1,0,0:0:0:0:
300,276,36840,2,0,P|259:282|218:272,1,85
132,200,37179,1,0,0:0:0:0:
48,268,37348,6,0,P|38:309|44:350,1,85
16,160,37688,1,0,0:0:0:0:
88,76,37857,1,0,0:0:0:0:
192,36,38026,1,0,0:0:0:0:
304,36,38196,1,0,0:0:0:0:
396,92,38365,2,0,P|419:167|511:191,1,170
499,193,38874,1,0,0:0:0:0:
224,332,39213,5,0,0:0:0:0:
232,52,39552,6,0,B|224:93|224:93|196:125,2,85
312,176,40060,2,0,B|284:208|284:208|276:252,2,85
464,152,40569,1,0,0:0:0:0:
464,152,40908,6,0,P|440:204|396:224,1,85
299,132,41247,1,0,0:0:0:0:
187,286,41416,1,0,0:0:0:0:
325,214,41586,1,0,0:0:0:0:
172,124,41755,2,0,L|83:64,2,85
328,136,42248,1,0,0:0:0:0:
228,228,42433,1,0,0:0:0:0:
88,192,42603,5,0,0:0:0:0:
256,64,42772,1,0,0:0:0:0:
424,192,42942,1,0,0:0:0:0:
256,320,43111,1,0,0:0:0:0:
256,64,43450,5,0,0:0:0:0:
180,320,43789,6,0,P|156:296|140:244,1,85
156,140,44298,1,0,0:0:0:0:
240,72,44467,2,0,L|284:28,1,42.5
376,108,44806,2,0,L|348:140,1,42.5
260,196,45145,2,0,P|244:235|243:277,1,85
400,304,45653,2,0,P|415:264|416:222,1,85
380,108,46162,1,0,0:0:0:0:
292,60,46331,1,0,0:0:0:0:
176,68,46501,2,0,P|136:80|120:100,1,63.75
124,160,46840,6,0,P|94:215|36:238,1,127.500004863739
192,240,47348,2,0,P|221:184|279:161,1,127.500004863739
436,76,47857,1,0,0:0:0:0:
356,220,48026,1,0,0:0:0:0:
324,56,48196,1,0,0:0:0:0:
436,176,48365,1,0,0:0:0:0:
316,332,48704,5,0,0:0:0:0:
212,312,48874,2,0,P|168:293|146:252,1,95.6250036478044
96,224,49213,6,0,P|106:182|99:141,1,85
164,48,49721,1,0,0:0:0:0:
248,128,49891,2,0,P|248:180|264:220,1,85
160,288,50399,1,0,0:0:0:0:
312,308,50569,1,0,0:0:0:0:
472,148,50908,2,0,P|431:159|388:158,1,85
304,80,51416,1,0,0:0:0:0:
136,72,51586,1,0,0:0:0:0:
176,224,51755,1,0,0:0:0:0:
256,192,51925,12,0,53281,0:0:0:0:
304,272,53789,6,0,P|328:248|268:68,1,255.000009727478
144,96,54637,6,0,P|134:138|96:192,1,106.25
44,312,54976,1,0,0:0:0:0:
196,276,55145,1,0,0:0:0:0:
244,152,55315,2,0,L|312:52,1,106.25
452,32,55653,1,0,0:0:0:0:
460,176,55823,1,0,0:0:0:0:
460,176,55992,2,0,P|430:206|356:240,1,106.25
256,336,56331,1,0,0:0:0:0:
256,336,56501,2,0,P|200:300|184:252,1,106.25
168,104,56840,1,0,0:0:0:0:
312,188,57009,1,0,0:0:0:0:
324,40,57179,5,0,0:0:0:0:
324,40,57264,1,0,0:0:0:0:
324,40,57348,2,0,L|436:92,1,106.25
452,260,57687,1,0,0:0:0:0:
300,312,57857,1,0,0:0:0:0:
252,296,57942,1,0,0:0:0:0:
208,284,58026,2,0,L|144:168,1,106.25
28,32,58365,1,0,0:0:0:0:
100,232,58535,1,0,0:0:0:0:
180,36,58704,1,0,0:0:0:0:
8,160,58874,1,0,0:0:0:0:
220,136,59044,2,0,P|271:128|319:150,1,106.25
512,224,59382,1,0,0:0:0:0:
324,324,59552,2,0,P|287:343|213:332,2,106.25
364,284,59976,5,0,0:0:0:0:
380,240,60060,2,0,P|376:197|340:136,1,106.25
132,136,60399,1,0,0:0:0:0:
248,64,60569,1,0,0:0:0:0:
215,218,60738,2,0,P|248:297|392:304,1,212.5
428,96,61247,1,0,0:0:0:0:
428,96,61331,1,0,0:0:0:0:
428,96,61416,2,0,P|376:56|320:44,1,106.25
168,112,61755,1,0,0:0:0:0:
136,144,61840,1,0,0:0:0:0:
104,176,61925,2,0,P|88:220|96:284,2,106.25
256,168,62433,1,0,0:0:0:0:
432,200,62603,1,0,0:0:0:0:
256,336,62772,6,0,L|144:380,1,106.25
24,192,63111,2,0,L|116:124,1,106.25
284,32,63450,2,0,L|376:100,1,106.25
436,280,63789,2,0,L|344:204,1,106.25
112,136,64128,1,0,0:0:0:0:
112,136,64298,1,0,0:0:0:0:
369,95,64467,1,0,0:0:0:0:
192,244,64637,1,0,0:0:0:0:
354,212,64806,1,0,0:0:0:0:
354,212,64976,1,0,0:0:0:0:
256,104,65145,1,0,0:0:0:0:
132,192,65315,1,0,0:0:0:0:
255,336,65484,6,0,P|317:325|362:192,2,212.5
132,272,66331,1,0,0:0:0:0:
132,132,66501,1,0,0:0:0:0:
255,60,66671,2,0,P|316:70|361:203,2,212.5
172,172,67518,1,0,0:0:0:0:
112,48,67687,1,0,0:0:0:0:
16,148,67857,1,0,0:0:0:0:
52,280,68026,5,0,0:0:0:0:
52,280,68111,1,0,0:0:0:0:
52,280,68196,2,0,P|89:315|141:315,1,106.25
196,200,68535,2,0,P|233:218|264:284,1,106.25
392,264,68874,2,0,P|416:216|468:196,1,106.25
462,196,69213,1,0,0:0:0:0:
462,196,69382,5,0,0:0:0:0:
392,88,69552,1,0,0:0:0:0:
292,192,69721,1,0,0:0:0:0:
272,44,69891,1,0,0:0:0:0:
120,64,70060,1,0,0:0:0:0:
84,96,70145,1,0,0:0:0:0:
60,136,70230,1,0,0:0:0:0:
44,180,70315,1,0,0:0:0:0:
36,228,70399,1,0,0:0:0:0:
36,276,70484,1,0,0:0:0:0:
44,324,70569,2,0,P|79:349|145:353,1,106.25
216,232,70908,5,0,0:0:0:0:
340,328,71077,2,0,P|400:328|432:272,1,106.25
440,136,71416,1,0,0:0:0:0:
256,28,71586,1,0,0:0:0:0:
396,48,71755,1,0,0:0:0:0:
172,92,71925,2,0,P|142:122|144:188,1,106.25
256,292,72264,5,0,0:0:0:0:
404,232,72433,2,0,P|464:184|404:72,1,212.5
256,152,72942,1,0,0:0:0:0:
108,232,73111,2,0,P|48:184|108:72,1,212.5
260,44,73620,1,0,0:0:0:0:
260,44,73789,1,0,0:0:0:0:
424,100,73959,1,0,0:0:0:0:
428,104,74128,1,0,0:0:0:0:
268,192,74298,1,0,0:0:0:0:
272,196,74467,1,0,0:0:0:0:
408,316,74637,1,0,0:0:0:0:
412,320,74806,1,0,0:0:0:0:
220,292,74976,5,0,0:0:0:0:
96,176,75145,1,0,0:0:0:0:
260,132,75315,1,0,0:0:0:0:
428,116,75484,1,0,0:0:0:0:
296,220,75653,1,0,0:0:0:0:
340,56,75823,1,0,0:0:0:0:
404,216,75992,1,0,0:0:0:0:
432,260,76077,1,0,0:0:0:0:
448,296,76162,1,0,0:0:0:0:
464,332,76247,1,0,0:0:0:0:
472,352,76331,6,0,L|365:352,1,106.25
228,336,76670,1,0,0:0:0:0:
100,324,76840,1,0,0:0:0:0:
0,244,77009,2,0,L|120:244,1,106.25
232,236,77348,1,0,0:0:0:0:
360,220,77518,1,0,0:0:0:0:
468,148,77687,2,0,L|348:148,1,106.25
236,136,78026,1,0,0:0:0:0:
108,116,78196,1,0,0:0:0:0:
12,32,78365,2,0,L|120:32,1,106.25
248,28,78704,1,0,0:0:0:0:
376,20,78874,1,0,0:0:0:0:
480,120,79043,6,0,P|470:181|418:214,1,127.5
376,172,79382,2,0,P|312:192|264:248,1,127.5
280,272,79721,2,0,L|316:316,1,42.5
240,256,79891,6,0,P|137:313|65:219,1,255
416,48,80908,1,0,0:0:0:0:
