osu file format v14

[General]
AudioFilename: audio.mp3
AudioLeadIn: 0
PreviewTime: 56539
Countdown: 0
SampleSet: Soft
StackLeniency: 0.7
Mode: 0
LetterboxInBreaks: 0
EpilepsyWarning: 1
WidescreenStoryboard: 1

[Editor]
Bookmarks: 74357,103298
DistanceSpacing: 0.2
BeatDivisor: 5
GridSize: 4
TimelineZoom: 4.699996

[Metadata]
Title:G59
TitleUnicode:G59
Artist:Ikareru Kin no Shishi
ArtistUnicode:怒れる金の獅子
Creator:Luscent
Version:Another
Source:beatmania IIDX 17 SIRIUS
Tags:Jigoku Takayuki Ishikawa dj TAKA EXPERIMENTAL MUSIC Electronic Instrumental Jounzan EvilElvis Natteke desu La Cataline LC Heilia
BeatmapID:3032223
BeatmapSetID:1477965

[Difficulty]
HPDrainRate:6
CircleSize:4
OverallDifficulty:8.5
ApproachRate:9.2
SliderMultiplier:1.6
SliderTickRate:1

[Events]
//Background and Video events
0,0,"bg.jpg",0,0
//Break Periods
//Storyboard Layer 0 (Background)
//Storyboard Layer 1 (Fail)
//Storyboard Layer 2 (Pass)
//Storyboard Layer 3 (Foreground)
//Storyboard Layer 4 (Overlay)
//Storyboard Sound Samples

[TimingPoints]
11622,352.941176470588,4,2,1,30,1,0
12327,-100,4,2,1,40,0,0
13033,-100,4,2,1,50,0,0
13739,-100,4,2,1,65,0,0
14445,-100,4,2,1,80,0,0
14533,-100,4,2,1,55,0,0
15151,-100,4,2,1,50,0,0
15857,-100,4,2,1,45,0,0
16386,-100,4,2,1,20,0,0
16474,-100,4,2,1,45,0,0
16563,-100,4,2,1,70,0,0
17269,-100,4,2,1,80,0,0
17357,-100,4,2,1,55,0,0
17974,-100,4,2,1,75,0,0
18680,-83.3333333333333,4,2,1,75,0,0
19386,-71.4285714285714,4,2,1,75,0,0
20092,-100,4,2,1,75,0,0
20445,-100,4,2,1,60,0,0
20798,-100,4,2,1,40,0,0
21504,-100,4,2,1,60,0,0
22474,-200,4,2,1,40,0,0
22916,-200,4,2,1,60,0,0
23092,-76.9230769230769,4,2,1,60,0,0
34210,-100,4,2,1,60,0,0
39327,-100,4,2,1,70,0,0
39857,-100,4,2,1,60,0,0
45504,-76.9230769230769,4,2,1,60,0,0
53974,-83.3333333333333,4,2,1,60,0,0
54680,-90.9090909090909,4,2,1,60,0,0
55386,-100,4,2,1,60,0,0
62092,-100,4,2,1,80,0,0
62445,-100,4,2,1,60,0,0
67563,-100,4,2,1,80,0,0
67827,-100,4,2,1,60,0,0
70386,-200,4,2,1,60,0,0
70916,-66.6666666666667,4,2,1,60,0,0
73033,-66.6666666666667,4,2,1,50,0,0
73739,-66.6666666666667,4,2,1,60,0,0
92092,-80,4,2,1,60,0,0
92798,-100,4,2,1,60,0,0
96680,-66.6666666666667,4,2,1,60,0,0
107621,-76.9230769230769,4,2,1,60,0,0
112739,-76.9230769230769,4,2,1,80,0,0
113092,-76.9230769230769,4,2,1,60,0,0
119269,-100,4,2,1,60,0,0
119621,-142.857142857143,4,2,1,60,0,0
124386,-142.857142857143,4,2,1,10,0,0

[Colours]
Combo1 : 255,81,224
Combo2 : 130,198,253
Combo3 : 238,168,214
Combo4 : 242,56,36
Combo5 : 249,98,60
Combo6 : 220,220,220
Combo7 : 208,198,176
Combo8 : 75,248,71

[HitObjects]
445,264,11622,5,2,2:0:0:0:
437,263,11710,1,0,2:0:0:0:
436,270,11798,1,0,2:0:0:0:
428,269,11886,1,0,2:0:0:0:
427,276,11974,1,2,2:0:0:0:
419,275,12063,1,0,2:0:0:0:
418,282,12151,1,0,2:0:0:0:
410,281,12239,1,0,2:0:0:0:
408,288,12327,5,2,2:0:0:0:
400,287,12416,1,0,2:0:0:0:
399,294,12504,1,0,2:0:0:0:
391,293,12592,1,0,2:0:0:0:
390,300,12680,1,2,2:0:0:0:
382,299,12769,1,0,2:0:0:0:
381,306,12857,1,0,2:0:0:0:
373,305,12945,1,0,2:0:0:0:
370,312,13033,101,2,2:0:0:0:
362,311,13121,1,0,2:0:0:0:
361,318,13210,1,0,2:0:0:0:
353,317,13298,1,0,2:0:0:0:
352,324,13386,1,2,2:0:0:0:
344,323,13474,1,0,2:0:0:0:
343,330,13563,1,0,2:0:0:0:
335,329,13651,1,0,2:0:0:0:
315,343,13739,22,0,L|292:189,2,120,4|4|4,1:0|2:0|1:0,2:0:0:0:
34,160,14445,85,4,1:0:0:0:
38,153,14533,1,0,2:0:0:0:
44,158,14621,1,0,2:0:0:0:
48,151,14710,1,0,2:0:0:0:
55,152,14798,1,2,2:0:0:0:
54,144,14886,1,0,2:0:0:0:
62,146,14974,1,0,2:0:0:0:
62,138,15063,1,0,2:0:0:0:
69,134,15151,5,2,2:0:0:0:
65,127,15239,1,0,2:0:0:0:
73,125,15327,1,0,2:0:0:0:
69,118,15416,1,0,2:0:0:0:
73,112,15504,1,2,2:0:0:0:
65,109,15592,1,0,2:0:0:0:
71,103,15680,1,0,2:0:0:0:
64,99,15769,1,0,2:0:0:0:
59,92,15857,101,2,2:0:0:0:
52,88,15945,1,0,2:0:0:0:
58,83,16033,1,0,2:0:0:0:
51,79,16121,1,0,2:0:0:0:
51,71,16210,1,2,2:0:0:0:
43,73,16298,1,0,2:0:0:0:
45,65,16386,1,0,1:0:0:0:
37,65,16474,1,0,2:0:0:0:
17,81,16563,38,0,L|31:228,2,120,4|4|4,1:0|2:0|1:0,2:0:0:0:
166,18,17269,85,4,1:0:0:0:
162,33,17357,1,0,2:0:0:0:
166,48,17445,1,2,2:0:0:0:
165,63,17533,1,0,2:0:0:0:
174,76,17621,1,2,2:0:0:0:
176,91,17710,1,0,2:0:0:0:
188,100,17798,1,2,2:0:0:0:
193,115,17886,1,0,2:0:0:0:
212,129,17974,6,0,L|363:109,1,120,4|4,1:0|2:0,2:0:0:0:
92,237,18504,1,4,1:0:0:0:
307,217,18680,6,0,L|155:197,1,144,4|4,1:0|2:0,2:0:0:0:
403,339,19210,1,4,1:0:0:0:
179,309,19386,102,0,L|366:282,1,168,4|4,1:0|2:0,2:0:0:0:
118,363,19916,1,4,1:0:0:0:
53,261,20092,102,0,P|26:261|0:255,2,53.3333333333333,0|2|2,1:0|2:0|2:0,2:0:0:0:
236,200,20445,2,0,P|269:180|294:154,2,53.3333333333333,2|2|2,2:0|2:0|2:0,2:0:0:0:
46,185,20798,2,0,P|22:170|3:141,2,53.3333333333333,2|2|2,2:0|2:0|2:0,2:0:0:0:
175,314,21151,2,0,P|181:329|184:344,4,32,0|0|0|0|0,2:0|2:0|2:0|2:0|2:0,2:0:0:0:
146,240,21504,1,4,1:0:0:0:
142,226,22474,38,12,L|205:218,1,60,0|0,2:0|2:0,1:0:0:0:
296,60,22916,53,4,1:0:0:0:
291,69,23004,1,0,2:0:0:0:
288,78,23092,2,0,P|311:89|336:96,1,52,0|0,2:0|2:0,2:0:0:0:
462,205,23269,1,2,1:2:0:0:
471,200,23357,1,0,2:0:0:0:
479,195,23445,2,0,P|466:172|450:152,1,52,0|0,2:0|2:0,2:0:0:0:
423,3,23621,1,2,1:2:0:0:
412,1,23710,1,0,2:0:0:0:
403,0,23798,2,0,P|399:25|400:51,1,52,0|0,2:0|2:0,2:0:0:0:
336,205,23974,1,2,1:2:0:0:
343,212,24063,1,0,2:0:0:0:
351,218,24151,2,0,P|368:199|382:177,1,52,0|0,2:0|2:0,2:0:0:0:
470,84,24327,5,2,1:2:0:0:
442,283,24504,1,0,1:0:0:0:
271,175,24680,101,0,1:0:0:0:
479,195,24857,1,0,1:0:0:0:
171,166,25033,5,0,1:0:0:0:
379,186,25210,1,0,2:0:0:0:
209,253,25386,101,0,1:0:0:0:
337,96,25563,1,0,2:0:0:0:
115,63,25739,5,2,1:2:0:0:
107,70,25827,1,0,2:0:0:0:
99,77,25916,2,0,L|106:160,1,52,0|0,2:0|2:0,2:0:0:0:
264,202,26092,1,0,1:0:0:0:
272,195,26180,1,0,2:0:0:0:
280,188,26269,2,0,L|273:105,1,52,0|0,1:0|2:0,2:0:0:0:
116,211,26445,1,2,1:2:0:0:
123,219,26533,1,0,2:0:0:0:
130,227,26621,2,0,L|213:220,1,52,0|0,2:0|2:0,2:0:0:0:
255,62,26798,1,0,1:0:0:0:
248,54,26886,1,0,2:0:0:0:
241,46,26974,2,0,L|158:53,1,52,0|0,1:0|2:0,2:0:0:0:
10,98,27151,101,4,2:0:0:0:
186,144,27327,1,0,2:0:0:0:
81,183,27504,5,0,1:0:0:0:
117,63,27680,1,4,2:0:0:0:
0,94,27857,101,2,1:2:0:0:
195,150,28033,1,4,1:0:0:0:
73,211,28210,5,4,1:2:0:0:
122,40,28386,1,0,2:0:0:0:
206,157,28563,102,0,L|326:146,1,104,4|0,1:2|2:0,2:0:0:0:
397,140,28916,1,2,1:2:0:0:
483,135,29092,1,4,2:0:0:0:
452,261,29269,1,2,1:2:0:0:
327,224,29445,1,0,2:0:0:0:
360,81,29621,1,4,2:0:0:0:
501,118,29798,1,0,2:0:0:0:
243,272,29974,5,4,1:2:0:0:
264,288,30151,1,0,2:0:0:0:
237,239,30327,1,2,1:2:0:0:
259,324,30504,1,4,2:0:0:0:
268,207,30680,1,0,1:2:0:0:
226,352,30857,1,0,2:0:0:0:
330,234,31033,1,4,1:2:0:0:
156,312,31210,101,0,2:0:0:0:
345,308,31386,1,4,2:0:0:0:
160,224,31563,1,0,1:0:0:0:
301,377,31739,5,0,1:0:0:0:
235,179,31916,1,0,1:0:0:0:
215,377,32092,101,0,1:2:0:0:
317,200,32269,1,0,2:0:0:0:
150,312,32445,5,0,1:0:0:0:
354,270,32621,1,0,2:0:0:0:
440,209,32798,102,0,L|192:172,1,208,4|4,2:0|1:0,2:0:0:0:
167,145,33327,1,4,1:0:0:0:
112,202,33504,5,4,2:0:0:0:
42,156,33680,1,0,1:0:0:0:
15,79,33857,1,0,1:0:0:0:
47,2,34033,1,4,2:0:0:0:
178,62,34210,102,0,L|272:55,1,80,4|0,1:0|2:0,2:0:0:0:
353,53,34563,1,2,2:0:0:0:
452,164,34739,2,0,P|443:63|477:-22,1,160,0|2,1:0|2:0,2:0:0:0:
242,163,35269,2,0,P|333:218|370:299,1,160,4|2,1:0|2:0,2:0:0:0:
476,359,35798,2,0,B|391:376|394:341|311:354,1,160,0|2,1:0|2:0,2:0:0:0:
180,345,36327,5,4,2:0:0:0:
262,252,36504,1,2,2:0:0:0:
208,362,36680,101,4,2:0:0:0:
202,212,36857,1,10,1:2:0:0:
38,299,37033,6,0,L|144:291,1,80,4|0,1:0|2:0,2:0:0:0:
41,147,37386,1,2,2:0:0:0:
41,147,37474,1,0,1:0:0:0:
41,147,37563,2,0,P|99:199|197:187,1,160,0|2,1:0|2:0,2:0:0:0:
282,263,38092,2,0,L|315:69,1,160,4|2,1:0|2:0,2:0:0:0:
440,150,38621,2,0,P|400:51|414:-30,1,160,0|0,1:0|1:0,2:0:0:0:
506,55,39151,37,4,2:0:0:0:
325,69,39327,2,0,L|303:65,2,20,2|0|0,1:0|1:0|1:0,1:0:0:0:
420,80,39504,1,12,1:2:0:0:
93,19,39857,54,0,L|115:122,1,80,4|2,1:0|2:0,2:0:0:0:
178,149,40210,1,2,2:0:0:0:
293,141,40386,2,0,P|231:208|207:283,1,160,0|2,1:0|2:0,2:0:0:0:
61,296,40916,2,0,P|160:335|206:385,1,160,4|2,1:0|2:0,2:0:0:0:
370,342,41445,2,0,P|391:255|361:164,1,160,0|2,1:0|2:0,2:0:0:0:
195,136,41974,5,4,2:0:0:0:
301,193,42151,1,0,1:0:0:0:
176,158,42327,101,4,1:2:0:0:
337,125,42504,1,8,2:0:0:0:
93,95,42680,6,0,L|106:201,1,80,4|2,1:0|2:0,2:0:0:0:
244,18,43033,1,0,1:2:0:0:
244,18,43121,1,0,1:0:0:0:
244,18,43210,2,0,P|196:90|203:175,1,160,0|0,1:0|1:0,2:0:0:0:
8,256,43739,2,0,B|89:242|85:283|169:264,1,160,0|2,1:0|2:0,2:0:0:0:
272,319,44269,2,0,P|288:227|361:141,1,160,0|0,1:0|1:0,2:0:0:0:
365,79,44798,101,4,1:0:0:0:
479,150,44974,2,0,L|505:147,2,20,0|0|0,1:0|1:0|1:0,1:0:0:0:
395,154,45151,1,0,1:0:0:0:
395,185,45239,1,0,1:0:0:0:
407,214,45327,1,0,1:0:0:0:
427,238,45416,1,0,1:0:0:0:
452,257,45504,6,0,L|529:249,1,52,4|0,1:0|2:0,1:0:0:0:
275,287,45680,1,2,2:0:0:0:
272,276,45769,1,0,2:0:0:0:
269,265,45857,2,0,P|261:232|247:194,1,52,0|0,1:2|2:0,2:0:0:0:
407,317,46033,1,2,2:0:0:0:
403,327,46121,1,0,2:0:0:0:
398,337,46210,2,0,P|386:368|366:403,1,52,0|0,1:2|2:0,2:0:0:0:
275,287,46386,101,2,2:0:0:0:
264,290,46474,1,0,2:0:0:0:
253,293,46563,2,0,P|220:300|182:314,1,52,0|0,1:2|2:0,2:0:0:0:
407,317,46739,1,2,2:0:0:0:
418,314,46827,1,0,2:0:0:0:
429,311,46916,2,0,P|461:303|499:289,1,52,0|0,1:2|2:0,2:0:0:0:
358,204,47092,1,2,2:0:0:0:
355,193,47180,1,0,2:0:0:0:
352,182,47269,2,0,P|344:150|330:112,1,52,0|0,1:2|2:0,2:0:0:0:
220,62,47445,21,2,2:0:0:0:
230,64,47533,1,0,2:0:0:0:
240,66,47621,2,0,P|334:46|396:-5,2,156,4|4|4,1:0|2:0|2:0,2:0:0:0:
28,32,48327,86,0,L|37:114,1,52,4|0,1:0|2:0,2:0:0:0:
175,201,48504,1,2,2:0:0:0:
178,191,48592,1,0,2:0:0:0:
181,181,48680,2,0,L|205:120,1,52,0|0,1:0|2:0,2:0:0:0:
99,255,48857,1,2,2:0:0:0:
94,245,48945,1,0,2:0:0:0:
89,236,49033,2,0,L|62:175,1,52,0|0,1:0|2:0,2:0:0:0:
84,346,49210,1,2,2:0:0:0:
73,343,49298,1,0,2:0:0:0:
63,340,49386,2,0,L|2:316,1,52,0|0,1:0|2:0,2:0:0:0:
175,201,49563,5,2,2:0:0:0:
178,191,49651,1,0,2:0:0:0:
181,181,49739,2,0,L|205:120,1,52,0|0,1:0|2:0,2:0:0:0:
266,217,49916,1,2,2:0:0:0:
276,212,50004,1,0,2:0:0:0:
285,207,50092,2,0,L|345:180,1,52,0|0,1:0|2:0,2:0:0:0:
320,293,50269,1,2,2:0:0:0:
330,296,50357,1,0,2:0:0:0:
340,298,50445,21,4,1:0:0:0:
399,364,50621,1,4,1:2:0:0:
356,216,50798,1,0,1:0:0:0:
243,316,50974,1,4,1:0:0:0:
428,294,51151,70,0,L|492:288,1,52,4|0,1:2|2:0,2:0:0:0:
266,227,51327,1,2,2:0:0:0:
262,217,51416,1,0,2:0:0:0:
258,207,51504,2,0,P|248:171|252:126,1,52,0|0,1:0|2:0,2:0:0:0:
455,273,51680,1,2,2:0:0:0:
462,265,51769,1,0,2:0:0:0:
470,257,51857,2,0,P|493:227|507:184,1,52,0|0,1:0|2:0,2:0:0:0:
198,259,52033,1,2,2:0:0:0:
189,252,52121,1,0,2:0:0:0:
181,245,52210,2,0,P|154:218|135:177,1,52,0|0,1:0|2:0,2:0:0:0:
384,204,52386,5,0,2:0:0:0:
386,193,52474,1,0,2:0:0:0:
389,182,52563,2,0,P|394:145|385:100,1,52,4|0,1:0|2:0,2:0:0:0:
130,134,52739,1,0,2:0:0:0:
130,121,52827,1,0,2:0:0:0:
131,111,52916,2,0,P|139:74|163:36,1,52,0|0,1:0|2:0,2:0:0:0:
317,33,53092,101,2,2:0:0:0:
307,36,53180,1,0,2:0:0:0:
297,39,53269,2,0,P|217:35|144:-8,2,156,4|0|0,1:0|1:0|1:0,2:0:0:0:
300,191,53974,38,0,P|329:135|372:82,1,96,4|0,1:0|2:0,2:0:0:0:
394,47,54239,1,0,1:0:0:0:
398,51,54327,1,0,2:0:0:0:
111,116,54504,1,0,1:0:0:0:
316,240,54680,102,0,P|273:196|236:168,1,88,4|0,1:0|2:0,2:0:0:0:
186,132,54945,1,0,1:0:0:0:
190,136,55033,1,0,1:2:0:0:
436,137,55210,1,0,1:0:0:0:
303,297,55386,6,0,P|337:263|387:232,1,80,4|0,1:0|2:0,2:0:0:0:
429,212,55651,1,0,2:0:0:0:
433,216,55739,1,4,1:0:0:0:
213,252,55916,1,0,2:0:0:0:
396,318,56092,5,4,1:0:0:0:
295,381,56269,1,4,2:0:0:0:
396,318,56445,5,4,1:0:0:0:
213,252,56621,1,4,2:0:0:0:
433,216,56798,54,0,L|454:26,1,160,4|2,1:0|2:0,2:0:0:0:
171,63,57327,2,0,P|233:116|335:89,1,160,0|2,1:0|2:0,2:0:0:0:
10,291,57857,2,0,P|-1:253|0:213,1,80,4|2,1:0|2:0,2:0:0:0:
82,144,58210,1,2,2:0:0:0:
291,203,58386,2,0,P|302:240|300:280,1,80,4|2,1:0|2:0,2:0:0:0:
229,349,58739,1,2,2:0:0:0:
76,245,58916,101,4,2:0:0:0:
229,252,59092,1,2,2:0:0:0:
80,249,59269,5,4,1:2:0:0:
229,252,59445,1,12,2:0:0:0:
347,257,59621,102,0,L|361:141,1,80,4|0,1:0|2:0,2:0:0:0:
477,145,59974,1,2,1:2:0:0:
477,145,60063,1,0,1:0:0:0:
477,145,60151,2,0,P|414:69|402:-21,1,160,0|2,1:0|2:0,2:0:0:0:
234,104,60680,2,0,L|336:89,1,80,4|0,1:0|2:0,2:0:0:0:
162,43,61033,1,2,2:0:0:0:
3,31,61210,2,0,L|89:39,1,80,4|2,1:0|2:0,2:0:0:0:
196,178,61563,1,2,2:0:0:0:
241,27,61739,53,4,1:0:0:0:
111,119,61916,2,0,L|83:123,2,20,2|0|2,1:0|1:0|3:0,2:0:0:0:
220,103,62092,1,12,2:0:0:0:
0,138,62445,54,0,L|11:232,1,80,4|0,1:0|2:0,2:0:0:0:
246,258,62798,1,2,2:0:0:0:
80,334,62974,2,0,L|89:254,1,80,0|0,1:0|2:0,2:0:0:0:
329,232,63327,1,2,2:0:0:0:
159,146,63504,2,0,L|168:225,1,80,4|0,1:0|2:0,2:0:0:0:
411,254,63857,1,2,2:0:0:0:
236,337,64033,2,0,L|245:257,1,80,4|2,1:0|2:0,2:0:0:0:
411,254,64386,1,2,2:0:0:0:
486,222,64563,5,4,2:0:0:0:
329,232,64739,1,2,2:0:0:0:
490,226,64916,101,4,2:0:0:0:
329,232,65092,1,8,2:0:0:0:
254,152,65269,6,0,L|347:144,1,80,4|0,1:0|2:0,2:0:0:0:
174,20,65621,1,0,1:0:0:0:
174,20,65710,1,0,1:0:0:0:
174,20,65798,2,0,P|245:62|324:47,1,160,4|2,1:0|2:0,2:0:0:0:
434,180,66327,2,0,P|431:72|452:3,1,160,4|2,1:0|2:0,2:0:0:0:
254,152,66857,2,0,L|284:332,1,160,4|2,1:0|2:0,2:0:0:0:
214,378,67386,101,0,1:0:0:0:
144,311,67563,2,0,P|141:293|142:280,2,20,0|0|0,1:0|1:0|1:0,1:0:0:0:
56,291,67739,1,0,1:0:0:0:
59,267,67827,1,0,1:0:0:0:
62,243,67916,1,0,1:0:0:0:
65,219,68004,1,0,2:0:0:0:
67,195,68092,6,0,P|40:195|14:189,2,53.3333333333333,4|2|2,2:1|2:0|2:0,2:0:0:0:
250,134,68445,2,0,P|283:114|308:88,2,53.3333333333333,2|2|2,2:0|2:0|2:0,2:0:0:0:
60,119,68798,2,0,P|36:104|17:75,2,53.3333333333333,2|2|2,2:0|2:0|2:0,2:0:0:0:
189,248,69151,2,0,P|195:263|200:281,5,26.6666666666667,2|0|2|2|0|0,2:0|2:0|2:0|2:0|2:0|2:0,2:0:0:0:
160,174,69504,1,4,1:0:0:0:
149,163,70386,38,0,L|216:153,1,60,0|0,2:0|2:0,2:0:0:0:
410,4,70916,22,0,L|416:79,1,60,4|0,1:0|1:0,1:0:0:0:
486,157,71092,2,0,L|410:163,1,60,0|0,1:0|1:0,1:0:0:0:
311,78,71269,1,0,1:0:0:0:
311,78,71357,1,0,1:0:0:0:
311,78,71445,1,0,1:0:0:0:
311,78,71533,1,0,1:0:0:0:
311,78,71621,2,0,L|317:149,1,60,0|0,1:0|1:0,1:0:0:0:
370,247,71798,2,0,L|298:253,1,60,0|0,1:0|1:0,1:0:0:0:
201,306,71974,2,0,L|194:234,1,60,4|0,1:2|1:0,1:0:0:0:
40,231,72151,5,0,1:0:0:0:
40,231,72239,1,0,1:0:0:0:
40,231,72327,2,0,L|99:225,1,60,0|0,1:0|1:0,1:0:0:0:
232,136,72504,2,0,L|172:141,1,60,0|0,1:0|1:0,1:0:0:0:
36,152,72680,2,0,L|95:146,1,60,0|0,1:0|1:0,1:0:0:0:
228,57,72857,2,0,L|168:62,1,60,0|0,1:0|1:0,1:0:0:0:
24,12,73033,102,0,L|84:7,1,60,4|0,1:2|1:0,1:0:0:0:
228,57,73210,2,0,L|168:62,1,60,4|0,1:2|1:0,1:0:0:0:
36,152,73386,2,0,L|95:146,1,60,4|0,1:0|1:0,1:0:0:0:
236,216,73563,1,4,1:2:0:0:
40,231,73739,6,0,L|45:294,1,60,4|0,1:0|1:0,1:0:0:0:
128,308,73916,2,0,L|133:371,1,60,0|0,1:0|1:0,1:0:0:0:
211,254,74092,2,0,L|216:317,1,60,0|0,1:0|1:0,1:0:0:0:
311,327,74269,1,0,1:0:0:0:
311,327,74357,1,0,1:0:0:0:
311,327,74445,2,0,L|305:267,1,60,0|0,1:0|1:0,1:0:0:0:
390,226,74621,1,0,1:0:0:0:
390,226,74710,1,0,1:0:0:0:
390,226,74798,2,0,L|396:286,1,60,4|0,1:2|1:0,1:0:0:0:
493,307,74974,101,0,1:0:0:0:
493,307,75063,1,0,1:0:0:0:
493,307,75151,2,0,L|487:247,1,60,0|0,1:0|1:0,1:0:0:0:
500,154,75327,2,0,L|440:160,1,60,0|0,1:0|1:0,1:0:0:0:
343,138,75504,2,0,L|349:198,1,60,0|0,1:0|1:0,1:0:0:0:
336,291,75680,2,0,L|396:285,1,60,0|0,1:0|1:0,1:0:0:0:
493,307,75857,85,4,3:0:0:0:
484,226,76033,1,0,1:0:0:0:
487,229,76121,1,0,1:0:0:0:
491,233,76210,1,0,1:0:0:0:
407,235,76386,1,0,1:0:0:0:
210,239,76563,22,0,L|270:233,1,60,4|0,1:0|1:0,1:0:0:0:
160,164,76739,2,0,L|220:158,1,60,0|0,1:0|1:0,1:0:0:0:
395,103,76916,2,0,L|335:97,1,60,0|0,1:0|1:0,1:0:0:0:
445,28,77092,2,0,L|385:22,1,60,0|0,1:0|1:0,1:0:0:0:
228,2,77269,6,0,L|234:62,1,60,0|0,1:0|1:0,1:0:0:0:
159,73,77445,2,0,L|153:13,1,60,0|0,1:0|1:0,1:0:0:0:
78,24,77621,2,0,L|84:84,1,60,4|0,1:2|1:0,1:0:0:0:
8,95,77798,2,0,L|2:35,1,60,0|0,1:0|1:0,1:0:0:0:
66,168,77974,101,0,1:0:0:0:
90,165,78063,1,0,1:0:0:0:
113,162,78151,1,0,1:0:0:0:
254,267,78327,1,0,1:0:0:0:
231,270,78416,1,0,1:0:0:0:
207,273,78504,1,0,1:0:0:0:
45,171,78680,54,0,P|128:167|227:74,2,180,4|4|4,1:0|1:2|1:0,1:0:0:0:
0,382,79386,54,0,L|60:376,1,60,4|0,1:0|1:0,1:0:0:0:
99,306,79563,2,0,L|159:300,1,60,2|0,1:2|1:0,1:0:0:0:
217,352,79739,2,0,L|277:346,1,60,0|0,1:2|1:0,1:0:0:0:
339,299,79916,2,0,L|399:293,1,60,0|0,1:0|1:0,1:0:0:0:
500,344,80092,6,0,L|494:284,1,60,0|0,1:0|1:0,1:0:0:0:
438,227,80269,2,0,L|432:167,1,60,0|0,1:0|1:0,1:0:0:0:
512,147,80445,2,0,L|506:87,1,60,4|0,1:2|1:0,1:0:0:0:
435,59,80621,2,0,L|429:-1,1,60,0|0,1:0|1:0,1:0:0:0:
358,87,80798,102,0,L|298:93,1,60,0|0,1:0|1:0,1:0:0:0:
255,32,80974,2,0,L|195:38,1,60,0|0,1:0|1:0,1:0:0:0:
167,111,81151,2,0,L|107:117,1,60,0|0,1:0|1:0,1:0:0:0:
59,61,81327,2,0,L|-1:67,1,60,0|0,1:0|1:0,1:0:0:0:
29,155,81504,5,6,1:2:0:0:
33,178,81592,1,2,1:2:0:0:
37,201,81680,1,6,1:2:0:0:
194,205,81857,101,2,1:2:0:0:
190,228,81945,1,6,1:2:0:0:
187,251,82033,1,2,1:2:0:0:
24,152,82210,5,2,1:2:0:0:
29,176,82298,1,2,1:2:0:0:
33,200,82386,1,2,1:2:0:0:
198,205,82563,101,2,1:2:0:0:
193,229,82651,1,2,1:2:0:0:
190,253,82739,1,2,1:2:0:0:
37,316,82916,70,0,P|119:326|225:371,2,180,4|4|4,1:0|1:2|1:0,1:0:0:0:
33,34,83621,38,0,L|39:94,1,60,4|0,1:0|1:0,1:0:0:0:
11,176,83798,2,0,L|71:170,1,60,2|0,1:2|1:0,1:0:0:0:
153,198,83974,2,0,L|147:138,1,60,2|0,1:2|1:0,1:0:0:0:
175,56,84151,2,0,L|115:62,1,60,2|0,1:2|1:0,1:0:0:0:
125,280,84327,6,0,L|185:274,1,60,2|0,1:2|1:0,1:0:0:0:
267,302,84504,2,0,L|261:242,1,60,2|0,1:2|1:0,1:0:0:0:
289,160,84680,2,0,L|229:166,1,60,6|0,1:2|1:0,1:0:0:0:
147,138,84857,2,0,L|153:198,1,60,6|0,1:2|1:0,1:0:0:0:
349,329,85033,102,0,L|343:269,1,60,4|0,1:0|1:0,1:0:0:0:
371,187,85210,2,0,L|311:193,1,60,2|0,1:2|1:0,1:0:0:0:
229,165,85386,2,0,L|235:225,1,60,2|0,1:2|1:0,1:0:0:0:
207,307,85563,2,0,L|267:301,1,60,2|0,1:2|1:0,1:0:0:0:
343,269,85739,5,6,1:2:0:0:
311,192,85916,1,0,1:0:0:0:
311,192,86004,1,0,1:0:0:0:
311,192,86092,1,6,1:2:0:0:
234,224,86269,1,0,1:0:0:0:
430,326,86445,102,0,L|424:266,1,60,0|0,1:0|1:0,1:0:0:0:
500,231,86621,2,0,L|494:171,1,60,0|0,1:0|1:0,1:0:0:0:
416,150,86798,2,0,L|410:90,1,60,0|0,1:0|1:0,1:0:0:0:
504,59,86974,2,0,L|498:-1,1,60,0|0,1:0|1:0,1:0:0:0:
405,8,87151,5,2,1:2:0:0:
382,5,87239,1,2,1:2:0:0:
359,2,87327,1,2,1:2:0:0:
263,96,87504,101,2,1:2:0:0:
286,99,87592,1,2,1:2:0:0:
309,102,87680,1,2,1:2:0:0:
409,6,87857,5,2,1:2:0:0:
385,3,87945,1,2,1:2:0:0:
361,0,88033,1,2,1:2:0:0:
260,99,88210,101,2,1:2:0:0:
284,102,88298,1,2,1:2:0:0:
308,105,88386,1,2,1:2:0:0:
167,12,88563,54,0,P|183:100|192:202,2,180,4|4|4,1:0|1:2|1:0,1:0:0:0:
0,70,89269,54,0,L|6:130,1,60,4|0,1:0|1:0,1:0:0:0:
78,61,89445,2,0,L|84:121,1,60,2|0,1:2|1:0,1:0:0:0:
119,258,89621,2,0,L|113:198,1,60,6|0,1:2|1:0,1:0:0:0:
197,249,89798,2,0,L|191:189,1,60,2|0,1:2|1:0,1:0:0:0:
419,242,89974,6,0,L|359:248,1,60,4|0,1:3|1:0,1:0:0:0:
385,325,90151,2,0,L|325:331,1,60,2|0,1:2|1:0,1:0:0:0:
272,175,90327,2,0,L|332:169,1,60,4|0,1:2|1:0,1:0:0:0:
303,92,90504,2,0,L|363:86,1,60,4|0,1:2|1:0,1:0:0:0:
481,102,90680,101,4,1:0:0:0:
479,126,90769,1,0,1:0:0:0:
477,149,90857,1,2,1:2:0:0:
492,98,91033,5,6,1:2:0:0:
489,128,91121,1,0,1:0:0:0:
486,156,91210,1,2,1:2:0:0:
360,8,91386,38,0,P|288:41|170:41,2,180,4|4|4,1:0|1:2|1:0,1:0:0:0:
126,206,92092,6,0,P|190:251|243:340,2,150,4|4|4,1:0|1:2|1:0,1:0:0:0:
419,235,92798,102,0,P|426:156|457:89,2,120,4|4|4,1:0|1:2|1:0,1:0:0:0:
191,130,93504,86,0,P|164:124|122:121,2,53.3333333333333,2|2|2,2:0|2:0|2:0,1:0:0:0:
365,98,93857,2,0,P|383:77|407:42,2,53.3333333333333,2|2|2,2:0|2:0|2:0,1:0:0:0:
318,240,94210,2,0,P|326:266|344:304,2,53.3333333333333,2|2|2,2:0|2:0|2:0,1:0:0:0:
273,94,94563,2,0,P|271:76|266:55,4,32,2|0|0|2|0,2:0|2:0|2:0|2:0|2:0,1:0:0:0:
295,167,94916,53,4,1:0:0:0:
295,167,95621,1,4,1:0:0:0:
64,50,96327,53,4,1:0:0:0:
52,77,96416,1,0,1:0:0:0:
48,106,96504,1,2,1:2:0:0:
52,135,96592,1,0,1:0:0:0:
61,163,96680,2,0,B|119:170|113:154|183:157,1,120,4|2,1:2|1:2,1:0:0:0:
278,103,96945,1,0,1:0:0:0:
282,107,97033,101,2,1:2:0:0:
291,135,97121,1,0,1:0:0:0:
291,165,97210,1,2,1:2:0:0:
283,193,97298,1,0,1:0:0:0:
265,217,97386,2,0,P|239:276|237:334,1,120,4|2,1:2|1:2,1:0:0:0:
324,380,97651,1,0,1:0:0:0:
328,384,97739,5,2,1:2:0:0:
354,369,97827,1,0,1:0:0:0:
384,372,97916,1,2,1:2:0:0:
411,360,98004,1,0,1:0:0:0:
440,366,98092,2,0,P|466:306|460:223,1,120,4|4,1:2|1:2,1:0:0:0:
415,175,98357,1,0,2:0:0:0:
419,179,98445,37,4,1:2:0:0:
224,281,98710,1,4,1:2:0:0:
505,179,98974,1,4,1:2:0:0:
172,43,99151,69,4,1:0:0:0:
181,71,99239,1,0,1:0:0:0:
200,94,99327,1,2,1:2:0:0:
226,108,99416,1,0,1:0:0:0:
253,118,99504,2,0,L|396:102,1,120,6|2,1:2|1:2,1:0:0:0:
485,53,99769,1,0,1:0:0:0:
489,57,99857,101,2,1:2:0:0:
498,85,99945,1,0,1:0:0:0:
496,114,100033,1,2,1:2:0:0:
489,143,100121,1,0,1:0:0:0:
478,171,100210,2,0,P|420:207|339:188,1,120,6|2,1:2|1:2,1:0:0:0:
226,172,100474,1,0,1:0:0:0:
230,176,100563,5,2,1:2:0:0:
245,201,100651,1,0,1:0:0:0:
254,229,100739,1,6,1:2:0:0:
258,258,100827,1,0,1:0:0:0:
259,288,100916,2,0,P|196:306|120:317,1,120,6|2,1:2|1:2,1:0:0:0:
71,355,101180,1,0,2:0:0:0:
75,359,101269,37,4,1:2:0:0:
51,284,101445,1,4,1:2:0:0:
35,212,101621,1,4,1:0:0:0:
18,140,101798,1,4,1:2:0:0:
154,8,101974,53,4,1:0:0:0:
164,36,102063,1,0,1:0:0:0:
164,65,102151,1,2,1:2:0:0:
158,94,102239,1,0,1:0:0:0:
146,121,102327,2,0,P|123:183|130:268,1,120,6|2,1:2|1:2,1:0:0:0:
181,331,102592,1,0,1:0:0:0:
185,335,102680,5,2,1:2:0:0:
214,339,102769,1,0,1:0:0:0:
243,332,102857,1,2,1:2:0:0:
269,318,102945,1,0,1:0:0:0:
295,303,103033,2,0,P|361:279|441:287,1,120,4|2,1:2|1:2,1:0:0:0:
321,148,103298,1,2,1:2:0:0:
321,148,103386,101,6,1:2:0:0:
337,163,103474,1,0,2:0:0:0:
356,175,103563,1,2,1:2:0:0:
377,184,103651,1,2,1:2:0:0:
399,189,103739,1,4,2:0:0:0:
421,190,103827,1,0,2:0:0:0:
443,188,103916,1,2,1:2:0:0:
465,182,104004,1,2,1:2:0:0:
485,172,104092,54,0,P|501:115|500:52,1,120,4|0,1:0|2:0,1:0:0:0:
316,30,104357,2,0,P|299:87|301:150,1,120,0|0,1:2|2:0,1:0:0:0:
472,148,104621,2,0,P|481:111|480:69,1,60,4|0,1:0|2:0,1:0:0:0:
199,122,104798,102,0,P|182:179|184:242,1,120,4|0,1:0|2:0,1:0:0:0:
368,264,105063,2,0,P|384:206|382:143,1,120,0|0,1:2|2:0,1:0:0:0:
212,146,105327,2,0,P|203:183|204:225,1,60,0|0,1:0|2:0,1:0:0:0:
108,377,105504,6,0,P|91:319|93:256,1,120,4|0,1:0|2:0,1:0:0:0:
277,235,105769,2,0,P|293:292|291:355,1,120,0|0,1:2|2:0,1:0:0:0:
121,353,106033,2,0,P|112:316|113:274,1,60,4|0,1:0|2:0,1:0:0:0:
0,149,106210,69,4,1:0:0:0:
24,166,106298,1,2,2:0:0:0:
52,177,106386,1,2,2:0:0:0:
81,183,106474,1,2,2:0:0:0:
111,182,106563,1,6,1:2:0:0:
140,175,106651,1,2,2:0:0:0:
167,162,106739,1,2,2:0:0:0:
191,144,106827,1,2,2:0:0:0:
211,122,106916,101,0,1:0:0:0:
159,55,107092,1,0,1:0:0:0:
75,45,107269,1,4,1:2:0:0:
9,97,107445,1,0,1:0:0:0:
248,179,107621,22,0,L|261:53,1,104,4|0,1:0|1:0,1:0:0:0:
222,0,107974,1,2,1:2:0:0:
137,194,108151,2,0,P|267:224|343:291,1,208,4|2,1:0|1:2,1:0:0:0:
512,65,108680,2,0,P|429:131|308:106,1,208,4|2,1:0|1:2,1:0:0:0:
415,331,109210,2,0,P|423:279|442:231,1,104,4|2,1:0|1:2,1:0:0:0:
512,189,109563,1,4,1:2:0:0:
279,257,109739,69,4,1:0:0:0:
352,381,109916,1,4,1:2:0:0:
279,257,110092,37,4,1:2:0:0:
352,381,110269,1,2,1:2:0:0:
162,285,110445,70,0,P|194:240|209:190,1,104,4|0,1:0|1:0,1:0:0:0:
413,119,110798,1,0,1:0:0:0:
413,119,110886,1,0,1:0:0:0:
413,119,110974,2,0,P|283:89|234:10,1,208,4|2,1:0|1:2,1:0:0:0:
4,148,111504,2,0,L|118:134,1,104,4|6,1:0|1:2,1:0:0:0:
261,195,111857,1,2,1:2:0:0:
164,4,112033,2,0,L|183:134,1,104,4|2,1:0|1:2,1:0:0:0:
205,280,112386,1,4,1:2:0:0:
255,112,112563,85,4,1:0:0:0:
137,216,112739,2,0,L|110:219,2,26,2|0|0,1:0|1:0|1:0,1:0:0:0:
290,268,112916,1,12,1:2:0:0:
228,197,113092,1,2,1:2:0:0:
324,347,113269,70,0,P|386:325|452:314,1,104,4|0,1:0|1:0,1:0:0:0:
503,341,113621,1,2,1:2:0:0:
429,124,113798,2,0,P|352:197|233:169,1,208,4|2,1:0|1:2,1:0:0:0:
58,313,114327,2,0,B|157:297|150:354|262:328,1,208,4|2,1:0|1:2,1:0:0:0:
118,108,114857,2,0,P|104:163|116:234,1,104,4|0,1:0|1:0,1:0:0:0:
192,245,115210,1,2,1:2:0:0:
350,141,115386,69,4,1:2:0:0:
188,157,115563,1,2,1:2:0:0:
350,141,115739,37,4,1:2:0:0:
188,157,115916,1,4,1:2:0:0:
434,100,116092,70,0,P|443:159|426:229,1,104,4|0,1:0|1:0,1:0:0:0:
491,329,116445,1,0,1:0:0:0:
491,329,116533,1,0,1:0:0:0:
491,329,116621,2,0,L|235:303,1,208,4|2,1:0|1:2,1:0:0:0:
16,252,117151,2,0,L|132:236,1,104,4|2,1:0|1:2,1:0:0:0:
230,155,117504,1,2,1:2:0:0:
191,362,117680,2,0,L|203:244,1,104,4|2,1:0|1:2,1:0:0:0:
193,86,118033,1,4,1:2:0:0:
278,229,118210,37,4,1:0:0:0:
144,164,118386,2,0,L|103:160,2,26,0|0|0,1:0|1:0|1:0,1:0:0:0:
273,87,118563,1,0,1:0:0:0:
276,77,118651,1,0,1:0:0:0:
279,67,118739,1,0,1:0:0:0:
282,57,118827,1,0,1:0:0:0:
285,47,118916,102,0,L|378:35,2,69.3333333333334,4|2|2,1:2|2:0|2:0,1:0:0:0:
171,142,119269,2,0,L|118:135,2,53.3333333333333,2|2|2,2:0|2:0|2:0,1:0:0:0:
299,236,119621,2,0,L|336:231,2,37.3333333333333,2|2|2,2:0|2:0|2:0,1:0:0:0:
188,315,119974,2,0,L|170:313,6,14,0|0|0|0|0|0|0,1:0|1:0|1:0|1:0|1:0|1:0|1:0,1:0:0:0:
255,361,120327,37,4,1:0:0:0:
258,193,121033,101,4,1:0:0:0:
255,23,121739,5,4,1:0:0:0:
256,192,121916,12,0,124386,2:0:0:0:
