osu file format v14

[General]
AudioFilename: audio.mp3
AudioLeadIn: 0
PreviewTime: 1075
Countdown: 0
SampleSet: Soft
StackLeniency: 0.5
Mode: 0
LetterboxInBreaks: 0
WidescreenStoryboard: 0

[Editor]
DistanceSpacing: 1
BeatDivisor: 3
GridSize: 4
TimelineZoom: 1

[Metadata]
Title:Pokemon Kyuu Jotai no Thema
TitleUnicode:ポケモンきゅうじょたいのテーマ
Artist:Iiyoshi Arata, Ishizuna Atsuhiro
ArtistUnicode:飯吉新、石綱淳泰
Creator:fieryrage
Version:Hard
Source:ポケモン不思議のダンジョン 青の救助隊
Tags:pokemon pokémon mystery dungeon red blue rescue team 赤の救助隊 gba game boy advance nintendo ds title game freak the company video game ost soundtrack instrumental
BeatmapID:2282207
BeatmapSetID:1091644

[Difficulty]
HPDrainRate:5
CircleSize:4
OverallDifficulty:6.2
ApproachRate:7
SliderMultiplier:1.6
SliderTickRate:1

[Events]
//Background and Video events
0,0,"Cool.jpg",0,0
//Break Periods
//Storyboard Layer 0 (Background)
//Storyboard Layer 1 (Fail)
//Storyboard Layer 2 (Pass)
//Storyboard Layer 3 (Foreground)
//Storyboard Layer 4 (Overlay)
//Storyboard Sound Samples

[TimingPoints]
1075,461.538461538462,4,2,0,15,1,0
1075,-100,4,2,0,15,0,0
1151,-100,4,2,0,20,0,0
1228,-100,4,2,0,30,0,0
1305,461.538461538462,4,2,0,45,1,0
1305,-100,4,2,0,45,0,0
16074,-100,4,2,0,30,0,0
19766,-100,4,2,0,40,0,0
23458,-100,4,2,0,45,0,0
30035,-100,4,2,0,5,0,0

[Colours]
Combo1 : 124,173,159
Combo2 : 177,165,95
Combo3 : 253,77,81
Combo4 : 98,190,221

[HitObjects]
145,144,1075,6,0,L|101:147,2,26.6666666666667,0|0|0,2:0|2:0|2:0,0:0:0:0:
171,142,1305,6,0,L|334:144,1,160,4|2,3:0|0:0,0:0:0:0:
430,182,2074,1,0,0:0:0:0:
465,221,2228,2,0,P|479:272|465:332,1,106.666666666667,2|0,0:0|0:0,0:0:0:0:
427,357,2689,2,0,P|376:371|316:357,1,106.666666666667,10|0,0:0|0:0,0:0:0:0:
280,330,3151,6,0,P|209:312|115:338,1,160,4|0,3:0|0:0,0:0:0:0:
23,300,3920,1,2,0:0:0:0:
21,246,4074,2,0,L|18:130,1,106.666666666667,2|0,0:0|0:0,0:0:0:0:
16,86,4535,1,10,0:0:0:0:
166,140,4997,6,0,P|237:158|331:132,1,160,4|0,3:0|0:0,0:0:0:0:
423,170,5766,1,2,0:0:0:0:
425,224,5920,2,0,L|428:340,1,106.666666666667,2|0,0:0|0:0,0:0:0:0:
430,384,6381,1,10,0:0:0:0:
270,367,6843,6,0,L|267:260,1,106.666666666667,4|0,3:0|0:0,0:0:0:0:
265,206,7305,1,2,0:0:0:0:
112,252,7766,1,2,0:0:0:0:
209,125,8228,2,0,P|260:110|318:121,1,106.666666666667,10|0,0:0|0:0,0:0:0:0:
354,150,8689,6,0,P|406:158|456:143,1,106.666666666667,4|0,3:0|0:0,0:0:0:0:
499,110,9151,1,2,0:0:0:0:
401,236,9612,2,0,P|395:294|409:350,1,106.666666666667,2|0,0:0|0:0,0:0:0:0:
438,382,10074,1,10,0:0:0:0:
288,325,10535,6,0,L|85:322,1,160,4|0,3:0|0:0,0:0:0:0:
74,229,11305,1,2,0:0:0:0:
56,179,11458,2,0,P|50:124|66:67,1,106.666666666667,2|0,0:0|0:0,0:0:0:0:
92,30,11920,1,10,0:0:0:0:
234,103,12381,6,0,L|238:269,1,160,4|0,3:0|0:0,0:0:0:0:
314,338,13151,1,2,0:0:0:0:
361,363,13305,2,0,P|418:369|473:349,1,106.666666666667,2|0,0:0|0:0,0:0:0:0:
505,319,13766,1,10,0:0:0:0:
429,178,14228,5,4,3:0:0:0:
483,27,14689,1,2,0:0:0:0:
335,89,15151,2,0,P|256:102|182:77,1,160,2|10,0:0|0:2,0:0:0:0:
91,19,15920,1,2,0:3:0:0:
49,52,16074,6,0,L|45:175,1,106.666666666667
42,211,16535,1,2,0:2:0:0:
164,108,16997,2,0,L|160:231,1,106.666666666667,0|0,0:0|0:0,0:0:0:0:
157,267,17458,1,2,0:2:0:0:
277,161,17920,6,0,L|273:284,1,106.666666666667,0|0,0:0|0:0,0:0:0:0:
270,320,18381,1,2,0:2:0:0:
392,217,18843,2,0,L|388:340,1,106.666666666667,0|0,0:0|0:0,0:0:0:0:
385,376,19305,1,2,0:2:0:0:
241,306,19766,6,0,P|184:295|83:330,1,160,2|2,3:2|0:3,0:0:0:0:
20,243,20535,1,0,0:0:0:0:
37,192,20689,2,0,P|40:129|26:82,1,106.666666666667,2|0,0:0|0:0,0:0:0:0:
1,41,21151,1,2,0:3:0:0:
155,83,21612,6,0,L|358:78,1,160,2|2,3:2|0:3,0:0:0:0:
421,77,22381,1,0,0:0:0:0:
464,108,22535,2,0,L|470:243,1,106.666666666667,2|0,0:0|0:0,0:0:0:0:
433,254,22997,2,0,L|298:260,1,106.666666666667,2|0,0:3|0:0,0:0:0:0:
273,263,23458,5,6,3:0:0:0:
125,325,23920,1,2,0:0:0:0:
35,192,24381,2,0,P|29:140|47:85,1,106.666666666667,8|0,0:0|0:0,0:0:0:0:
85,53,24843,2,0,P|137:47|192:65,1,106.666666666667,2|2,0:0|0:0,0:0:0:0:
226,100,25305,5,6,3:0:0:0:
137,233,25766,1,2,0:0:0:0:
271,320,26228,2,0,P|327:326|377:307,1,106.666666666667,8|0,0:0|0:0,0:0:0:0:
403,265,26689,2,0,P|409:209|390:159,1,106.666666666667,10|2,0:0|0:0,0:0:0:0:
358,120,27151,5,6,3:0:0:0:
198,126,27612,2,0,L|64:129,1,106.666666666667,2|0,0:0|0:0,0:0:0:0:
37,130,28074,1,10,3:2:0:0:
168,221,28535,2,0,L|274:218,1,106.666666666667,10|2,0:0|0:0,0:0:0:0:
329,217,28997,5,6,3:0:0:0:
458,310,29458,2,0,L|461:374,2,53.3333333333333,4|0|0,3:0|0:0|0:0,0:0:0:0:
455,256,29920,1,6,3:0:0:0:
256,192,30035,12,0,31103,0:0:0:0:
