osu file format v14

[General]
AudioFilename: audio.mp3
AudioLeadIn: 0
PreviewTime: 1075
Countdown: 0
SampleSet: Soft
StackLeniency: 0.3
Mode: 0
LetterboxInBreaks: 0
WidescreenStoryboard: 0

[Editor]
DistanceSpacing: 1
BeatDivisor: 4
GridSize: 4
TimelineZoom: 1

[Metadata]
Title:Pokemon Kyuu Jotai no Thema
TitleUnicode:ポケモンきゅうじょたいのテーマ
Artist:Iiyoshi Arata, Ishizuna Atsuhiro
ArtistUnicode:飯吉新、石綱淳泰
Creator:fieryrage
Version:A Fresh Start in a New World!
Source:ポケモン不思議のダンジョン 青の救助隊
Tags:pokemon pokémon mystery dungeon red blue rescue team 赤の救助隊 gba game boy advance nintendo ds title game freak the company video game ost soundtrack instrumental
BeatmapID:2282183
BeatmapSetID:1091644

[Difficulty]
HPDrainRate:5
CircleSize:5
OverallDifficulty:7.6
ApproachRate:8
SliderMultiplier:1.9
SliderTickRate:1

[Events]
//Background and Video events
0,0,"Cool.jpg",0,0
//Break Periods
//Storyboard Layer 0 (Background)
//Storyboard Layer 1 (Fail)
//Storyboard Layer 2 (Pass)
//Storyboard Layer 3 (Foreground)
//Storyboard Layer 4 (Overlay)
//Storyboard Sound Samples

[TimingPoints]
1075,461.538461538462,4,2,0,15,1,0
1075,-100,4,2,0,15,0,0
1151,-100,4,2,0,20,0,0
1228,-100,4,2,0,30,0,0
1305,461.538461538462,4,2,0,45,1,0
1305,-100,4,2,0,45,0,0
16074,-133.333333333333,4,2,0,30,0,0
19766,-100,4,2,0,40,0,0
23458,-100,4,2,0,45,0,0
30035,-100,4,2,0,5,0,0

[Colours]
Combo1 : 124,173,159
Combo2 : 177,165,95
Combo3 : 253,77,81
Combo4 : 98,190,221

[HitObjects]
90,251,1075,6,0,L|47:243,2,31.6666666666667,0|0|0,2:0|2:0|2:0,2:0:0:0:
110,255,1305,6,0,L|245:251,1,126.666666666667,4|0,3:0|0:0,0:0:0:0:
306,313,1766,2,0,P|325:246|305:185,1,126.666666666667,2|0,0:0|0:0,0:0:0:0:
240,108,2228,1,2,0:0:0:0:
467,176,2689,1,10,0:0:0:0:
236,251,2997,1,0,0:0:0:0:
236,251,3151,6,0,B|151:233|151:233|30:255,1,190,4|0,3:0|0:0,0:0:0:0:
267,340,3920,1,2,0:0:0:0:
267,340,4074,2,0,L|406:336,1,126.666666666667,2|0,0:0|0:0,0:0:0:0:
425,334,4458,1,2,0:0:0:0:
425,334,4535,2,0,L|421:195,1,126.666666666667,10|0,0:0|0:0,0:0:0:0:
353,96,4997,6,0,P|341:33|409:87,1,190,4|0,3:0|0:0,0:0:0:0:
226,154,5766,1,2,0:0:0:0:
226,154,5920,2,0,P|200:105|209:19,1,126.666666666667,2|0,0:0|0:0,0:0:0:0:
214,5,6305,1,2,0:0:0:0:
214,5,6381,2,0,P|165:31|79:22,1,126.666666666667,10|0,0:0|0:0,0:0:0:0:
6,136,6843,5,4,3:0:0:0:
230,238,7305,2,0,L|381:239,1,126.666666666667,2|0,0:0|0:0,0:0:0:0:
443,207,7766,1,2,0:0:0:0:
136,172,8228,2,0,P|117:222|131:295,1,126.666666666667,10|0,0:0|0:0,0:0:0:0:
213,114,8689,6,0,P|153:84|91:91,1,126.666666666667,4|0,3:0|0:0,0:0:0:0:
6,150,9151,1,2,0:0:0:0:
253,29,9458,1,0,0:0:0:0:
253,29,9612,2,0,B|298:16|348:33|348:33|394:47|440:31,1,190,2|10,0:0|0:0,0:0:0:0:
284,190,10381,1,0,0:0:0:0:
284,190,10535,6,0,P|271:256|291:313,1,126.666666666667,4|0,3:0|0:0,0:0:0:0:
373,362,10997,1,0,0:0:0:0:
182,320,11305,1,2,0:0:0:0:
182,320,11458,2,0,L|54:323,1,126.666666666667,2|0,0:0|0:0,0:0:0:0:
26,326,11843,1,2,0:0:0:0:
26,326,11920,2,0,L|23:198,1,126.666666666667,10|0,0:0|0:0,0:0:0:0:
130,62,12381,6,0,P|200:80|135:128,1,190,4|0,3:0|0:0,0:0:0:0:
298,26,13151,1,2,0:0:0:0:
298,26,13305,2,0,P|317:91|305:148,1,126.666666666667,2|0,0:0|0:0,0:0:0:0:
284,171,13689,1,2,0:0:0:0:
284,171,13766,2,0,P|349:152|406:164,1,126.666666666667,10|0,0:0|0:0,0:0:0:0:
489,219,14228,5,4,3:0:0:0:
283,307,14535,1,0,0:0:0:0:
283,307,14689,2,0,L|151:310,1,126.666666666667,2|0,0:0|0:0,0:0:0:0:
51,229,15151,2,0,L|177:226,1,126.666666666667,2|0,0:0|0:0,0:0:0:0:
284,171,15612,1,10,0:2:0:0:
114,69,15920,1,2,0:3:0:0:
114,69,16074,6,0,L|111:126,2,47.5000018119813
36,93,16535,2,0,L|33:150,2,47.5000018119813,2|0|0,0:2|0:0|0:0,0:0:0:0:
206,147,16997,6,0,L|209:204,2,47.5000018119813
284,171,17458,2,0,L|287:228,2,47.5000018119813,2|0|0,0:2|0:0|0:0,0:0:0:0:
109,197,17920,5,0,0:0:0:0:
92,241,18074,1,0,0:0:0:0:
95,288,18228,1,0,0:0:0:0:
113,331,18381,2,0,L|116:388,2,47.5000018119813,2|0|0,0:2|0:0|0:0,0:0:0:0:
288,305,18843,5,0,0:0:0:0:
305,261,18997,1,0,0:0:0:0:
302,214,19151,1,0,0:0:0:0:
284,171,19305,2,0,L|281:114,2,47.5000018119813,2|0|0,0:2|0:0|0:0,0:0:0:0:
343,54,19766,6,0,P|280:40|214:61,1,126.666666666667,2|0,3:2|0:0,0:0:0:0:
173,114,20228,2,0,P|159:175|176:236,1,126.666666666667,2|0,0:3|0:0,0:0:0:0:
243,289,20689,2,0,P|306:303|372:282,1,126.666666666667,2|0,0:0|0:0,0:0:0:0:
412,228,21151,2,0,P|426:167|410:107,1,126.666666666667,2|0,0:3|0:0,0:0:0:0:
221,56,21612,6,0,L|70:52,1,126.666666666667,2|0,3:2|0:0,0:0:0:0:
223,160,22074,2,0,L|349:163,1,126.666666666667,2|0,0:3|0:0,0:0:0:0:
218,266,22535,2,0,L|67:262,1,126.666666666667,2|0,0:0|0:0,0:0:0:0:
220,370,22997,2,0,L|346:373,1,126.666666666667,2|0,0:3|0:0,0:0:0:0:
448,323,23458,5,6,3:0:0:0:
349,163,23766,1,2,0:0:0:0:
349,163,23920,2,0,L|223:160,1,126.666666666667,2|0,0:0|0:0,0:0:0:0:
112,202,24381,5,8,0:0:0:0:
112,202,24535,2,0,P|80:207|39:196,1,63.3333333333333,2|0,0:0|0:0,0:0:0:0:
54,106,24843,2,0,P|86:101|127:112,1,63.3333333333333,2|0,0:0|0:0,0:0:0:0:
222,159,25151,1,2,0:0:0:0:
222,159,25305,6,0,L|226:304,1,126.666666666667,6|0,3:0|0:0,0:0:0:0:
349,163,25766,2,0,L|345:36,1,126.666666666667,2|0,0:0|0:0,0:0:0:0:
466,238,26228,5,8,0:0:0:0:
466,238,26381,2,0,P|474:269|471:310,1,63.3333333333333,2|0,0:0|0:0,0:0:0:0:
358,317,26689,2,0,P|350:286|353:245,1,63.3333333333333,10|0,0:0|0:0,0:0:0:0:
409,143,26997,1,2,0:0:0:0:
409,143,27151,6,0,P|348:127|288:146,1,126.666666666667,6|0,3:0|0:0,0:0:0:0:
223,238,27612,2,0,P|163:257|103:241,1,126.666666666667,2|0,0:0|0:0,0:0:0:0:
34,149,28074,5,10,3:2:0:0:
31,85,28228,1,2,0:0:0:0:
28,22,28381,1,0,0:0:0:0:
85,48,28535,5,10,0:0:0:0:
149,45,28689,1,2,0:0:0:0:
212,42,28843,1,2,0:0:0:0:
260,83,28997,6,0,L|399:76,1,126.666666666667,6|0,3:0|0:0,0:0:0:0:
494,73,29458,2,0,L|498:142,2,63.3333333333333,4|0|0,3:0|0:0|0:0,0:0:0:0:
392,234,29920,1,6,3:0:0:0:
256,192,30035,12,0,31103,0:0:0:0:
