osu file format v14

[General]
AudioFilename: audio.mp3
AudioLeadIn: 0
PreviewTime: 180338
Countdown: 0
SampleSet: Soft
StackLeniency: 0.7
Mode: 0
LetterboxInBreaks: 0
WidescreenStoryboard: 1

[Editor]
Bookmarks: 3244,15432,27432,39432,54432,81244,87432,99432,114432,141432,153432,165432,180432,192432,195432,222432,231244,243432,246244,252057
DistanceSpacing: 1.2
BeatDivisor: 4
GridSize: 16
TimelineZoom: 1.6

[Metadata]
Title:Othello
TitleUnicode:オセロ
Artist:Iino Miko (CV: Tomita Miyu)
ArtistUnicode:伊井野ミコ (CV:富田美憂)
Creator:Amateurre
Version:xidorn's Normal
Source:かぐや様は告らせたい?~天才たちの恋愛頭脳戦~
Tags:bongo hinsvar xidorn anime japanese kaguya sama wa kokurasetai tensai tachi no renai ren'ai zunousen love is war war? character song 03 キャラクターソング03 wants to be confessed to?: the geniuses' of and brains season 2 pop
BeatmapID:2499218
BeatmapSetID:1196197

[Difficulty]
HPDrainRate:3
CircleSize:3.5
OverallDifficulty:4
ApproachRate:5
SliderMultiplier:1.1
SliderTickRate:1

[Events]
//Background and Video events
0,0,"Miko Iino.jpg",0,0
//Break Periods
2,81444,85669
2,180632,188232
2,222632,226669
//Storyboard Layer 0 (Background)
//Storyboard Layer 1 (Fail)
//Storyboard Layer 2 (Pass)
//Storyboard Layer 3 (Foreground)
//Storyboard Layer 4 (Overlay)
//Storyboard Sound Samples

[TimingPoints]
432,375,4,2,1,50,1,0
2682,-100,4,2,1,70,0,0
3244,-100,4,2,1,70,0,0
15432,-100,4,2,1,65,0,0
27432,-100,4,2,1,65,0,0
39432,-100,4,2,1,60,0,0
45432,-100,4,2,1,65,0,0
54432,-100,4,2,1,75,0,1
78432,-100,4,2,1,60,0,0
80682,-100,4,2,1,70,0,0
81244,-100,4,2,1,70,0,0
87432,-100,4,2,1,65,0,0
99432,-100,4,2,1,60,0,0
105432,-100,4,2,1,65,0,0
114432,-100,4,2,1,75,0,1
138432,-100,4,2,1,60,0,0
153432,-100,4,2,1,65,0,0
162432,-100,4,3,2,65,0,0
163932,-100,4,3,1,65,0,0
165432,-100,4,2,1,70,0,0
177432,-100,4,2,1,70,0,0
180432,-100,4,2,1,50,0,0
186432,-100,4,2,1,60,0,0
189432,-100,4,2,1,65,0,0
192432,-100,4,2,1,70,0,0
195432,-100,4,2,1,75,0,1
219432,-100,4,2,1,65,0,0
222432,-100,4,2,1,60,0,0
227869,-100,4,2,1,70,0,0
230682,-100,4,2,1,75,0,0
231244,-100,4,2,1,75,0,0
243432,-100,4,2,1,60,0,0
245494,-100,4,2,1,60,0,0
252057,-100,4,2,1,20,0,0

[Colours]
Combo1 : 249,217,87
Combo2 : 251,146,51
Combo3 : 220,156,129
Combo4 : 253,94,94

[HitObjects]
83,82,2682,5,0,1:2:0:0:
83,82,2869,1,0,1:2:0:0:
84,202,3244,6,0,B|55:233|55:233|50:318,1,110,6|2,3:2|0:2,0:0:0:0:
39,359,3807,2,0,L|105:366,1,55,2|2,1:2|0:2,0:0:0:0:
157,376,4182,1,2,3:2:0:0:
157,376,4369,1,2,0:2:0:0:
245,293,4744,2,0,B|278:275|278:275|364:283,1,110,2|2,0:2|0:2,0:0:0:0:
400,325,5307,1,2,1:2:0:0:
400,325,5494,2,0,L|390:383,2,55,2|2|2,0:2|3:2|1:2,0:0:0:0:
496,251,6244,6,0,B|463:224|463:224|462:112,1,110,6|2,3:2|0:2,0:0:0:0:
482,98,6807,1,2,1:2:0:0:
482,98,6994,1,2,0:2:0:0:
377,37,7369,1,2,0:2:0:0:
377,37,7557,1,2,1:2:0:0:
258,62,7932,2,0,L|179:60,2,55,2|2|2,3:2|0:2|1:2,0:0:0:0:
302,103,8494,2,0,B|357:171|279:182|342:277,1,165,2|0,0:2|1:2,0:0:0:0:
358,313,9244,6,0,B|319:332|319:332|220:307,1,110,6|2,3:2|0:2,0:0:0:0:
197,296,9807,2,0,L|128:302,1,55,2|2,1:2|0:2,0:0:0:0:
93,333,10182,1,2,3:2:0:0:
93,333,10369,1,2,0:2:0:0:
64,215,10744,2,0,B|84:189|84:189|71:96,1,110,2|2,0:2|0:2,0:0:0:0:
30,69,11307,1,2,1:2:0:0:
30,69,11494,2,0,L|-48:77,2,55,2|2|2,0:2|3:2|0:2,0:0:0:0:
150,53,12244,6,0,B|183:74|183:74|276:67,1,110,6|2,3:2|0:2,0:0:0:0:
314,52,12807,1,2,1:2:0:0:
314,52,12994,1,2,0:2:0:0:
429,114,13369,1,2,0:2:0:0:
429,114,13557,1,2,1:2:0:0:
429,114,13744,2,0,P|446:43|417:-25,2,110,2|0|0,0:2|1:2|3:2,0:0:0:0:
457,231,14869,2,0,L|522:223,2,55,2|2|2,3:2|3:2|3:2,0:0:0:0:
411,271,15432,5,4,3:2:0:0:
300,320,15807,2,0,L|244:321,1,55,2|2,3:2|0:2,0:0:0:0:
193,353,16182,2,0,L|42:351,1,110,2|0,3:2|3:2,0:0:0:0:
34,324,16744,1,2,0:2:0:0:
34,324,16932,1,2,3:2:0:0:
87,215,17307,2,0,P|170:193|220:206,1,110,2|2,3:2|3:2,0:0:0:0:
286,272,18057,1,0,3:2:0:0:
389,334,18432,5,0,3:2:0:0:
494,274,18807,2,0,L|495:208,1,55,2|2,3:2|0:2,0:0:0:0:
487,159,19182,2,0,P|481:95|499:24,1,110,2|2,3:2|3:2,0:0:0:0:
368,41,19932,2,0,P|323:52|227:28,1,110,2|0,3:2|3:2,0:0:0:0:
140,27,20682,1,2,3:2:0:0:
59,117,21057,1,2,3:2:0:0:
118,222,21432,6,0,P|172:210|259:232,1,110,2|0,3:2|3:2,0:0:0:0:
280,244,21994,1,2,0:2:0:0:
280,244,22182,1,2,3:2:0:0:
383,181,22557,1,2,3:2:0:0:
484,247,22932,2,0,P|494:308|477:359,1,110,2|0,3:2|3:2,0:0:0:0:
363,318,23682,2,0,L|361:256,2,55,2|0|0,3:2|0:2|3:2,0:0:0:0:
247,353,24432,6,0,P|149:342|105:360,1,110,2|2,3:2|3:2,0:0:0:0:
80,358,24994,1,2,0:2:0:0:
80,358,25182,1,2,3:2:0:0:
21,252,25557,1,2,3:2:0:0:
21,252,25744,1,2,0:2:0:0:
21,252,25932,2,0,P|10:186|20:111,1,110,2|0,3:2|3:2,0:0:0:0:
116,81,26682,1,0,3:2:0:0:
116,81,26869,2,0,L|114:16,2,55,2|2|2,0:3|0:3|0:3,0:0:0:0:
137,137,27432,5,6,3:2:0:0:
141,257,27807,2,0,L|196:261,1,55,2|2,3:2|0:2,0:0:0:0:
239,218,28182,2,0,P|327:208|390:222,1,110,2|0,3:2|3:2,0:0:0:0:
365,273,28744,1,2,0:2:0:0:
365,273,28932,1,2,3:2:0:0:
480,237,29307,2,0,L|477:163,1,55,2|2,3:2|0:2,0:0:0:0:
496,124,29682,1,2,3:2:0:0:
459,8,30057,1,0,3:2:0:0:
348,56,30432,6,0,P|356:105|327:212,1,110,0|2,3:3|3:2,0:0:0:0:
317,216,30994,1,2,0:2:0:0:
317,216,31182,1,2,3:2:0:0:
214,152,31557,1,2,3:2:0:0:
106,206,31932,2,0,P|70:205|-9:226,1,110,2|0,3:2|3:2,0:0:0:0:
78,313,32682,2,0,P|130:328|185:329,1,110,2|2,3:2|3:2,0:0:0:0:
284,259,33432,6,0,L|276:124,1,110,2|0,3:2|3:2,0:0:0:0:
243,105,33994,1,2,0:2:0:0:
243,105,34182,2,0,L|166:116,2,55,2|2|2,3:2|0:2|3:2,0:0:0:0:
349,46,34932,2,0,P|429:47|487:72,1,110,2|0,3:2|3:2,0:0:0:0:
439,176,35682,1,2,3:2:0:0:
492,284,36057,1,2,3:2:0:0:
373,306,36432,6,0,P|302:293|221:302,1,110,2|0,3:2|3:2,0:0:0:0:
234,348,36994,1,2,0:2:0:0:
234,348,37182,2,0,L|95:353,1,110,2|2,3:2|3:2,0:0:0:0:
99,302,37744,1,2,0:2:0:0:
99,302,37932,1,8,0:3:0:0:
56,188,38307,2,0,L|-2:198,2,55,8|8|4,0:3|0:3|0:3,0:0:0:0:
126,92,39057,1,2,3:3:0:0:
126,92,39244,1,2,3:3:0:0:
126,92,39432,6,0,P|153:180|135:262,1,165,6|2,3:2|3:2,0:0:0:0:
148,310,40182,2,0,L|268:321,1,110,2|0,1:2|0:2,0:0:0:0:
282,201,40932,2,0,P|287:149|317:65,2,110,2|2|2,3:2|3:2|1:2,0:0:0:0:
392,150,42057,2,0,L|398:215,1,55,0|0,0:2|1:2,0:0:0:0:
394,265,42432,6,0,P|467:268|529:250,2,110,2|2|2,3:2|0:2|1:2,0:0:0:0:
292,201,43557,1,2,0:2:0:0:
215,294,43932,2,0,P|147:294|48:265,1,165,2|2,3:2|3:2,0:0:0:0:
22,216,44682,1,2,1:2:0:0:
85,113,45057,1,2,3:2:0:0:
85,113,45244,1,2,3:2:0:0:
85,113,45432,6,0,P|182:117|237:92,1,110,6|0,3:2|1:2,0:0:0:0:
246,82,45994,1,2,0:0:0:0:
246,82,46182,2,0,L|247:217,1,110,2|0,3:2|1:2,0:0:0:0:
276,250,46744,1,2,0:2:0:0:
276,250,46932,5,6,3:2:0:0:
353,157,47307,1,6,3:2:0:0:
452,88,47682,1,6,3:2:0:0:
494,201,48057,1,2,1:2:0:0:
443,311,48432,6,0,P|388:317|333:316,1,110,6|0,3:2|1:2,0:0:0:0:
286,277,48994,1,0,0:2:0:0:
286,277,49182,1,0,3:2:0:0:
179,337,49557,1,0,1:2:0:0:
179,337,49744,2,0,P|122:319|66:270,1,110,2|2,0:2|0:2,0:0:0:0:
47,246,50307,1,2,1:2:0:0:
47,246,50494,2,0,L|51:117,1,110,2|2,3:2|3:2,0:0:0:0:
156,77,51244,1,2,3:2:0:0:
156,77,51432,6,0,L|147:12,2,55,6|2|0,1:2|1:2|1:2,0:0:0:0:
183,130,51994,2,0,L|317:120,1,110,0|2,3:2|1:2,0:0:0:0:
355,109,52557,1,2,1:2:0:0:
355,109,52744,2,0,P|361:177|339:257,1,110,6|0,3:2|3:2,0:0:0:0:
339,276,53307,1,0,1:2:0:0:
339,276,53494,1,0,3:2:0:0:
238,343,53869,1,8,0:3:0:0:
238,343,54057,1,4,0:3:0:0:
140,271,54432,6,0,L|77:277,2,55,6|2|2,3:2|0:2|1:2,0:0:0:0:
179,225,54994,1,2,0:2:0:0:
179,225,55182,2,0,P|180:155|147:85,1,110,2|2,3:2|1:2,0:0:0:0:
139,63,55744,1,2,0:2:0:0:
139,63,55932,2,0,P|46:66|-11:47,2,110,2|2|2,3:2|1:2|3:2,0:0:0:0:
255,29,57057,1,2,1:2:0:0:
367,73,57432,6,0,P|359:143|380:224,1,110,2|0,3:2|1:2,0:0:0:0:
404,226,57994,1,2,0:2:0:0:
404,226,58182,2,0,L|396:342,1,110,2|0,3:2|1:2,0:0:0:0:
342,363,58744,1,2,0:2:0:0:
342,363,58932,2,0,P|272:365|206:339,1,110,2|0,3:2|1:2,0:0:0:0:
198,312,59494,1,0,0:2:0:0:
198,312,59682,1,0,3:0:0:0:
81,344,60057,1,2,1:2:0:0:
114,227,60432,6,0,P|172:187|239:201,1,110,6|2,3:2|1:2,0:0:0:0:
264,211,60994,1,2,0:2:0:0:
344,301,61369,2,0,L|340:364,2,55,2|2|2,0:2|1:2|0:2,0:0:0:0:
360,242,61932,2,0,P|428:240|467:216,1,110,2|2,3:2|1:2,0:0:0:0:
430,103,62682,1,2,3:2:0:0:
507,9,63057,1,2,1:2:0:0:
386,6,63432,6,0,P|323:20|259:11,1,110,2|0,3:2|1:2,0:0:0:0:
234,56,63994,1,2,0:2:0:0:
234,56,64182,2,0,L|225:194,1,110,2|0,3:2|1:2,0:0:0:0:
256,224,64744,1,2,0:2:0:0:
256,224,64932,2,0,L|339:223,2,55,6|0|0,3:2|1:2|1:2,0:0:0:0:
205,257,65494,1,8,0:3:0:0:
186,379,65869,1,4,0:3:0:0:
186,379,66057,1,4,0:3:0:0:
286,311,66432,6,0,L|401:324,1,110,6|2,3:2|1:2,0:0:0:0:
437,366,66994,1,2,0:2:0:0:
437,366,67182,1,2,3:2:0:0:
486,260,67557,1,2,1:2:0:0:
486,260,67744,1,2,0:2:0:0:
486,260,67932,2,0,P|482:207|504:121,1,110,2|2,3:2|1:2,0:0:0:0:
479,30,68682,2,0,P|420:37|336:24,1,110,2|2,3:2|1:2,0:0:0:0:
249,41,69432,6,0,P|256:102|244:195,1,110,2|0,3:2|1:2,0:0:0:0:
292,196,69994,1,2,0:2:0:0:
292,196,70182,2,0,L|295:331,1,110,2|0,3:2|1:2,0:0:0:0:
252,349,70744,1,2,0:2:0:0:
252,349,70932,2,0,P|189:358|116:344,1,110,6|0,3:2|1:2,0:0:0:0:
99,310,71494,1,0,0:2:0:0:
38,205,71869,2,0,L|-26:211,2,55,2|2|2,0:2|1:2|3:2,0:0:0:0:
90,175,72432,5,6,3:2:0:0:
45,62,72807,1,2,1:2:0:0:
45,62,72994,2,0,P|115:43|196:59,1,110,2|2,0:2|0:2,0:0:0:0:
201,80,73557,1,2,1:2:0:0:
201,80,73744,1,2,0:2:0:0:
265,182,74119,2,0,P|270:274|262:324,1,110,2|0,0:2|0:2,0:0:0:0:
245,347,74682,1,2,3:2:0:0:
372,334,75057,1,2,1:2:0:0:
372,334,75244,1,2,0:2:0:0:
372,334,75432,6,0,P|367:242|375:192,1,110,4|4,3:2|1:2,0:0:0:0:
408,178,75994,1,0,3:2:0:0:
451,65,76369,1,0,3:2:0:0:
339,40,76744,1,2,3:2:0:0:
339,40,76932,2,0,P|241:51|201:35,1,110,6|2,3:2|1:2,0:0:0:0:
172,35,77494,1,2,3:2:0:0:
62,86,77869,1,8,0:3:0:0:
155,162,78244,1,2,3:2:0:0:
155,162,78432,6,0,P|154:225|179:292,1,110,6|2,3:2|0:2,0:0:0:0:
224,289,78994,2,0,L|339:286,1,110,2|2,3:2|3:2,0:0:0:0:
309,167,79744,2,0,P|305:88|316:35,2,110,2|2|2,3:2|3:2|3:2,0:0:0:0:
363,192,80682,1,2,1:2:0:0:
363,192,80869,1,2,1:2:0:0:
451,108,81244,5,6,3:2:0:0:
171,223,86869,6,0,L|99:218,2,55,2|2|2,3:2|3:2|3:2,0:0:0:0:
200,275,87432,6,0,P|280:281|342:269,1,110,4|2,3:2|1:2,0:0:0:0:
357,241,87994,1,2,0:2:0:0:
357,241,88182,1,2,3:2:0:0:
456,309,88557,1,0,1:2:0:0:
456,309,88744,1,2,0:2:0:0:
456,309,88932,2,0,L|458:370,2,55,2|2|2,3:2|0:2|1:2,0:0:0:0:
459,187,89682,2,0,P|448:124|471:59,1,110,2|0,3:2|1:0,0:0:0:0:
480,23,90244,1,2,0:2:0:0:
480,23,90432,5,0,3:2:0:0:
365,61,90807,1,2,1:2:0:0:
365,61,90994,1,2,0:2:0:0:
365,61,91182,2,0,P|309:77|222:54,1,110,2|2,3:2|1:2,0:0:0:0:
137,62,91932,2,0,P|163:130|147:196,1,110,2|0,3:2|1:2,0:0:0:0:
95,268,92682,1,2,3:2:0:0:
204,318,93057,1,2,1:2:0:0:
316,273,93432,6,0,P|315:194|325:142,1,110,2|0,3:2|1:2,0:0:0:0:
355,114,93994,1,2,0:2:0:0:
355,114,94182,2,0,L|429:111,2,55,2|2|2,3:2|0:2|1:2,0:0:0:0:
243,66,94932,2,0,P|160:69|93:38,1,110,2|0,3:2|1:2,0:0:0:0:
77,41,95494,1,2,0:2:0:0:
77,41,95682,1,2,3:2:0:0:
20,148,96057,1,2,1:2:0:0:
57,263,96432,6,0,P|141:277|211:257,1,110,2|0,3:2|1:2,0:0:0:0:
219,244,96994,1,2,0:2:0:0:
219,244,97182,2,0,L|357:240,1,110,2|2,3:2|1:2,0:0:0:0:
381,270,97744,1,2,0:2:0:0:
381,270,97932,1,8,0:3:0:0:
465,183,98307,1,8,0:3:0:0:
422,75,98682,1,4,0:3:0:0:
422,75,98869,2,0,L|417:12,2,55,6|2|2,0:3|3:3|3:3,0:0:0:0:
370,106,99432,6,0,B|299:157|292:36|198:131,1,165,6|2,3:2|3:2,0:0:0:0:
163,138,100182,2,0,L|164:260,1,110,2|0,1:2|0:2,0:0:0:0:
212,358,100932,2,0,P|126:362|69:333,2,110,2|2|6,3:2|3:2|1:2,0:0:0:0:
333,358,102057,2,0,L|324:278,1,55,0|0,0:2|1:2,0:0:0:0:
370,261,102432,6,0,P|357:167|362:113,2,110,2|2|2,3:2|0:2|1:2,0:0:0:0:
447,354,103557,1,2,0:2:0:0:
482,238,103932,2,0,P|498:153|480:74,1,165,2|2,3:2|3:2,0:0:0:0:
433,39,104682,1,2,1:2:0:0:
316,72,105057,1,2,3:2:0:0:
316,72,105244,1,2,3:2:0:0:
316,72,105432,6,0,P|247:82|172:60,1,110,6|0,3:2|1:2,0:0:0:0:
156,43,105994,1,2,0:0:0:0:
156,43,106182,2,0,L|33:53,1,110,2|0,3:2|1:2,0:0:0:0:
8,99,106744,1,2,0:2:0:0:
8,99,106932,5,6,3:2:0:0:
74,200,107307,1,6,3:2:0:0:
110,315,107682,1,6,3:2:0:0:
208,244,108057,1,2,1:2:0:0:
172,129,108432,6,0,P|242:130|316:162,1,110,6|0,3:2|1:2,0:0:0:0:
338,125,108994,1,0,0:2:0:0:
338,125,109182,2,0,L|330:49,2,55,0|0|0,3:2|0:2|1:2,0:0:0:0:
389,157,109744,2,0,P|401:215|385:299,1,110,2|2,0:2|0:2,0:0:0:0:
363,316,110307,1,2,1:2:0:0:
363,316,110494,1,2,3:2:0:0:
269,248,110869,1,2,1:2:0:0:
269,248,111057,1,0,1:2:0:0:
156,293,111432,6,0,L|156:367,2,55,6|0|2,1:2|1:2|1:2,0:0:0:0:
100,269,111994,2,0,P|97:219|106:151,1,110,2|2,3:2|1:2,0:0:0:0:
122,104,112557,1,2,1:2:0:0:
122,104,112744,2,0,L|246:102,1,110,6|0,3:2|3:2,0:0:0:0:
280,64,113307,1,0,1:2:0:0:
280,64,113494,1,0,3:2:0:0:
400,77,113869,1,8,0:3:0:0:
400,77,114057,1,4,0:3:0:0:
458,182,114432,6,0,L|531:173,2,55,6|2|2,3:2|0:2|1:2,0:0:0:0:
410,218,114994,1,2,0:2:0:0:
410,218,115182,2,0,L|268:228,1,110,2|2,3:2|1:2,0:0:0:0:
248,204,115744,1,2,0:2:0:0:
248,204,115932,2,0,P|248:146|268:58,2,110,2|2|2,3:2|1:2|3:2,0:0:0:0:
156,282,117057,1,2,1:2:0:0:
81,186,117432,6,0,P|83:108|73:50,1,110,2|0,3:2|1:2,0:0:0:0:
52,22,117994,1,2,0:2:0:0:
52,22,118182,2,0,L|176:24,1,110,2|0,3:2|1:2,0:0:0:0:
225,39,118744,1,2,0:2:0:0:
225,39,118932,2,0,P|227:123|250:192,1,110,2|0,3:2|1:2,0:0:0:0:
273,192,119494,1,0,0:2:0:0:
273,192,119682,1,0,3:0:0:0:
178,267,120057,1,2,1:2:0:0:
272,342,120432,6,0,P|337:335|388:345,1,110,6|2,3:2|1:2,0:0:0:0:
436,365,120994,1,2,0:2:0:0:
456,245,121369,2,0,L|515:245,2,55,2|2|2,0:2|1:2|0:2,0:0:0:0:
415,200,121932,2,0,L|297:192,1,110,2|2,3:2|1:2,0:0:0:0:
192,235,122682,1,2,3:2:0:0:
176,114,123057,1,2,1:2:0:0:
79,189,123432,6,0,P|68:261|96:317,1,110,2|0,3:2|1:2,0:0:0:0:
110,346,123994,1,2,0:2:0:0:
110,346,124182,2,0,L|245:348,1,110,2|0,3:2|1:2,0:0:0:0:
260,303,124744,1,2,0:2:0:0:
260,303,124932,2,0,L|340:309,2,55,6|0|0,3:2|1:2|1:2,0:0:0:0:
226,252,125494,1,8,0:3:0:0:
193,140,125869,1,4,0:3:0:0:
193,140,126057,1,4,0:3:0:0:
269,46,126432,6,0,P|357:38|425:58,1,110,6|2,3:2|1:2,0:0:0:0:
432,66,126994,1,2,0:2:0:0:
432,66,127182,1,2,3:2:0:0:
419,186,127557,1,2,1:2:0:0:
419,186,127744,1,2,0:2:0:0:
419,186,127932,2,0,P|432:269|418:330,2,110,2|2|2,3:2|1:2|3:2,0:0:0:0:
303,149,129057,1,2,1:2:0:0:
199,212,129432,6,0,L|60:210,1,110,2|0,3:2|1:2,0:0:0:0:
40,174,129994,1,2,0:2:0:0:
40,174,130182,2,0,P|34:104|65:56,1,110,2|0,3:2|1:2,0:0:0:0:
105,44,130744,1,2,0:2:0:0:
105,44,130932,2,0,P|189:61|234:46,1,110,6|0,3:2|1:2,0:0:0:0:
268,36,131494,1,0,0:2:0:0:
358,116,131869,2,0,L|435:117,2,55,0|2|2,0:2|1:2|0:2,0:0:0:0:
308,150,132432,5,6,3:2:0:0:
192,186,132807,1,2,1:2:0:0:
192,186,132994,2,0,P|133:184|61:198,1,110,2|2,0:2|0:2,0:0:0:0:
30,218,133557,1,2,1:2:0:0:
30,218,133744,1,2,0:2:0:0:
95,320,134119,2,0,P|181:326|232:305,1,110,2|0,0:2|0:2,0:0:0:0:
257,292,134682,1,2,3:2:0:0:
379,338,135057,1,2,1:2:0:0:
379,338,135244,1,2,0:2:0:0:
379,338,135432,6,0,L|510:326,1,110,4|4,3:2|1:2,0:0:0:0:
509,271,135994,1,0,3:2:0:0:
438,172,136369,1,0,3:2:0:0:
326,219,136744,1,2,3:2:0:0:
326,219,136932,2,0,P|234:212|202:189,1,110,2|2,3:2|1:2,0:0:0:0:
167,174,137494,1,2,3:2:0:0:
89,81,137869,1,8,0:3:0:0:
208,60,138244,1,2,3:2:0:0:
208,60,138432,6,0,P|270:61|317:87,1,110,6|2,3:2|0:2,0:0:0:0:
343,133,138994,2,0,L|345:252,1,110,2|2,3:2|3:2,0:0:0:0:
408,346,139744,2,0,P|323:351|253:333,1,110,2|2,3:2|3:2,0:0:0:0:
208,266,140494,1,2,3:2:0:0:
208,266,140682,2,0,L|208:201,2,55,4|0|0,1:2|3:2|1:2,0:0:0:0:
110,338,141432,5,4,3:2:0:0:
38,240,141807,1,2,3:2:0:0:
38,240,141994,1,2,0:2:0:0:
38,240,142182,2,0,P|49:165|37:117,1,110,2|0,3:2|3:2,0:0:0:0:
15,78,142744,1,2,0:2:0:0:
15,78,142932,1,2,3:2:0:0:
130,35,143307,1,2,3:2:0:0:
130,35,143494,1,2,0:2:0:0:
233,97,143869,2,0,L|309:93,2,55,0|0|0,1:2|3:2|3:2,0:0:0:0:
192,142,144432,5,0,3:2:0:0:
154,256,144807,1,2,3:2:0:0:
221,356,145182,2,0,P|285:359|374:333,1,110,2|0,3:2|3:2,0:0:0:0:
439,299,145932,2,0,P|446:255|438:160,1,110,2|2,3:2|3:2,0:0:0:0:
418,135,146494,1,2,0:2:0:0:
468,25,146869,2,0,L|530:24,2,55,2|2|2,1:2|3:2|1:2,0:0:0:0:
407,21,147432,5,6,3:2:0:0:
301,80,147807,1,2,3:2:0:0:
301,80,147994,1,2,0:2:0:0:
301,80,148182,2,0,P|244:87|176:66,1,110,2|0,3:2|3:2,0:0:0:0:
151,39,148744,1,2,0:2:0:0:
151,39,148932,2,0,L|34:45,1,110,2|2,3:2|3:2,0:0:0:0:
5,93,149494,1,2,0:2:0:0:
79,188,149869,2,0,L|146:181,2,55,2|2|2,1:2|3:2|1:2,0:0:0:0:
44,237,150432,5,0,3:2:0:0:
123,328,150807,1,0,3:2:0:0:
243,336,151182,2,0,L|395:348,1,110,2|2,3:2|3:2,0:0:0:0:
412,349,151744,2,0,P|420:301|407:217,1,110,2|2,0:2|0:2,0:0:0:0:
387,185,152307,1,0,1:2:0:0:
441,76,152682,2,0,L|506:79,2,55,0|0|0,0:0|3:2|1:2,0:0:0:0:
388,46,153244,1,0,1:2:0:0:
388,46,153432,5,4,3:2:0:0:
275,90,153807,1,2,1:2:0:0:
275,90,153994,1,2,0:2:0:0:
275,90,154182,2,0,P|275:192|301:242,1,110,2|0,3:2|1:2,0:0:0:0:
299,259,154744,1,2,0:2:0:0:
299,259,154932,1,2,3:2:0:0:
203,332,155307,1,2,1:2:0:0:
203,332,155494,1,2,3:2:0:0:
87,295,155869,2,0,L|97:231,2,55,2|2|2,3:2|1:2|0:2,0:0:0:0:
47,341,156432,5,4,3:2:0:0:
12,225,156807,1,2,1:2:0:0:
57,113,157182,2,0,L|181:106,1,110,6|2,3:2|1:2,0:0:0:0:
282,68,157932,2,0,L|278:5,2,55,6|2|2,3:2|0:2|1:2,0:0:0:0:
329,104,158494,1,2,0:2:0:0:
449,109,158869,2,0,L|504:105,2,55,0|0|0,1:0|1:0|1:0,0:0:0:0:
427,165,159432,6,0,P|424:228|410:294,1,110,4|0,3:2|3:2,0:0:0:0:
307,325,160182,1,0,3:2:0:0:
307,325,160369,2,0,L|308:259,2,55,2|2|2,3:2|3:2|0:2,0:0:0:0:
252,353,160932,2,0,P|193:365|109:338,1,110,0|0,3:2|3:2,0:0:0:0:
26,330,161682,1,0,3:2:0:0:
79,225,162057,1,0,3:2:0:0:
79,225,162244,1,2,3:2:0:0:
79,225,162432,6,0,B|23:210|23:210|15:173,2,82.5,6|6|2,0:3|0:3|3:3,2:2:0:0:
130,192,163182,2,0,B|179:188|179:188|205:214,2,82.5,14|14|2,0:3|0:3|3:3,2:2:0:0:
102,137,163932,2,0,P|96:75|126:27,1,110,2|2,3:2|3:2,2:2:0:0:
178,34,164494,1,0,1:2:0:0:
178,34,164682,2,0,L|304:42,1,110,2|2,1:2|1:2,2:2:0:0:
409,40,165432,6,0,P|412:116|397:192,1,110,6|0,3:2|1:2,0:0:0:0:
449,262,166182,2,0,L|515:254,2,55,2|2|2,3:2|0:2|1:2,0:0:0:0:
405,304,166744,2,0,P|347:318|284:316,1,110,2|2,0:2|0:2,0:0:0:0:
179,288,167494,1,2,0:2:0:0:
179,288,167682,1,2,3:2:0:0:
65,320,168057,1,0,1:2:0:0:
65,320,168244,1,2,0:2:0:0:
65,320,168432,6,0,L|47:380,2,55,2|2|2,3:2|0:2|1:2,0:0:0:0:
57,260,168994,2,0,P|53:197|85:135,1,110,2|2,0:2|0:2,0:0:0:0:
86,96,169557,1,2,1:2:0:0:
86,96,169744,1,2,0:2:0:0:
194,43,170119,1,2,0:2:0:0:
194,43,170307,1,2,1:2:0:0:
194,43,170494,1,2,0:2:0:0:
296,107,170869,2,0,L|302:184,2,55,2|2|2,1:2|1:2|3:2,0:0:0:0:
346,73,171432,6,0,P|393:61|467:85,1,110,6|0,3:2|1:2,0:0:0:0:
500,111,171994,1,2,3:2:0:0:
500,111,172182,2,0,B|490:168|490:168|518:202|518:202|499:266,1,165,2|2,3:2|0:2,0:0:0:0:
468,314,172932,1,4,3:2:0:0:
352,349,173307,1,4,3:2:0:0:
247,291,173682,2,0,P|191:291|113:281,1,110,6|2,3:2|3:2,0:0:0:0:
79,268,174244,1,2,1:2:0:0:
79,268,174432,5,6,3:2:0:0:
21,161,174807,2,0,B|10:124|10:124|29:44,1,110,2|2,1:2|3:2,0:0:0:0:
84,32,175369,1,2,0:2:0:0:
84,32,175556,1,2,1:2:0:0:
173,114,175932,2,0,L|163:171,2,55,4|2|2,3:2|3:2|3:2,0:0:0:0:
223,80,176494,1,8,1:3:0:0:
223,80,176682,2,0,L|301:82,1,55,8|4,0:3|0:3,0:0:0:0:
333,106,177057,2,0,L|392:107,1,55,0|0,3:2|3:2,0:0:0:0:
436,142,177432,6,0,P|441:215|422:311,1,165,4|0,3:2|3:2,0:0:0:0:
383,350,178182,1,0,1:2:0:0:
331,251,178557,1,0,0:2:0:0:
331,251,178744,1,0,3:2:0:0:
331,251,178932,2,0,L|334:193,2,55,0|0|0,0:0|3:2|0:0,0:0:0:0:
241,331,179682,2,0,P|182:329|121:352,1,110,0|0,1:2|3:2,0:0:0:0:
13,356,180432,5,2,0:2:0:0:
84,122,189432,6,0,P|161:114|235:125,1,110,4|0,3:2|0:0,0:0:0:0:
303,65,190182,2,0,P|304:146|281:206,1,110,6|0,1:2|0:0,0:0:0:0:
249,211,190744,1,0,3:2:0:0:
249,211,190932,2,0,L|246:327,1,110,6|0,3:2|0:0,0:0:0:0:
193,350,191494,1,0,3:2:0:0:
193,350,191682,1,2,1:2:0:0:
96,277,192057,1,4,3:2:0:0:
256,192,192432,12,12,194682,0:3:0:0:
80,43,195432,6,0,L|-5:40,2,55,6|2|2,3:2|0:2|1:2,0:0:0:0:
118,90,195994,1,2,0:2:0:0:
118,90,196182,2,0,P|128:162|109:249,1,110,2|2,3:2|1:2,0:0:0:0:
76,235,196744,1,2,0:2:0:0:
76,235,196932,2,0,L|76:350,1,110,2|2,3:2|1:2,0:0:0:0:
190,304,197682,1,2,3:2:0:0:
300,353,198057,1,2,1:2:0:0:
285,232,198432,6,0,P|275:165|282:116,1,110,2|0,3:2|1:2,0:0:0:0:
317,76,198994,1,2,0:2:0:0:
317,76,199182,2,0,L|452:70,1,110,2|0,3:2|1:2,0:0:0:0:
476,106,199744,1,2,0:2:0:0:
476,106,199932,2,0,P|485:189|473:236,1,110,2|0,3:2|1:2,0:0:0:0:
471,274,200494,1,0,0:2:0:0:
471,274,200682,1,0,3:0:0:0:
374,346,201057,1,2,1:2:0:0:
259,307,201432,6,0,P|189:309|117:325,1,110,6|2,3:2|1:2,0:0:0:0:
102,353,201994,1,2,0:2:0:0:
59,239,202369,2,0,L|-7:237,2,55,2|2|2,0:2|1:2|0:2,0:0:0:0:
97,192,202932,2,0,P|100:139|70:72,1,110,2|2,3:2|1:2,0:0:0:0:
187,29,203682,1,2,3:2:0:0:
298,76,204057,1,2,1:2:0:0:
298,76,204244,1,0,0:0:0:0:
298,76,204432,6,0,L|416:74,1,110,2|0,3:2|1:2,0:0:0:0:
457,109,204994,1,2,0:2:0:0:
457,109,205182,2,0,P|453:155|472:240,1,110,2|0,3:2|1:2,0:0:0:0:
422,262,205744,1,2,0:2:0:0:
422,262,205932,2,0,L|423:342,2,55,6|0|0,1:2|1:2|1:2,0:0:0:0:
368,232,206494,2,0,P|272:226|232:240,1,110,8|4,0:3|0:3,0:0:0:0:
214,269,207057,1,4,0:3:0:0:
108,328,207432,6,0,P|75:242|85:202,1,110,6|2,3:2|1:2,0:0:0:0:
93,168,207994,1,2,0:2:0:0:
93,168,208182,1,2,3:2:0:0:
33,62,208557,1,2,1:2:0:0:
33,62,208744,1,2,0:2:0:0:
33,62,208932,2,0,P|126:50|178:69,1,110,2|2,3:2|1:2,0:0:0:0:
250,104,209682,1,2,3:2:0:0:
363,61,210057,1,2,1:2:0:0:
332,178,210432,6,0,P|328:240|341:302,1,110,2|0,3:2|1:2,0:0:0:0:
358,342,210994,1,2,0:2:0:0:
358,342,211182,2,0,L|214:345,1,110,2|0,3:2|1:2,0:0:0:0:
191,323,211744,1,2,0:2:0:0:
191,323,211932,2,0,P|182:265|206:182,1,110,6|0,3:2|1:2,0:0:0:0:
201,155,212494,1,0,0:2:0:0:
110,75,212869,2,0,L|122:18,2,55,2|2|2,0:2|1:2|3:2,0:0:0:0:
75,124,213432,5,6,3:2:0:0:
24,233,213807,1,2,1:2:0:0:
24,233,213994,2,0,P|110:270|160:259,1,110,2|2,0:2|0:2,0:0:0:0:
181,250,214557,1,2,1:2:0:0:
181,250,214744,1,2,0:2:0:0:
234,358,215119,2,0,P|292:345|373:356,1,110,2|0,0:2|0:2,0:0:0:0:
401,361,215682,1,2,3:2:0:0:
472,263,216057,1,2,1:2:0:0:
472,263,216244,1,2,0:2:0:0:
472,263,216432,6,0,P|468:174|483:128,1,110,4|4,3:2|1:2,0:0:0:0:
503,102,216994,1,0,3:2:0:0:
391,54,217369,1,0,3:2:0:0:
305,139,217744,1,2,3:2:0:0:
305,139,217932,2,0,P|213:138|176:123,1,110,6|2,3:2|1:2,0:0:0:0:
149,95,218494,1,2,3:2:0:0:
149,95,218682,2,0,L|158:29,2,55,0|10|4,3:2|0:3|0:3,0:0:0:0:
102,133,219244,1,2,3:2:0:0:
102,133,219432,6,0,P|91:190|114:295,1,165,6|2,3:2|3:2,0:0:0:0:
151,340,220182,1,0,1:2:0:0:
266,303,220557,1,0,0:2:0:0:
266,303,220744,2,0,P|363:300|420:290,2,110,0|0|0,3:2|3:2|3:2,0:0:0:0:
245,245,221682,1,0,1:2:0:0:
213,128,222057,1,2,3:2:0:0:
313,61,222432,5,6,3:2:0:0:
422,62,227869,6,0,L|492:53,2,55,2|2|2,1:2|1:2|1:2,0:0:0:0:
376,102,228432,2,0,P|376:185|389:238,1,110,6|0,3:2|3:2,0:0:0:0:
413,261,228994,1,2,0:2:0:0:
323,342,229369,1,2,0:2:0:0:
241,252,229744,2,0,P|179:252|122:268,1,110,2|2,0:2|0:2,0:0:0:0:
24,318,230494,2,0,L|22:376,2,55,2|0|0,3:2|1:2|1:2,0:0:0:0:
70,205,231244,6,0,B|82:174|82:174|76:79,1,110,6|2,3:2|0:2,0:0:0:0:
38,50,231807,2,0,L|92:45,1,55,2|2,1:2|0:2,0:0:0:0:
156,33,232182,1,2,3:2:0:0:
156,33,232369,1,2,0:2:0:0:
256,99,232744,2,0,B|275:134|275:134|277:213,1,110,2|2,0:2|3:2,0:0:0:0:
235,248,233307,1,2,1:2:0:0:
235,248,233494,2,0,L|157:248,2,55,2|2|2,0:2|3:2|0:2,0:0:0:0:
313,339,234244,6,0,B|348:326|348:326|442:336,1,110,6|2,3:2|3:2,0:0:0:0:
479,347,234807,1,2,1:2:0:0:
479,347,234994,1,2,0:2:0:0:
443,231,235369,1,2,0:2:0:0:
443,231,235557,1,2,1:2:0:0:
443,231,235744,2,0,B|428:190|428:190|433:100,1,110,2|2,0:2|0:2,0:0:0:0:
450,66,236307,1,2,1:2:0:0:
450,66,236494,1,2,0:2:0:0:
331,44,236869,1,2,3:2:0:0:
271,149,237244,6,0,B|256:175|256:175|266:262,1,110,6|2,3:2|0:2,0:0:0:0:
301,303,237807,1,6,1:2:0:0:
301,303,237994,2,0,L|380:296,2,55,2|2|2,0:2|3:2|0:2,0:0:0:0:
193,359,238744,2,0,B|159:364|159:364|79:337,1,110,6|2,3:2|0:2,0:0:0:0:
33,311,239307,1,6,1:2:0:0:
33,311,239494,2,0,L|-32:318,2,55,2|2|2,0:2|3:2|0:2,0:0:0:0:
111,218,240244,6,0,B|128:178|128:178|124:79,1,110,6|2,3:2|0:2,0:0:0:0:
81,68,240807,1,2,1:2:0:0:
81,68,240994,1,2,3:2:0:0:
199,45,241369,1,2,1:2:0:0:
199,45,241557,1,2,3:2:0:0:
199,45,241744,1,2,3:2:0:0:
256,192,241932,12,6,243432,3:2:0:0:
260,190,245494,6,0,L|258:126,2,55,0|6|6,3:2|1:2|1:2,0:0:0:0:
259,311,246244,1,6,3:2:0:0:
256,192,246432,12,0,252057,0:2:0:0:
