osu file format v14

[General]
AudioFilename: audio.mp3
AudioLeadIn: 0
PreviewTime: 180338
Countdown: 0
SampleSet: Soft
StackLeniency: 0.7
Mode: 0
LetterboxInBreaks: 0
WidescreenStoryboard: 1

[Editor]
Bookmarks: 3244,15432,27432,39432,54432,81244,87432,99432,114432,141432,153432,165432,180432,192432,195432,222432,231244,243432,246244,252057
DistanceSpacing: 1.2
BeatDivisor: 4
GridSize: 16
TimelineZoom: 0.9000001

[Metadata]
Title:Othello
TitleUnicode:オセロ
Artist:Iino Miko (CV: Tomita Miyu)
ArtistUnicode:伊井野ミコ (CV:富田美憂)
Creator:Amateurre
Version:Hinsvar's Easy
Source:かぐや様は告らせたい?~天才たちの恋愛頭脳戦~
Tags:bongo hinsvar xidorn anime japanese kaguya sama wa kokurasetai tensai tachi no renai ren'ai zunousen love is war war? character song 03 キャラクターソング03 wants to be confessed to?: the geniuses' of and brains season 2 pop
BeatmapID:2493388
BeatmapSetID:1196197

[Difficulty]
HPDrainRate:3
CircleSize:3
OverallDifficulty:3
ApproachRate:4
SliderMultiplier:0.96
SliderTickRate:1

[Events]
//Background and Video events
0,0,"Miko Iino.jpg",0,0
//Break Periods
2,81444,86112
2,180632,188112
2,222632,226549
//Storyboard Layer 0 (Background)
//Storyboard Layer 1 (Fail)
//Storyboard Layer 2 (Pass)
//Storyboard Layer 3 (Foreground)
//Storyboard Layer 4 (Overlay)
//Storyboard Sound Samples

[TimingPoints]
432,375,4,2,1,50,1,0
2682,-100,4,2,1,70,0,0
3244,-100,4,2,1,70,0,0
15432,-100,4,2,1,65,0,0
27432,-100,4,2,1,65,0,0
39432,-100,4,2,1,60,0,0
45432,-100,4,2,1,65,0,0
54432,-100,4,2,1,75,0,1
78432,-100,4,2,1,60,0,0
80682,-100,4,2,1,70,0,0
81244,-100,4,2,1,70,0,0
87432,-100,4,2,1,65,0,0
99432,-100,4,2,1,60,0,0
105432,-100,4,2,1,65,0,0
114432,-100,4,2,1,75,0,1
138432,-100,4,2,1,60,0,0
153432,-100,4,2,1,65,0,0
162432,-100,4,3,2,65,0,0
163932,-100,4,3,1,65,0,0
165432,-100,4,2,1,70,0,0
177432,-100,4,2,1,70,0,0
180432,-100,4,2,1,50,0,0
186432,-100,4,2,1,60,0,0
189432,-100,4,2,1,65,0,0
192432,-100,4,2,1,70,0,0
195432,-100,4,2,1,75,0,1
219432,-100,4,2,1,65,0,0
222432,-100,4,2,1,60,0,0
227869,-100,4,2,1,70,0,0
230682,-100,4,2,1,75,0,0
231244,-100,4,2,1,75,0,0
243432,-100,4,2,1,60,0,0
245494,-100,4,2,1,60,0,0
252057,-100,4,2,1,20,0,0

[Colours]
Combo1 : 249,217,87
Combo2 : 251,146,51
Combo3 : 220,156,129
Combo4 : 253,94,94

[HitObjects]
129,31,3244,6,0,B|152:57|148:86|148:86|110:103|84:164,1,144,6|2,3:2|1:2,0:0:0:0:
91,242,4182,2,0,P|121:253|134:273,1,48,2|2,3:2|0:2,0:0:0:0:
185,343,4744,2,0,B|231:321|240:301|240:301|268:296|335:302,1,144,2|2,0:2|1:2,0:0:0:0:
402,337,5682,2,0,P|430:331|448:311,1,48,2|2,3:2|1:2,0:0:0:0:
486,232,6244,6,0,P|487:185|461:134,1,96,6|2,3:2|0:2,0:0:0:0:
388,85,6994,1,2,0:2:0:0:
320,152,7369,1,2,0:2:0:0:
233,110,7744,2,0,B|191:116|159:145|159:145|132:144|106:110,1,144,2|2,0:2|1:2,0:0:0:0:
45,41,8682,1,0,3:2:0:0:
23,183,9244,6,0,B|34:248|34:248|47:261|47:261|58:321,1,144,6|2,3:2|1:2,0:0:0:0:
147,353,10182,2,0,P|172:341|210:344,1,48,2|2,3:2|0:2,0:0:0:0:
247,261,10744,2,0,P|284:288|386:277,1,144,2|2,0:2|1:2,0:0:0:0:
406,190,11682,2,0,P|390:175|362:165,1,48,2|2,3:2|0:2,0:0:0:0:
279,122,12244,6,0,B|238:148|238:148|195:129,1,96,6|2,3:2|0:2,0:0:0:0:
141,208,12994,1,2,0:2:0:0:
62,152,13369,2,0,P|43:103|57:57,1,96,2|2,0:2|0:2,0:0:0:0:
137,15,14119,2,0,B|182:3|209:25|201:33|226:64|279:49,1,144,0|0,1:2|1:2,0:0:0:0:
457,12,15432,6,0,P|503:91|471:186,1,192,4|2,3:2|3:2,0:0:0:0:
421,261,16557,1,0,3:2:0:0:
335,218,16932,2,0,P|295:202|239:207,2,96,2|2|2,3:2|3:2|3:2,0:0:0:0:
500,119,18432,5,0,3:2:0:0:
405,100,18807,2,0,P|389:62|392:5,2,96,2|2|2,3:2|3:2|3:2,0:0:0:0:
339,170,19932,2,0,P|248:130|135:136,1,192,2|2,3:2|3:2,0:0:0:0:
76,182,21057,1,2,3:2:0:0:
146,247,21432,6,0,P|172:292|174:339,1,96,2|0,3:2|3:2,0:0:0:0:
265,365,22182,1,2,3:2:0:0:
332,296,22557,1,2,3:2:0:0:
261,230,22932,2,0,B|233:187|223:143|223:143|261:105|254:44,1,192,2|2,3:2|3:2,0:0:0:0:
65,11,24432,6,0,P|33:47|15:96,1,96,2|2,3:2|3:2,0:0:0:0:
59,176,25182,2,0,P|61:224|83:271,1,96,2|2,3:2|3:2,0:0:0:0:
152,331,25932,1,2,3:2:0:0:
224,267,26307,1,0,3:2:0:0:
313,302,26682,1,0,3:2:0:0:
454,172,27432,5,6,3:2:0:0:
375,117,27807,2,0,P|350:80|349:19,2,96,2|2|0,3:2|3:2|3:2,0:0:0:0:
311,188,28932,2,0,B|269:167|269:167|216:177,1,96,2|2,3:2|3:2,0:0:0:0:
139,227,29682,1,2,3:2:0:0:
224,373,30432,1,0,3:3:0:0:
274,291,30807,2,0,P|320:294|371:317,1,96,2|2,3:2|3:2,0:0:0:0:
450,357,31557,1,2,3:2:0:0:
485,267,31932,2,0,P|452:183|453:74,1,192,2|2,3:2|3:2,0:0:0:0:
375,23,33057,1,2,3:2:0:0:
287,61,33432,6,0,P|237:57|192:26,2,96,2|0|2,3:2|3:2|3:2,0:0:0:0:
331,145,34557,1,2,3:2:0:0:
289,231,34932,2,0,B|236:252|192:250|192:250|227:278|246:325,1,192,2|2,3:2|3:2,0:0:0:0:
156,359,36057,1,2,3:2:0:0:
65,323,36432,6,0,P|41:235|49:130,1,192,2|2,3:2|3:2,0:0:0:0:
117,67,37557,1,2,3:2:0:0:
209,40,37932,2,0,P|232:74|235:143,1,96,8|8,0:3|0:3,0:0:0:0:
185,207,38682,1,4,0:3:0:0:
246,281,39057,1,2,3:3:0:0:
333,240,39432,5,6,3:2:0:0:
251,66,40182,2,0,B|213:38|213:38|154:53,1,96,2|0,1:2|0:2,0:0:0:0:
95,115,40932,2,0,P|115:160|119:211,1,96,2|2,3:2|3:2,0:0:0:0:
72,290,41682,1,2,1:2:0:0:
279,190,42432,6,0,P|331:190|377:207,1,96,2|2,3:2|0:2,0:0:0:0:
393,297,43182,2,0,B|379:308|348:309|348:309|333:331|301:338,1,96,2|2,1:2|0:2,0:0:0:0:
223,292,43932,1,2,3:2:0:0:
135,120,44682,1,2,1:2:0:0:
199,48,45057,1,2,3:2:0:0:
287,84,45432,6,0,P|325:51|346:0,2,96,6|0|2,3:2|1:2|3:2,0:0:0:0:
342,162,46557,1,0,1:2:0:0:
290,243,46932,2,0,P|242:236|191:265,1,96,6|6,3:2|3:2,0:0:0:0:
125,315,47682,2,0,B|72:295|72:295|42:257,1,96,6|2,3:2|1:2,0:0:0:0:
24,172,48432,6,0,P|108:145|176:55,1,192,6|0,3:2|3:2,0:0:0:0:
256,21,49557,1,0,1:2:0:0:
337,71,49932,2,0,P|369:135|381:219,2,144,0|2|0,3:2|3:2|1:2,0:0:0:0:
254,121,51432,6,0,B|205:121|185:144|185:144|154:150|96:127,1,144,6|0,1:2|3:2,0:0:0:0:
57,209,52369,1,2,1:2:0:0:
81,301,52744,2,0,P|126:341|205:328,1,144,6|0,3:2|1:2,0:0:0:0:
282,272,53682,1,0,3:2:0:0:
461,336,54432,6,0,P|473:288|469:232,2,96,6|2|2,3:2|1:2|3:2,0:0:0:0:
369,366,55557,1,2,1:2:0:0:
295,304,55932,2,0,P|249:283|184:289,1,96,2|2,3:2|1:2,0:0:0:0:
145,359,56682,2,0,P|102:374|28:368,1,96,2|2,3:2|1:2,0:0:0:0:
4,290,57432,6,0,B|18:235|52:215|52:215|87:248|156:221,1,192,2|2,3:2|3:2,0:0:0:0:
218,159,58557,1,0,1:2:0:0:
311,180,58932,2,0,B|324:148|305:113|305:113|328:84|393:76,2,144,2|2|2,3:2|0:2|1:2,0:0:0:0:
385,240,60432,6,0,P|393:290|357:341,2,96,6|2|0,3:2|1:2|3:2,0:0:0:0:
453,172,61557,1,2,1:2:0:0:
412,84,61932,2,0,B|368:71|368:71|365:65|365:65|316:72,1,96,2|2,3:2|1:2,0:0:0:0:
241,123,62682,1,2,3:2:0:0:
173,54,63057,1,2,1:2:0:0:
90,102,63432,6,0,P|61:195|70:296,1,192,2|2,3:2|3:2,0:0:0:0:
141,351,64557,1,0,1:2:0:0:
209,283,64932,2,0,B|256:269|279:284|279:284|301:300|354:282,2,144,6|8|4,3:2|0:3|0:3,0:0:0:0:
135,221,66432,1,6,3:2:0:0:
178,135,66807,5,2,1:2:0:0:
269,165,67182,2,0,P|279:124|274:64,1,96,2|2,3:2|1:2,0:0:0:0:
200,10,67932,2,0,B|164:37|164:37|93:49,1,96,2|2,3:2|1:2,0:0:0:0:
53,117,68682,1,2,3:2:0:0:
128,175,69057,1,2,1:2:0:0:
88,262,69432,6,0,P|160:320|285:307,1,192,2|2,3:2|3:2,0:0:0:0:
336,268,70557,1,0,1:2:0:0:
367,177,70932,2,0,B|436:181|436:181|446:189|446:189|515:200,2,144,6|2|2,3:2|0:2|1:2,0:0:0:0:
299,108,72432,6,0,P|264:135|250:202,1,96,6|2,3:2|1:2,0:0:0:0:
182,252,73182,2,0,B|187:302|187:302|232:347,1,96,0|2,3:0|1:2,0:0:0:0:
311,360,73932,1,0,3:2:0:0:
380,294,74307,2,0,P|428:293|478:323,2,96,0|2|2,1:0|3:2|1:2,0:0:0:0:
322,216,75432,5,4,3:2:0:0:
248,153,75807,2,0,B|199:176|155:148|155:148|111:151|54:214,1,192,4|0,1:2|1:2,0:0:0:0:
64,289,76932,1,6,3:2:0:0:
147,338,77307,1,2,1:2:0:0:
206,262,77682,2,0,B|255:252|255:252|300:291,1,96,0|4,1:2|0:3,0:0:0:0:
368,336,78432,6,0,P|396:278|390:174,1,144,6|2,3:2|3:2,0:0:0:0:
349,116,79369,1,2,3:2:0:0:
272,173,79744,2,0,P|222:184|161:170,1,96,2|2,3:2|3:2,0:0:0:0:
94,42,80682,2,0,B|68:29|68:29|41:32,1,48,2|2,1:2|1:2,0:0:0:0:
0,112,81244,5,6,3:2:0:0:
195,314,87432,5,4,3:2:0:0:
120,250,87807,2,0,B|72:238|72:238|22:279,2,96,2|2|0,1:2|3:2|1:2,0:0:0:0:
195,314,88932,2,0,P|270:262|256:158,1,192,2|2,3:2|3:2,0:0:0:0:
320,5,90432,5,0,3:2:0:0:
411,35,90807,1,2,1:2:0:0:
491,87,91182,2,0,P|501:137|497:189,1,96,2|2,3:2|1:2,0:0:0:0:
441,258,91932,2,0,B|386:253|351:293|371:305|328:364|272:346,1,192,2|2,3:2|3:2,0:0:0:0:
233,266,93057,1,2,1:2:0:0:
138,281,93432,6,0,P|114:322|100:389,2,96,2|0|2,3:2|1:2|3:2,0:0:0:0:
110,189,94557,1,2,1:2:0:0:
181,125,94932,2,0,B|171:74|137:40|137:40|98:73|31:68,1,192,2|2,3:2|3:2,0:0:0:0:
20,160,96057,1,2,1:2:0:0:
60,246,96432,6,0,P|139:293|239:280,1,192,2|2,3:2|3:2,0:0:0:0:
296,355,97557,1,2,1:2:0:0:
369,293,97932,2,0,B|388:252|388:252|375:198,1,96,8|8,0:3|0:3,0:0:0:0:
436,127,98682,2,0,B|415:84|415:84|360:69,1,96,4|2,0:3|3:3,0:0:0:0:
286,20,99432,6,0,P|201:64|233:135,1,192,6|2,3:2|1:2,0:0:0:0:
418,198,100932,1,2,3:2:0:0:
466,280,101307,1,2,3:2:0:0:
398,347,101682,2,0,B|357:374|357:374|289:369,1,96,6|0,1:2|0:2,0:0:0:0:
263,286,102432,6,0,P|282:240|278:185,2,96,2|2|2,3:2|0:2|1:2,0:0:0:0:
170,312,103557,1,2,0:2:0:0:
86,264,103932,2,0,P|64:171|71:65,1,192,2|2,3:2|1:2,0:0:0:0:
253,22,105432,6,0,B|347:6|347:6|447:55,1,192,6|2,3:2|3:2,0:0:0:0:
393,135,106557,1,0,1:2:0:0:
306,175,106932,2,0,P|258:173|208:148,1,96,6|6,3:2|3:2,0:0:0:0:
159,232,107682,2,0,P|188:263|190:327,1,96,6|2,3:2|1:2,0:0:0:0:
271,370,108432,6,0,B|351:363|351:363|373:342|373:342|463:333,1,192,6|0,3:2|3:2,0:0:0:0:
503,251,109557,1,0,1:2:0:0:
433,184,109932,2,0,P|411:116|418:29,2,144,0|2|0,3:2|3:2|1:2,0:0:0:0:
374,260,111432,6,0,P|315:221|226:217,1,144,6|2,1:2|3:2,0:0:0:0:
191,293,112369,1,2,1:2:0:0:
103,254,112744,2,0,B|70:192|70:192|90:118,1,144,6|0,3:2|1:2,0:0:0:0:
169,67,113682,1,0,3:2:0:0:
321,184,114432,6,0,B|338:196|365:193|365:193|387:172|418:172,2,96,6|2|2,3:2|1:2|3:2,0:0:0:0:
238,233,115557,1,2,1:2:0:0:
155,183,115932,2,0,P|122:211|106:279,1,96,2|2,3:2|1:2,0:0:0:0:
170,329,116682,2,0,P|189:370|246:362,1,96,2|2,3:2|1:2,0:0:0:0:
297,297,117432,6,0,B|338:248|391:265|375:279|438:304|476:241,1,192,2|2,3:2|3:2,0:0:0:0:
413,172,118557,1,0,1:2:0:0:
389,78,118932,2,0,B|406:42|440:33|440:33|478:55|515:48,2,144,2|2|2,3:2|0:2|1:2,0:0:0:0:
301,117,120432,6,0,P|260:85|245:34,2,96,6|2|0,3:2|1:2|3:2,0:0:0:0:
255,201,121557,1,2,1:2:0:0:
322,268,121932,2,0,P|310:309|260:332,1,96,2|2,3:2|1:2,0:0:0:0:
172,306,122682,1,2,3:2:0:0:
150,212,123057,1,2,1:2:0:0:
212,138,123432,6,0,P|310:135|366:214,1,192,2|2,3:2|3:2,0:0:0:0:
343,297,124557,1,0,1:2:0:0:
251,267,124932,2,0,P|185:265|95:292,2,144,6|8|4,3:2|0:3|0:3,0:0:0:0:
343,297,126432,1,6,3:2:0:0:
424,246,126807,5,2,1:2:0:0:
443,151,127182,2,0,P|441:102|410:57,1,96,2|2,3:2|1:2,0:0:0:0:
328,25,127932,1,2,3:2:0:0:
233,42,128307,1,2,1:2:0:0:
192,130,128682,2,0,B|225:164|225:164|275:146,1,96,2|2,3:2|1:2,0:0:0:0:
319,230,129432,6,0,P|278:316|179:328,1,192,2|2,3:2|3:2,0:0:0:0:
104,287,130557,1,0,1:2:0:0:
70,196,130932,2,0,B|54:140|54:140|58:111|58:111|41:45,2,144,6|2|2,3:2|0:2|1:2,0:0:0:0:
164,212,132432,6,0,P|193:179|206:122,2,96,6|2|0,3:2|1:2|3:0,0:0:0:0:
124,299,133557,1,2,1:2:0:0:
198,359,133932,1,0,3:2:0:0:
287,324,134307,2,0,P|330:317|407:324,2,96,0|2|2,1:0|3:2|1:2,0:0:0:0:
218,255,135432,5,4,3:2:0:0:
254,166,135807,2,0,B|330:176|330:176|360:203|360:203|443:215,1,192,4|0,1:2|1:2,0:0:0:0:
479,298,136932,1,2,3:2:0:0:
410,366,137307,1,2,1:2:0:0:
327,317,137682,2,0,P|279:320|230:342,1,96,0|4,1:2|0:3,0:0:0:0:
163,274,138432,6,0,B|164:236|191:205|191:205|192:170|168:135,1,144,6|2,3:2|3:2,0:0:0:0:
88,93,139369,1,2,3:2:0:0:
137,22,139744,2,0,P|181:5|232:6,1,96,2|2,3:2|3:2,0:0:0:0:
334,124,140682,1,4,1:2:0:0:
268,194,141057,1,0,1:2:0:0:
272,289,141432,6,0,P|331:350|441:347,1,192,4|2,3:2|3:2,0:0:0:0:
481,267,142557,1,0,3:2:0:0:
485,171,142932,2,0,B|457:79|457:79|364:36,1,192,2|0,3:2|0:0,0:0:0:0:
292,95,144057,1,0,3:2:0:0:
200,66,144432,5,0,3:2:0:0:
144,144,144807,1,2,3:2:0:0:
167,237,145182,2,0,P|71:243|4:168,1,192,2|2,3:2|3:2,0:0:0:0:
24,84,146307,2,0,P|62:57|113:44,1,96,2|0,3:2|3:0,0:0:0:0:
204,52,147057,1,2,3:2:0:0:
273,118,147432,6,0,P|315:143|383:143,1,96,6|2,3:2|3:2,0:0:0:0:
389,239,148182,2,0,B|330:230|300:264|308:280|278:321|207:298,1,192,2|2,3:2|3:2,0:0:0:0:
173,216,149307,1,2,3:2:0:0:
10,318,150057,1,2,3:2:0:0:
94,364,150432,6,0,P|142:363|197:338,1,96,0|0,3:2|3:2,0:0:0:0:
238,264,151182,2,0,B|283:275|283:275|327:312,1,96,2|2,3:2|3:2,0:0:0:0:
398,367,151932,2,0,B|442:345|448:313|442:309|450:282|498:261,2,144,2|4|0,3:2|0:3|1:2,0:0:0:0:
318,312,153432,5,4,3:2:0:0:
225,339,153807,2,0,P|210:298|225:241,1,96,2|2,1:2|3:2,0:0:0:0:
268,164,154557,1,0,1:2:0:0:
194,99,154932,2,0,B|181:79|179:44|179:44|138:51|78:15,2,144,2|2|2,3:2|3:2|1:2,0:0:0:0:
277,146,156432,6,0,P|323:133|374:105,1,96,4|2,3:2|1:2,0:0:0:0:
450,65,157182,2,0,P|495:92|495:137,1,96,6|2,3:2|1:2,0:0:0:0:
425,194,157932,1,6,3:2:0:0:
351,256,158307,1,2,1:2:0:0:
374,349,158682,2,0,P|416:364|477:355,1,96,4|0,3:2|1:2,0:0:0:0:
498,268,159432,5,4,3:2:0:0:
387,110,160182,2,0,P|342:109|288:141,1,96,0|2,3:2|3:2,0:0:0:0:
240,210,160932,2,0,P|139:218|52:148,1,192,0|0,3:2|3:2,0:0:0:0:
45,76,162057,1,0,3:2:0:0:
119,12,162432,6,0,B|160:34|160:34|199:82,1,96,6|4,0:3|0:3,2:2:0:0:
222,163,163182,1,14,0:3:0:0:
312,193,163557,1,12,0:3:0:0:
393,141,163932,2,0,B|431:113|431:113|500:110,2,96,2|2|2,3:2|3:2|1:2,2:2:0:0:
421,232,165057,1,2,1:2:0:0:
344,290,165432,6,0,P|245:290|158:223,1,192,6|2,3:2|3:2,0:0:0:0:
103,95,166744,2,0,P|147:62|196:69,1,96,2|2,0:2|0:2,0:0:0:0:
247,138,167494,2,0,B|269:149|269:149|310:144,1,48,2|2,0:2|3:2,0:0:0:0:
446,260,168432,6,0,P|430:330|363:363,1,144,2|2,3:2|0:2,0:0:0:0:
304,293,169369,2,0,B|260:268|260:268|207:296,1,96,2|2,0:2|0:2,0:0:0:0:
154,360,170119,1,2,0:2:0:0:
71,310,170494,1,2,0:2:0:0:
30,222,170869,2,0,B|23:194|23:194|34:168,1,48,2|2,1:2|1:2,0:0:0:0:
93,104,171432,5,6,3:2:0:0:
269,28,172182,2,0,P|310:49|366:51,1,96,2|2,3:2|1:2,0:0:0:0:
452,29,172932,1,4,3:2:0:0:
483,119,173307,1,6,3:2:0:0:
407,177,173682,2,0,P|363:153|311:154,1,96,6|2,3:2|3:2,0:0:0:0:
255,225,174432,5,6,3:2:0:0:
300,309,174807,2,0,B|339:319|373:350|373:350|427:344|448:280,1,192,2|2,1:2|1:2,0:0:0:0:
405,195,175932,1,4,3:2:0:0:
431,102,176307,2,0,B|397:70|397:70|344:72,2,96,2|8|0,3:2|0:3|3:2,0:0:0:0:
492,175,177432,5,4,3:2:0:0:
345,298,178182,2,0,P|305:272|250:291,1,96,0|0,1:2|0:2,0:0:0:0:
178,333,178932,2,0,P|133:249|177:153,1,192,0|0,0:0|1:2,0:0:0:0:
337,79,180432,5,2,0:2:0:0:
27,320,189432,5,4,3:2:0:0:
117,150,190182,1,6,1:2:0:0:
255,283,190932,2,0,B|315:311|351:273|334:257|376:225|452:256,1,192,6|2,3:2|1:2,0:0:0:0:
493,175,192057,1,4,3:2:0:0:
435,98,192432,6,0,P|373:55|299:49,1,144,6|0,3:2|1:0,0:0:0:0:
250,126,193369,1,0,1:2:0:0:
159,156,193744,2,0,B|109:105|109:105|131:18,1,144,4|0,3:2|1:2,0:0:0:0:
222,22,194682,1,12,0:3:0:0:
386,121,195432,5,6,3:2:0:0:
319,190,195807,2,0,P|293:233|278:290,2,96,2|2|2,1:2|3:2|1:2,0:0:0:0:
291,97,196932,1,2,3:2:0:0:
211,42,197307,1,2,1:2:0:0:
137,104,197682,2,0,P|93:125|40:132,1,96,2|2,3:2|1:2,0:0:0:0:
13,222,198432,6,0,B|73:205|105:245|94:258|124:300|198:284,1,192,2|2,3:2|3:2,0:0:0:0:
248,355,199557,1,0,1:2:0:0:
320,292,199932,2,0,P|320:221|307:150,2,144,2|2|2,3:2|0:2|1:2,0:0:0:0:
387,360,201432,6,0,P|428:349|470:305,2,96,6|2|0,3:2|1:2|3:2,0:0:0:0:
321,292,202557,1,2,1:2:0:0:
377,214,202932,2,0,B|387:167|387:167|368:105,1,96,2|2,3:2|1:2,0:0:0:0:
302,56,203682,2,0,B|256:60|256:60|200:104,1,96,2|2,3:2|1:2,0:0:0:0:
258,177,204432,6,0,P|269:281|231:363,1,192,2|2,3:2|3:2,0:0:0:0:
145,321,205557,1,0,1:2:0:0:
91,241,205932,2,0,B|43:251|16:279|16:279|23:300|6:341,2,144,6|8|4,1:2|0:3|0:3,0:0:0:0:
158,172,207432,1,6,3:2:0:0:
97,97,207807,5,2,1:2:0:0:
166,30,208182,2,0,P|220:30|262:51,1,96,2|2,3:2|1:2,0:0:0:0:
304,130,208932,1,2,3:2:0:0:
255,212,209307,1,2,1:2:0:0:
166,249,209682,2,0,B|144:292|144:292|171:352,1,96,2|2,3:2|1:2,0:0:0:0:
253,368,210432,6,0,P|343:356|416:286,1,192,2|2,3:2|3:2,0:0:0:0:
335,234,211557,1,0,1:2:0:0:
265,167,211932,2,0,B|252:123|252:123|276:75,1,96,6|0,3:2|1:2,0:0:0:0:
360,35,212682,1,4,3:2:0:0:
448,73,213057,1,2,1:2:0:0:
478,163,213432,6,0,B|466:210|466:210|423:259,1,96,6|2,3:2|1:2,0:0:0:0:
353,297,214182,2,0,P|338:253|304:209,1,96,0|2,3:0|1:2,0:0:0:0:
240,145,214932,1,0,3:2:0:0:
160,198,215307,2,0,B|119:206|119:206|109:215|109:215|62:205,2,96,0|2|2,1:0|3:2|1:2,0:0:0:0:
135,104,216432,5,4,3:2:0:0:
215,51,216807,2,0,P|275:82|298:205,1,192,4|0,1:2|1:2,0:0:0:0:
237,266,217932,1,6,3:2:0:0:
145,236,218307,1,2,1:2:0:0:
86,159,218682,2,0,B|75:109|75:109|96:65,1,96,0|4,3:2|0:3,0:0:0:0:
181,25,219432,6,0,B|241:41|297:76|297:76|339:76|370:45,1,192,6|0,3:2|1:2,0:0:0:0:
460,175,220744,2,0,B|444:229|444:229|352:274,1,144,0|0,3:2|3:0,0:0:0:0:
278,226,221682,1,0,1:2:0:0:
225,306,222057,1,2,3:2:0:0:
136,267,222432,5,6,3:2:0:0:
464,141,227869,6,0,P|467:108|461:83,1,48,2|2,1:2|1:2,0:0:0:0:
391,30,228432,6,0,P|355:65|259:59,1,144,6|2,3:2|0:2,0:0:0:0:
182,17,229369,1,2,0:2:0:0:
106,77,229744,2,0,P|85:123|79:172,1,96,2|2,0:2|0:2,0:0:0:0:
126,318,230682,2,0,B|150:295|150:295|161:266,1,48,0|0,1:2|1:2,0:0:0:0:
223,213,231244,6,0,B|267:191|301:210|301:210|314:238|371:269,1,144,6|2,3:2|1:2,0:0:0:0:
440,268,232182,2,0,P|463:249|494:244,1,48,2|2,3:2|0:2,0:0:0:0:
492,149,232744,2,0,B|484:95|460:56|460:56|439:77|391:92,1,144,2|2,0:2|1:2,0:0:0:0:
339,32,233682,2,0,P|327:51|322:79,1,48,2|2,3:2|0:2,0:0:0:0:
259,148,234244,6,0,B|216:133|187:148|187:148|158:117|167:69,1,144,6|2,3:2|1:2,0:0:0:0:
229,12,235182,1,0,3:2:0:0:
321,42,235557,1,2,1:2:0:0:
391,106,235932,2,0,P|432:78|451:30,2,96,2|2|0,3:2|1:2|3:2,0:0:0:0:
241,159,237244,6,0,P|200:221|178:298,1,144,6|6,3:2|1:2,0:0:0:0:
252,349,238182,2,0,P|282:343|309:326,1,48,2|2,3:2|0:2,0:0:0:0:
344,251,238744,2,0,B|396:247|449:273|449:273|459:299|431:323,1,144,6|6,3:2|1:2,0:0:0:0:
374,371,239682,2,0,P|342:379|314:363,1,48,2|2,3:2|1:2,0:0:0:0:
259,307,240244,6,0,B|211:324|187:360|187:360|148:336|88:338,1,192,6|2,3:2|3:2,0:0:0:0:
34,259,241369,1,2,1:2:0:0:
62,167,241744,2,0,B|111:157|142:128|142:128|179:147|208:141,1,144,2|0,3:2|1:2,0:0:0:0:
282,109,242682,1,0,1:2:0:0:
441,215,243432,5,6,3:2:0:0:
441,215,245682,6,0,P|433:188|433:162,1,48,6|6,1:2|1:2,0:0:0:0:
479,84,246244,1,6,3:2:0:0:
256,192,246432,12,0,252057,0:2:0:0:
