osu file format v14

[General]
AudioFilename: audio.mp3
AudioLeadIn: 0
PreviewTime: 48174
Countdown: 0
SampleSet: Normal
StackLeniency: 0.7
Mode: 0
LetterboxInBreaks: 0
WidescreenStoryboard: 0

[Editor]
DistanceSpacing: 1.1
BeatDivisor: 4
GridSize: 4
TimelineZoom: 2.2

[Metadata]
Title:HEARTACHE=Koi to Yokan
TitleUnicode:HEARTACHE=恋と予感
Artist:Iida Riho
ArtistUnicode:飯田里穂
Creator:Noctiam
Version:Heartsick
Source:
Tags:solo rippi-holic
BeatmapID:2026199
BeatmapSetID:968318

[Difficulty]
HPDrainRate:4
CircleSize:4
OverallDifficulty:8.8
ApproachRate:9.8
SliderMultiplier:2
SliderTickRate:1

[Events]
//Background and Video events
0,0,"BG.jpg",0,0
//Break Periods
2,150523,157777
2,190191,197447
//Storyboard Layer 0 (Background)
//Storyboard Layer 1 (Fail)
//Storyboard Layer 2 (Pass)
//Storyboard Layer 3 (Foreground)
//Storyboard Sound Samples

[TimingPoints]
571,247.933884297521,4,1,0,70,1,0
571,-100,4,1,0,70,0,0
16438,-200,4,1,0,70,0,0
24372,-133.333333333333,4,1,0,70,0,0
40240,-125,4,1,0,70,0,0
48174,-100,4,1,0,80,0,1
64042,-125,4,1,0,70,0,0
79909,-100,4,1,0,70,0,0
87843,-200,4,1,0,70,0,0
91314,-333.333333333333,4,1,0,70,0,0
92306,-200,4,1,0,70,0,0
95777,-133.333333333333,4,1,0,70,0,0
111645,-125,4,1,0,70,0,0
119579,-100,4,1,0,80,0,1
135447,-125,4,1,0,70,0,0
150323,-166.666666666667,4,1,0,70,0,0
158256,-100,4,1,0,90,0,0
174124,-100,4,1,0,70,0,0
188876,-142.857142857143,4,1,0,70,0,0
189992,-333.333333333333,4,1,0,70,0,0
197926,-200,4,1,0,70,0,0
206356,-100,4,1,0,80,0,1
221728,-125,4,1,0,70,0,0
237595,-100,4,1,0,70,0,0

[Colours]
Combo1 : 147,0,147
Combo2 : 255,43,43
Combo3 : 138,0,0
Combo4 : 79,167,255
Combo5 : 0,63,125
Combo6 : 255,36,255

[HitObjects]
15,74,571,6,0,L|123:94,1,100,8|0,0:0|0:0,0:0:0:0:
197,150,818,2,0,P|142:222|38:193,1,200,8|0,0:0|0:0,0:0:0:0:
261,25,1314,2,0,L|364:46,1,100
454,82,1562,1,0,0:0:0:0:
482,90,1686,1,0,0:0:0:0:
511,97,1810,1,0,0:0:0:0:
409,270,2058,1,0,0:0:0:0:
381,278,2182,1,0,0:0:0:0:
352,285,2306,1,0,0:0:0:0:
109,253,2554,6,0,P|56:252|14:285,1,100
108,357,2802,2,0,P|172:326|186:199,1,200
3,111,3298,2,0,P|51:132|117:120,1,100
248,90,3546,1,0,0:0:0:0:
263,64,3670,1,0,0:0:0:0:
269,34,3794,1,0,0:0:0:0:
382,134,4042,1,0,0:0:0:0:
367,160,4166,1,0,0:0:0:0:
361,190,4290,1,0,0:0:0:0:
370,201,4351,1,0,0:0:0:0:
381,210,4413,1,0,0:0:0:0:
392,219,4475,1,0,0:0:0:0:
405,229,4537,6,0,L|516:219,1,100
382,332,4785,2,0,P|326:324|234:210,1,200
399,63,5281,2,0,L|365:176,1,100
255,95,5529,1,0,0:0:0:0:
284,90,5653,1,0,0:0:0:0:
313,85,5777,1,0,0:0:0:0:
168,230,6025,1,0,0:0:0:0:
139,225,6149,1,0,0:0:0:0:
110,220,6273,1,0,0:0:0:0:
30,73,6397,5,0,0:0:0:0:
30,73,6459,1,0,0:0:0:0:
30,73,6521,2,0,P|93:74|138:96,1,100
211,194,6769,1,0,0:0:0:0:
58,262,6893,2,0,L|-5:170,1,100
127,176,7141,1,0,0:0:0:0:
228,288,7265,2,0,L|190:385,1,100
48,343,7513,5,0,0:0:0:0:
209,194,7637,1,0,0:0:0:0:
338,321,7761,2,0,P|299:350|234:352,1,100
97,239,8009,1,0,0:0:0:0:
315,178,8132,1,0,0:0:0:0:
163,318,8256,1,0,0:0:0:0:
87,106,8380,1,0,0:0:0:0:
280,267,8504,6,0,P|347:255|404:138,1,200
285,79,8876,1,0,0:0:0:0:
158,122,9000,2,0,L|211:229,1,100
362,248,9248,2,0,L|304:148,1,100
212,23,9496,5,0,0:0:0:0:
173,33,9620,1,0,0:0:0:0:
135,46,9744,2,0,P|83:79|64:129,1,100
234,138,9992,5,0,0:0:0:0:
273,148,10116,1,0,0:0:0:0:
311,161,10240,2,0,P|363:194|382:244,1,100
282,351,10488,6,0,L|73:312,1,200
25,153,10860,1,0,0:0:0:0:
138,240,10984,2,0,P|191:222|228:181,1,100
140,37,11232,2,0,P|86:54|50:96,1,100
277,124,11480,5,0,0:0:0:0:
314,110,11604,1,0,0:0:0:0:
344,84,11728,2,0,L|249:32,1,100
133,116,11975,5,0,0:0:0:0:
96,130,12099,1,0,0:0:0:0:
66,156,12223,2,0,L|161:208,1,100
320,272,12471,6,0,P|376:257|445:121,1,200
347,48,12843,1,0,0:0:0:0:
234,153,12967,2,0,L|205:52,1,100
355,178,13215,2,0,L|306:307,1,100
203,353,13463,5,0,0:0:0:0:
169,331,13587,1,0,0:0:0:0:
134,310,13711,2,0,P|159:266|225:246,1,100
345,220,13959,5,0,0:0:0:0:
379,198,14083,1,0,0:0:0:0:
414,177,14207,2,0,P|389:133|323:113,1,100
245,27,14455,6,0,L|461:52,1,200
371,198,14827,1,0,0:0:0:0:
254,227,14951,2,0,P|245:176|263:117,1,100
465,207,15199,2,0,P|438:251|387:284,1,100
279,361,15447,5,0,0:0:0:0:
161,269,15571,1,0,0:0:0:0:
318,227,15694,1,0,0:0:0:0:
185,129,15818,1,0,0:0:0:0:
270,240,15942,1,0,0:0:0:0:
387,70,16066,1,0,0:0:0:0:
104,144,16190,1,0,0:0:0:0:
362,202,16314,1,0,0:0:0:0:
246,24,16438,5,0,0:0:0:0:
52,21,16686,6,0,P|100:26|155:55,1,100
163,139,17058,1,0,0:0:0:0:
85,170,17182,2,0,L|29:162,1,50
133,236,17430,6,0,P|169:224|186:199,2,50
48,286,17802,1,0,0:0:0:0:
125,353,17926,2,0,L|183:336,1,50
251,281,18174,2,0,L|309:311,1,50
387,344,18422,5,0,0:0:0:0:
429,317,18546,1,0,0:0:0:0:
453,273,18670,1,0,0:0:0:0:
432,227,18794,1,0,0:0:0:0:
388,202,18918,1,0,0:0:0:0:
358,161,19042,1,0,0:0:0:0:
358,110,19166,2,0,L|421:126,1,50
491,103,19413,6,0,P|471:58|429:34,2,100
405,125,20157,2,0,L|320:74,1,100
120,101,20653,6,0,L|108:52,1,50
218,139,20901,2,0,P|186:176|138:188,1,100
20,151,21397,6,0,L|71:177,1,50
225,221,21645,2,0,P|191:191|139:188,1,100
88,348,22141,6,0,L|70:290,1,50
46,217,22389,2,0,P|87:189|137:187,1,100
286,245,22885,6,0,L|236:341,1,100
342,331,23256,1,0,0:0:0:0:
384,241,23380,5,0,0:0:0:0:
479,246,23504,2,0,L|462:314,1,50
424,165,23752,1,0,0:0:0:0:
424,165,23876,2,0,P|366:158|315:126,1,100
270,69,24248,1,0,0:0:0:0:
411,30,24372,6,0,P|469:62|497:141,1,150.000005722046
390,221,24744,1,0,0:0:0:0:
263,172,24868,2,0,L|347:129,1,75.0000028610231
419,149,25116,1,0,0:0:0:0:
488,223,25240,1,0,0:0:0:0:
440,307,25364,6,0,L|360:324,1,75.0000028610231
225,250,25612,2,0,L|305:267,1,75.0000028610231
149,315,25860,2,0,P|112:281|86:236,1,75.0000028610231
196,100,26108,2,0,P|198:150|184:200,1,75.0000028610231
65,165,26356,5,0,0:0:0:0:
65,165,26480,1,0,0:0:0:0:
45,72,26604,1,0,0:0:0:0:
45,72,26728,1,0,0:0:0:0:
128,23,26851,1,0,0:0:0:0:
128,23,26975,1,0,0:0:0:0:
195,103,27099,1,0,0:0:0:0:
195,103,27223,1,0,0:0:0:0:
164,184,27347,6,0,L|96:112,1,75.0000028610231
265,138,27595,2,0,P|299:152|336:150,1,75.0000028610231
456,102,27843,2,0,P|432:33|364:7,1,150.000005722046
237,27,28215,1,0,0:0:0:0:
139,113,28339,6,0,L|169:201,1,75.0000028610231
333,169,28587,2,0,L|250:131,1,75.0000028610231
229,265,28835,2,0,P|267:306|381:314,1,150.000005722046
443,256,29207,1,0,0:0:0:0:
336,149,29331,6,0,P|295:149|261:163,1,75.0000028610231
450,180,29579,2,0,P|469:139|467:101,1,75.0000028610231
359,45,29827,2,0,L|208:37,1,150.000005722046
130,101,30199,1,0,0:0:0:0:
27,120,30323,6,0,L|40:46,1,75.0000028610231
232,194,30571,2,0,L|220:120,1,75.0000028610231
105,271,30818,2,0,L|117:196,1,75.0000028610231
310,345,31066,2,0,L|297:270,1,75.0000028610231
176,308,31314,6,0,P|145:355|35:328,1,150.000005722046
58,354,31624,1,0,0:0:0:0:
48,342,31685,1,0,0:0:0:0:
40,329,31747,1,0,0:0:0:0:
35,313,31810,2,0,L|9:212,1,75.0000028610231
118,121,32058,2,0,P|123:160|107:217,1,75.0000028610231
16,57,32306,6,0,L|178:33,1,150.000005722046
303,46,32678,1,0,0:0:0:0:
267,138,32802,2,0,P|220:129|176:88,1,75.0000028610231
383,25,33050,2,0,P|386:62|375:112,1,75.0000028610231
285,223,33298,6,0,P|216:174|201:84,1,150.000005722046
294,66,33670,1,0,0:0:0:0:
373,183,33794,2,0,P|336:168|312:138,1,75.0000028610231
485,80,34042,2,0,L|413:154,1,75.0000028610231
416,305,34290,6,0,P|455:280|484:245,1,75.0000028610231
325,297,34537,2,0,P|349:346|388:371,1,75.0000028610231
283,225,34785,2,0,L|206:257,1,75.0000028610231
147,335,35033,1,0,0:0:0:0:
61,285,35157,1,0,0:0:0:0:
129,229,35281,6,0,P|104:158|25:117,1,150.000005722046
20,30,35653,1,0,0:0:0:0:
20,30,35777,2,0,L|185:55,1,150.000005722046
265,87,36149,1,0,0:0:0:0:
416,40,36273,6,0,P|367:57|347:162,1,150.000005722046
413,224,36645,1,0,0:0:0:0:
487,138,36769,2,0,L|391:150,1,75.0000028610231
256,216,37017,2,0,L|343:223,1,75.0000028610231
459,294,37265,6,0,P|412:307|362:299,1,75.0000028610231
259,293,37513,1,0,0:0:0:0:
335,369,37637,1,0,0:0:0:0:
413,224,37761,2,0,L|368:132,1,75.0000028610231
226,99,38009,2,0,L|272:198,1,75.0000028610231
460,124,38256,6,0,P|401:77|317:95,1,150.000005722046
257,167,38628,1,0,0:0:0:0:
413,224,38752,2,0,L|377:149,1,75.0000028610231
295,260,39000,2,0,L|335:335,1,75.0000028610231
466,341,39248,6,0,P|502:306|504:272,2,75.0000028610231
383,254,39620,1,0,0:0:0:0:
466,203,39744,1,0,0:0:0:0:
406,329,39868,1,0,0:0:0:0:
344,182,39992,1,0,0:0:0:0:
500,282,40116,1,0,0:0:0:0:
317,355,40240,6,0,P|253:349|176:286,1,160
164,184,40612,1,0,0:0:0:0:
251,197,40736,2,0,L|277:292,1,80
83,354,40984,2,0,L|109:259,1,80
152,101,41232,6,0,P|218:117|245:218,1,160
183,319,41604,1,0,0:0:0:0:
48,210,41728,2,0,P|102:196|145:207,1,80
125,199,41913,1,0,0:0:0:0:
125,199,41975,2,0,L|98:293,1,80
57,357,42223,5,0,0:0:0:0:
144,348,42347,1,0,0:0:0:0:
215,296,42471,1,0,0:0:0:0:
261,221,42595,1,0,0:0:0:0:
229,138,42719,1,0,0:0:0:0:
316,152,42843,1,0,0:0:0:0:
397,120,42967,1,0,0:0:0:0:
461,60,43091,1,0,0:0:0:0:
316,72,43215,6,0,P|276:71|231:50,1,80
421,186,43463,2,0,P|460:187|497:203,1,80
280,186,43711,2,0,P|240:185|195:164,1,80
385,301,43959,2,0,P|425:302|470:323,1,80
268,334,44207,6,0,B|196:376|68:319|74:260|74:260|105:232|164:295,1,320
148,276,44951,1,0,0:0:0:0:
259,199,45199,6,0,P|244:149|218:107,1,80,2|0,0:0|0:0,0:0:0:0:
89,146,45447,2,0,L|163:197,1,80,2|0,0:0|0:0,0:0:0:0:
354,95,45694,2,0,P|316:59|272:35,1,80,2|0,0:0|0:0,0:0:0:0:
42,104,45942,2,0,L|131:111,1,80,2|0,0:0|0:0,0:0:0:0:
391,21,46190,6,0,L|427:198,1,160
451,302,46562,1,0,0:0:0:0:
497,152,46686,1,0,0:0:0:0:
476,339,46810,1,0,0:0:0:0:
354,228,46934,1,0,0:0:0:0:
271,353,47058,1,0,0:0:0:0:
156,223,47182,6,0,P|232:227|301:297,1,160
49,356,47554,1,0,0:0:0:0:
124,144,47678,1,0,0:0:0:0:
203,300,47802,1,0,0:0:0:0:
11,227,47926,2,0,P|17:187|34:151,1,80
134,25,48174,6,0,L|339:56,1,200
463,95,48546,1,0,0:0:0:0:
218,129,48670,2,0,L|386:259,1,200
477,324,49042,1,0,0:0:0:0:
245,264,49166,6,0,P|172:218|144:80,1,200
234,23,49538,1,0,0:0:0:0:
407,169,49661,2,0,P|448:233|377:353,1,200
268,357,50033,1,0,0:0:0:0:
53,239,50157,6,0,L|258:216,1,200
339,78,50529,1,0,0:0:0:0:
216,68,50653,2,0,P|236:121|286:145,1,100
445,178,50901,2,0,L|372:255,1,100
219,325,51149,6,0,P|166:292|151:241,1,100
332,289,51397,2,0,L|430:313,1,100
428,312,51583,1,0,0:0:0:0:
428,312,51645,2,0,P|468:256|463:220,1,100
351,107,51893,2,0,P|342:162|361:204,1,100
451,48,52141,6,0,L|246:79,1,200
128,107,52513,1,0,0:0:0:0:
220,274,52637,2,0,P|117:263|20:181,1,200
229,148,53009,1,0,0:0:0:0:
346,276,53133,6,0,P|419:230|447:92,1,200
357,35,53505,1,0,0:0:0:0:
182,173,53628,2,0,P|141:237|151:295,1,100
361,133,53876,2,0,L|262:115,1,100
260,281,54124,6,0,P|293:343|429:341,1,200
482,247,54496,1,0,0:0:0:0:
313,210,54620,2,0,L|367:304,1,100
479,161,54868,2,0,L|418:71,1,100
282,27,55116,6,0,L|184:45,1,100
240,193,55364,1,0,0:0:0:0:
333,101,55488,1,0,0:0:0:0:
130,112,55612,2,0,P|49:149|57:273,1,200
372,348,56108,6,0,L|167:317,1,200
49,289,56480,1,0,0:0:0:0:
181,244,56604,2,0,P|249:210|246:90,1,200
35,60,56976,1,0,0:0:0:0:
264,19,57100,6,0,P|337:65|365:203,1,200
278,361,57472,1,0,0:0:0:0:
105,205,57595,2,0,P|64:141|135:21,1,200
264,19,57967,1,0,0:0:0:0:
432,91,58091,6,0,L|484:289,1,200
285,139,58463,1,0,0:0:0:0:
296,316,58587,2,0,P|276:263|226:239,1,100
87,257,58835,2,0,L|160:180,1,100
293,59,59083,6,0,P|346:92|361:143,1,100
180,95,59331,2,0,L|81:70,1,100
84,72,59517,1,0,0:0:0:0:
84,72,59579,2,0,P|43:127|48:163,1,100
161,277,59827,2,0,P|170:222|151:180,1,100
55,326,60075,6,0,P|150:316|278:340,1,200
373,360,60447,1,0,0:0:0:0:
271,121,60571,2,0,P|213:162|160:288,1,200
258,363,60942,1,0,0:0:0:0:
481,261,61066,6,0,L|436:51,1,200
313,30,61438,1,0,0:0:0:0:
282,204,61562,2,0,P|331:241|394:249,1,100
347,107,61810,2,0,P|292:106|223:81,1,100
69,53,62058,6,0,P|47:116|59:170,1,100
249,94,62306,2,0,P|183:99|137:131,1,100
31,220,62554,2,0,P|70:303|156:377,1,200
317,360,62926,1,0,0:0:0:0:
405,233,63050,6,0,P|374:193|320:165,1,100
169,216,63298,2,0,L|203:320,1,100
299,72,63546,2,0,P|249:76|196:100,1,100
318,266,63794,1,0,0:0:0:0:
391,74,63918,1,0,0:0:0:0:
135,141,64042,5,0,0:0:0:0:
443,337,64290,6,0,P|362:326|315:244,1,160
408,111,64661,1,0,0:0:0:0:
455,187,64785,1,0,0:0:0:0:
362,179,64909,1,0,0:0:0:0:
492,111,65033,1,0,0:0:0:0:
400,262,65157,1,0,0:0:0:0:
328,108,65281,1,0,0:0:0:0:
486,269,65405,1,0,0:0:0:0:
319,267,65529,2,0,P|282:249|257:114,1,160
25,274,66025,6,0,L|185:244,1,160
286,157,66397,1,0,0:0:0:0:
206,119,66521,1,0,0:0:0:0:
329,86,66645,1,0,0:0:0:0:
367,191,66769,1,0,0:0:0:0:
251,46,66893,1,0,0:0:0:0:
247,229,67017,1,0,0:0:0:0:
411,118,67141,1,0,0:0:0:0:
164,193,67265,1,0,0:0:0:0:
334,279,67389,1,0,0:0:0:0:
251,46,67513,2,0,P|230:98|307:161,2,160
39,346,68256,5,0,0:0:0:0:
156,210,68504,2,0,L|72:58,1,160
171,340,69000,5,0,0:0:0:0:
282,66,69248,2,0,P|334:60|437:139,1,160
307,351,69744,1,0,0:0:0:0:
35,143,69992,6,0,L|112:113,1,80
73,257,70240,2,0,L|-1:290,1,80
224,284,70488,2,0,P|283:271|352:192,1,160
331,27,70984,5,0,0:0:0:0:
482,212,71232,2,0,P|487:270|404:346,1,160
215,228,71728,1,0,0:0:0:0:
293,338,71851,1,0,0:0:0:0:
169,311,71975,6,0,P|143:262|154:213,1,80
315,200,72223,2,0,P|318:134|226:51,1,160
111,100,72595,1,0,0:0:0:0:
214,166,72719,1,0,0:0:0:0:
183,82,72843,1,0,0:0:0:0:
131,181,72967,1,0,0:0:0:0:
261,106,73091,1,0,0:0:0:0:
189,243,73215,1,0,0:0:0:0:
56,151,73339,1,0,0:0:0:0:
268,230,73463,2,0,P|257:291|144:312,1,160
24,66,73959,6,0,P|110:45|200:71,1,160
300,99,74331,1,0,0:0:0:0:
196,136,74455,1,0,0:0:0:0:
248,37,74579,1,0,0:0:0:0:
266,178,74703,1,0,0:0:0:0:
123,123,74827,1,0,0:0:0:0:
303,243,74951,1,0,0:0:0:0:
179,60,75075,2,0,P|141:47|95:52,1,80
169,201,75323,1,0,0:0:0:0:
342,179,75447,2,0,P|353:136|337:84,1,80
453,22,75694,2,0,L|503:178,1,160
400,356,76190,5,0,0:0:0:0:
171,260,76438,2,0,P|98:273|43:348,1,160
112,28,76934,5,0,0:0:0:0:
341,124,77182,2,0,P|414:111|469:36,1,160
239,354,77678,1,0,0:0:0:0:
57,149,77926,6,0,L|81:258,1,80
260,259,78174,2,0,L|239:168,1,80
135,28,78422,2,0,L|159:137,1,80
338,138,78670,2,0,L|317:47,1,80
142,194,78918,5,0,0:0:0:0:
321,224,79042,1,0,0:0:0:0:
250,125,79166,1,0,0:0:0:0:
205,294,79290,1,0,0:0:0:0:
158,114,79413,5,0,0:0:0:0:
293,310,79537,1,0,0:0:0:0:
338,138,79661,1,0,0:0:0:0:
114,283,79785,1,0,0:0:0:0:
264,44,79909,6,0,P|320:40|448:120,1,200
384,256,80281,1,0,0:0:0:0:
208,216,80405,2,0,L|261:109,1,100
468,264,80653,2,0,L|410:364,1,100
208,316,80901,5,0,0:0:0:0:
169,306,81025,1,0,0:0:0:0:
131,293,81149,2,0,P|79:260|60:210,1,100
276,52,81397,5,0,0:0:0:0:
266,91,81521,1,0,0:0:0:0:
253,129,81645,2,0,P|220:181|170:200,1,100
79,15,81893,6,0,L|288:54,1,200
360,168,82265,1,0,0:0:0:0:
256,328,82389,2,0,P|202:311|166:269,1,100
352,88,82637,2,0,P|405:106|442:147,1,100
296,261,82885,5,0,0:0:0:0:
282,298,83009,1,0,0:0:0:0:
256,328,83133,2,0,L|204:233,1,100
285,48,83380,5,0,0:0:0:0:
322,62,83504,1,0,0:0:0:0:
352,88,83628,2,0,L|257:140,1,100
156,28,83876,6,0,P|100:43|31:179,1,200
116,312,84248,1,0,0:0:0:0:
236,232,84372,2,0,L|263:135,1,100
368,244,84620,2,0,L|403:337,1,100
496,164,84868,5,0,0:0:0:0:
473,130,84992,1,0,0:0:0:0:
452,96,85116,2,0,P|408:121|388:187,1,100
236,232,85364,5,0,0:0:0:0:
214,266,85488,1,0,0:0:0:0:
193,301,85612,2,0,P|149:276|129:210,1,100
245,357,85860,6,0,L|461:332,1,200
371,186,86232,1,0,0:0:0:0:
254,157,86356,2,0,P|245:208|263:267,1,100
465,177,86604,2,0,P|438:133|387:100,1,100
279,23,86852,5,0,0:0:0:0:
185,255,86976,1,0,0:0:0:0:
360,196,87099,1,0,0:0:0:0:
160,112,87223,1,0,0:0:0:0:
260,328,87347,5,0,0:0:0:0:
316,108,87471,1,0,0:0:0:0:
104,240,87595,1,0,0:0:0:0:
388,276,87719,1,0,0:0:0:0:
216,52,87843,5,0,0:0:0:0:
456,208,88215,5,0,0:0:0:0:
125,340,88587,5,0,0:0:0:0:
195,54,88835,6,0,P|230:40|286:36,1,75
349,50,89083,6,0,L|394:44,3,25
446,65,89331,1,0,0:0:0:0:
394,136,89455,1,0,0:0:0:0:
486,157,89579,2,0,L|501:124,3,25
460,219,89827,5,0,0:0:0:0:
225,214,89992,1,0,0:0:0:0:
420,350,90157,1,0,0:0:0:0:
336,155,90323,1,0,0:0:0:0:
197,336,90488,1,0,0:0:0:0:
108,120,90653,1,0,0:0:0:0:
353,229,90818,1,0,0:0:0:0:
59,269,90984,1,0,0:0:0:0:
305,361,91149,1,0,0:0:0:0:
259,95,91314,2,0,P|244:56|226:104,1,119.999996337891
135,288,92058,6,0,P|169:294|188:287,1,44.999998626709
220,271,92306,2,0,P|210:222|175:188,1,100
44,80,92802,6,0,L|107:92,1,50
180,113,93050,2,0,P|228:103|262:68,1,100
419,33,93546,6,0,L|373:80,1,50
321,133,93794,2,0,P|330:181|365:215,1,100
479,318,94290,6,0,L|368:329,1,100
289,308,94661,1,0,0:0:0:0:
190,357,94785,6,0,L|174:286,1,50
121,244,95033,1,0,0:0:0:0:
49,297,95157,1,0,0:0:0:0:
25,215,95281,2,0,P|31:168|81:134,1,100
152,111,95653,1,0,0:0:0:0:
89,46,95777,6,0,L|235:78,1,150.000005722046
324,151,96149,1,0,0:0:0:0:
215,220,96273,2,0,P|226:184|255:150,1,75.0000028610231
365,25,96521,2,0,P|388:62|392:111,1,75.0000028610231
398,184,96769,5,0,0:0:0:0:
313,79,96893,1,0,0:0:0:0:
480,63,97017,2,0,L|465:159,1,75.0000028610231
378,279,97265,2,0,P|339:244|323:146,1,150.000005722046
394,89,97637,1,0,0:0:0:0:
445,207,97761,5,0,0:0:0:0:
445,207,97885,1,0,0:0:0:0:
247,226,98009,1,0,0:0:0:0:
247,226,98132,1,0,0:0:0:0:
389,310,98256,1,0,0:0:0:0:
389,310,98380,1,0,0:0:0:0:
321,151,98504,2,0,P|272:132|228:131,1,75.0000028610231
112,214,98752,6,0,L|138:307,1,75.0000028610231
316,260,99000,2,0,P|320:209|305:180,1,75.0000028610231
220,328,99248,2,0,B|284:361|312:356|312:356|347:329|379:341,2,150.000005722046
43,181,99992,6,0,P|23:235|18:274,1,75.0000028610231
101,316,100240,2,0,P|136:269|119:158,1,150.000005722046
469,181,100736,6,0,P|489:235|494:274,1,75.0000028610231
411,316,100984,2,0,P|376:269|393:158,1,150.000005722046
178,67,101480,2,0,L|97:54,1,75.0000028610231
96,229,101728,6,0,P|147:210|179:178,1,75.0000028610231
282,46,101975,2,0,P|256:86|252:144,1,75.0000028610231
416,229,102223,2,0,P|385:207|349:197,1,75.0000028610231
230,338,102471,2,0,P|256:298|260:240,1,75.0000028610231
137,122,102719,2,0,B|100:159|98:220|154:258|168:174,1,150.000005722046
161,196,103029,5,0,0:0:0:0:
161,196,103091,1,0,0:0:0:0:
161,196,103153,1,0,0:0:0:0:
161,196,103215,2,0,P|180:230|28:261,1,262.500010013581
34,206,103711,6,0,L|67:40,1,150.000005722046
163,35,104083,1,0,0:0:0:0:
239,100,104207,2,0,P|243:140|228:199,1,75.0000028610231
145,206,104455,2,0,P|127:167|127:126,1,75.0000028610231
240,24,104703,6,0,P|328:22|396:54,1,150.000005722046
480,96,105075,1,0,0:0:0:0:
363,173,105199,2,0,L|323:97,1,75.0000028610231
468,175,105447,2,0,P|478:208|476:268,1,75.0000028610231
378,311,105694,6,0,L|293:285,1,75.0000028610231
182,192,105942,2,0,L|275:165,1,75.0000028610231
130,75,106190,2,0,L|42:40,1,75.0000028610231
37,170,106438,1,0,0:0:0:0:
203,114,106562,1,0,0:0:0:0:
112,226,106686,6,0,P|78:262|91:361,1,150.000005722046
204,336,107058,1,0,0:0:0:0:
242,223,107182,2,0,L|182:153,1,75.0000028610231
54,92,107430,2,0,P|102:116|137:107,1,75.0000028610231
270,38,107678,6,0,P|190:31|112:46,1,150.000005722046
23,163,108050,1,0,0:0:0:0:
192,165,108174,2,0,P|232:155|279:118,1,75.0000028610231
121,113,108422,2,0,L|84:197,1,75.0000028610231
84,338,108670,6,0,P|42:325|-7:291,1,75.0000028610231
165,260,108918,1,0,0:0:0:0:
232,336,109042,1,0,0:0:0:0:
316,184,109166,2,0,P|292:153|245:135,1,75.0000028610231
349,313,109413,2,0,L|444:276,1,75.0000028610231
483,121,109661,6,0,P|447:69|350:49,1,150.000005722046
262,136,110033,1,0,0:0:0:0:
390,204,110157,1,0,0:0:0:0:
293,41,110281,1,0,0:0:0:0:
161,119,110405,2,0,P|142:161|153:211,1,75.0000028610231
195,316,110653,5,0,0:0:0:0:
262,136,110777,1,0,0:0:0:0:
356,260,110901,2,0,P|306:255|253:233,1,75.0000028610231
195,89,111149,1,0,0:0:0:0:
338,180,111273,1,0,0:0:0:0:
186,254,111397,1,0,0:0:0:0:
273,60,111521,1,0,0:0:0:0:
283,247,111645,6,0,P|229:188|139:183,1,160
46,251,112017,1,0,0:0:0:0:
198,332,112141,2,0,P|193:276|171:226,1,80
69,105,112389,2,0,P|70:151|88:197,1,80
305,88,112637,6,0,P|217:74|141:120,1,160
288,176,113009,1,0,0:0:0:0:
396,100,113132,2,0,L|355:9,1,80
199,173,113380,2,0,L|241:262,1,80
417,207,113628,5,0,0:0:0:0:
356,270,113752,1,0,0:0:0:0:
327,351,113876,1,0,0:0:0:0:
413,335,114000,1,0,0:0:0:0:
318,244,114124,1,0,0:0:0:0:
197,200,114248,1,0,0:0:0:0:
150,308,114372,1,0,0:0:0:0:
269,183,114496,1,0,0:0:0:0:
327,24,114620,6,0,L|219:35,1,80
370,188,114868,2,0,P|383:139|374:97,1,80
198,272,115116,2,0,L|277:263,1,80
154,108,115364,2,0,P|141:145|144:185,1,80
254,360,115612,5,2,0:0:0:0:
254,360,116108,5,2,0:0:0:0:
346,125,116356,1,2,0:0:0:0:
103,134,116604,1,2,0:0:0:0:
333,290,116851,1,2,0:0:0:0:
206,28,117099,1,2,0:0:0:0:
68,313,117347,1,2,0:0:0:0:
308,165,117595,6,0,P|365:160|439:223,1,160
318,336,117967,1,0,0:0:0:0:
351,240,118091,1,0,0:0:0:0:
442,347,118215,1,0,0:0:0:0:
248,275,118339,2,0,P|229:230|222:177,1,80
227,38,118587,5,0,0:0:0:0:
298,161,118711,1,0,0:0:0:0:
137,89,118835,1,0,0:0:0:0:
320,74,118959,1,0,0:0:0:0:
138,189,119083,1,0,0:0:0:0:
80,20,119207,1,0,0:0:0:0:
217,115,119331,1,0,0:0:0:0:
17,161,119455,1,0,0:0:0:0:
127,294,119579,6,0,P|221:278|320:191,1,200
374,49,119951,1,0,0:0:0:0:
174,37,120075,2,0,L|0:173,1,200
235,128,120447,1,0,0:0:0:0:
193,354,120571,6,0,P|117:347|34:234,1,200
166,40,120942,1,0,0:0:0:0:
358,95,121066,2,0,L|387:221,1,100
185,242,121314,2,0,P|146:205|125:155,1,100
461,121,121562,6,0,P|476:188|390:303,1,200
234,330,121934,1,0,0:0:0:0:
251,112,122058,2,0,P|305:111|349:163,1,100
105,275,122306,2,0,P|84:224|96:167,1,100
153,38,122554,5,0,0:0:0:0:
277,200,122678,1,0,0:0:0:0:
320,34,122802,2,0,L|247:117,1,100
192,256,123050,2,0,L|255:333,1,100
423,186,123298,2,0,P|344:144|322:107,1,100
481,33,123546,6,0,L|506:255,1,200
343,315,123918,1,0,0:0:0:0:
178,178,124042,2,0,P|219:148|363:150,1,200
297,340,124413,1,0,0:0:0:0:
96,355,124537,6,0,L|31:259,1,100
230,45,124785,2,0,P|263:94|267:257,1,200
174,355,125157,1,0,0:0:0:0:
36,180,125281,2,0,L|92:77,1,100
321,60,125529,6,0,P|280:114|220:130,1,100
109,217,125777,2,0,P|161:198|207:208,1,100
349,264,126025,1,0,0:0:0:0:
206,306,126149,1,0,0:0:0:0:
331,176,126273,2,0,L|457:206,1,100
310,63,126521,6,0,P|241:95|207:225,1,200
252,364,126893,1,0,0:0:0:0:
425,360,127017,2,0,P|466:349|487:275,1,100
202,206,127265,2,0,P|209:254|259:284,1,100
368,48,127513,6,0,P|274:64|175:151,1,200
130,288,127885,1,0,0:0:0:0:
335,345,128009,2,0,L|509:209,1,200
274,254,128381,1,0,0:0:0:0:
316,28,128505,6,0,P|392:35|475:148,1,200
343,342,128876,1,0,0:0:0:0:
151,287,129000,2,0,L|122:161,1,100
324,140,129248,2,0,P|363:177|384:227,1,100
48,261,129496,6,0,P|33:194|119:79,1,200
317,86,129868,1,0,0:0:0:0:
258,270,129992,2,0,P|204:271|160:219,1,100
404,107,130240,2,0,P|425:158|413:215,1,100
356,344,130488,5,0,0:0:0:0:
232,182,130612,1,0,0:0:0:0:
189,348,130736,2,0,L|262:265,1,100
331,176,130984,2,0,L|240:65,1,100
86,196,131232,2,0,P|165:238|187:275,1,100
28,349,131480,6,0,L|3:127,1,200
166,67,131852,1,0,0:0:0:0:
331,204,131976,2,0,P|290:234|146:232,1,200
212,42,132347,1,0,0:0:0:0:
413,27,132471,6,0,L|478:123,1,100
279,337,132719,2,0,P|246:288|242:125,1,200
335,27,133091,1,0,0:0:0:0:
473,202,133215,2,0,L|417:305,1,100
188,322,133463,6,0,P|229:268|289:252,1,100
400,165,133711,2,0,P|348:184|302:174,1,100
160,118,133959,1,0,0:0:0:0:
303,76,134083,1,0,0:0:0:0:
178,206,134207,2,0,L|52:176,1,100
50,299,134455,5,0,0:0:0:0:
203,350,134579,1,0,0:0:0:0:
305,175,134703,2,0,P|262:214|246:268,1,100
392,357,134951,1,0,0:0:0:0:
440,217,135075,1,0,0:0:0:0:
296,317,135199,1,0,0:0:0:0:
454,172,135323,1,0,0:0:0:0:
491,372,135447,1,0,0:0:0:0:
413,73,135694,6,0,P|362:94|256:51,1,160
108,24,136065,1,0,0:0:0:0:
40,97,136189,1,0,0:0:0:0:
118,184,136313,1,0,0:0:0:0:
114,102,136437,1,0,0:0:0:0:
47,269,136561,1,0,0:0:0:0:
196,184,136685,1,0,0:0:0:0:
42,178,136809,1,0,0:0:0:0:
128,318,136934,2,0,P|185:266|194:232,1,80
167,16,137182,2,0,P|127:52|215:73,1,160
489,26,137678,5,0,0:0:0:0:
406,116,137802,1,0,0:0:0:0:
322,42,137926,1,0,0:0:0:0:
404,33,138050,1,0,0:0:0:0:
498,185,138174,1,0,0:0:0:0:
322,127,138298,1,0,0:0:0:0:
404,302,138422,1,0,0:0:0:0:
492,106,138546,1,0,0:0:0:0:
311,211,138670,1,0,0:0:0:0:
498,263,138794,1,0,0:0:0:0:
404,117,138918,2,0,P|386:68|359:40,1,80
237,247,139166,2,0,P|284:289|379:250,1,160
56,44,139661,5,0,0:0:0:0:
146,360,139909,2,0,L|319:316,1,160
423,33,140405,5,0,0:0:0:0:
42,128,140653,2,0,P|38:190|116:279,1,160
395,349,141149,1,0,0:0:0:0:
300,48,141397,6,0,P|344:67|370:97,1,80
170,112,141645,2,0,P|161:69|169:14,1,80
350,253,141893,2,0,L|172:315,1,160
41,83,142389,5,0,0:0:0:0:
335,42,142637,2,0,L|424:195,1,160
125,364,143132,1,0,0:0:0:0:
219,224,143256,1,0,0:0:0:0:
70,231,143380,6,0,P|31:159|48:72,1,160
178,56,143752,1,0,0:0:0:0:
123,122,143876,1,0,0:0:0:0:
99,35,144000,1,0,0:0:0:0:
276,180,144124,1,0,0:0:0:0:
157,200,144248,1,0,0:0:0:0:
254,68,144372,1,0,0:0:0:0:
295,283,144496,1,0,0:0:0:0:
199,136,144620,1,0,0:0:0:0:
404,120,144744,1,0,0:0:0:0:
227,243,144868,2,0,L|292:158,1,80
408,32,145116,2,0,P|356:48|340:160,1,160
468,362,145612,5,0,0:0:0:0:
437,269,145736,1,0,0:0:0:0:
356,170,145860,1,0,0:0:0:0:
353,279,145984,1,0,0:0:0:0:
438,156,146108,1,0,0:0:0:0:
275,283,146232,1,0,0:0:0:0:
350,86,146356,1,0,0:0:0:0:
368,360,146480,1,0,0:0:0:0:
270,169,146604,1,0,0:0:0:0:
511,258,146728,1,0,0:0:0:0:
429,78,146851,2,0,P|409:40|300:22,2,160
254,356,147595,5,0,0:0:0:0:
31,220,147843,2,0,L|69:52,1,160
258,356,148339,5,0,0:0:0:0:
445,63,148587,2,0,L|481:220,1,160
249,26,149083,2,0,P|230:71|246:129,1,80
307,220,149331,6,0,L|387:228,1,80
168,318,149579,2,0,L|88:318,1,80
176,196,149827,1,0,0:0:0:0:
372,308,149951,1,0,0:0:0:0:
345,118,150075,1,0,0:0:0:0:
240,340,150199,1,0,0:0:0:0:
472,188,150323,5,0,0:0:0:0:
432,55,158256,6,0,P|344:34|239:69,1,200
91,161,158628,1,0,0:0:0:0:
269,189,158752,2,0,L|407:161,1,100
485,271,159000,2,0,L|379:313,1,100
159,244,159248,5,0,0:0:0:0:
313,287,159372,1,0,0:0:0:0:
118,344,159496,2,0,P|66:254|87:148,2,200
288,360,160116,1,0,0:0:0:0:
276,74,160240,2,0,L|325:83,3,50
397,55,160488,2,0,L|453:31,3,50
436,131,160736,6,0,P|376:161|346:235,1,150
334,262,160984,1,0,0:0:0:0:
300,270,161045,1,0,0:0:0:0:
270,289,161107,1,0,0:0:0:0:
249,316,161169,1,0,0:0:0:0:
237,349,161232,6,0,L|202:251,1,100
74,129,161480,2,0,L|101:256,1,100
274,37,161728,2,0,P|215:33|172:58,1,100
337,142,161975,2,0,P|394:142|437:121,1,100
158,132,162223,6,0,L|258:357,1,200
340,218,162595,1,0,0:0:0:0:
121,286,162719,2,0,P|51:260|20:216,1,100
101,64,162967,2,0,L|209:48,1,100
407,36,163215,6,0,P|454:99|465:232,1,200
358,313,163587,2,0,L|268:268,1,100
177,170,163835,1,0,0:0:0:0:
340,218,163959,1,0,0:0:0:0:
187,363,164083,1,0,0:0:0:0:
17,275,164207,6,0,L|122:240,1,100
283,65,164455,2,0,P|226:72|193:108,1,100
268,268,164703,2,0,L|281:148,1,100
22,158,164951,2,0,P|82:168|130:155,1,100
283,65,165199,6,0,L|340:50,3,50
387,117,165447,2,0,L|444:132,3,50
465,209,165694,2,0,L|506:250,3,50
446,315,165942,1,0,0:0:0:0:
421,316,166003,1,0,0:0:0:0:
396,313,166065,1,0,0:0:0:0:
372,304,166127,1,0,0:0:0:0:
351,291,166190,6,0,P|278:259|148:281,1,200
43,261,166562,1,0,0:0:0:0:
212,140,166686,2,0,L|222:262,1,100
25,125,166934,2,0,L|34:22,1,100
247,53,167182,6,0,P|299:92|309:244,1,200
93,328,167554,1,0,0:0:0:0:
119,143,167678,2,0,L|221:125,1,100
420,231,167926,2,0,L|307:216,1,100
463,135,168174,6,0,P|497:203|472:357,1,200
305,150,168546,1,0,0:0:0:0:
218,256,168670,2,0,L|196:353,1,100
420,231,168918,2,0,L|389:126,1,100
322,26,169166,6,0,P|240:29|206:55,1,100
38,116,169413,2,0,B|91:133|132:113|132:113|155:173|155:173|194:139|194:139|235:171|301:148,1,300
453,241,169909,2,0,P|387:258|332:293,1,100
137,303,170157,6,0,P|206:274|223:226,1,100
138,94,170405,2,0,L|148:38,4,50
151,115,170715,1,0,0:0:0:0:
170,131,170777,1,0,0:0:0:0:
193,141,170839,1,0,0:0:0:0:
220,142,170901,2,0,P|291:111|310:66,1,100
29,111,171149,6,0,L|55:228,1,100
140,349,171397,1,0,0:0:0:0:
140,324,171458,1,0,0:0:0:0:
146,299,171520,1,0,0:0:0:0:
157,277,171582,1,0,0:0:0:0:
174,258,171644,1,0,0:0:0:0:
194,244,171706,1,0,0:0:0:0:
217,234,171768,1,0,0:0:0:0:
242,230,171830,1,0,0:0:0:0:
267,233,171893,2,0,P|309:298|367:309,1,100
403,198,172141,6,0,P|471:162|477:42,1,200
264,30,172513,1,0,0:0:0:0:
128,95,172637,2,0,L|179:191,1,100
382,106,172885,2,0,P|317:123|280:155,1,100
290,262,173132,6,0,P|241:340|121:327,1,200
47,244,173504,2,0,L|10:133,1,100
114,38,173752,1,0,0:0:0:0:
171,239,173876,1,0,0:0:0:0:
18,72,174000,1,0,0:0:0:0:
192,134,174124,6,0,P|270:124|392:64,1,200
481,27,174496,1,0,0:0:0:0:
486,165,174620,2,0,L|424:279,1,100
234,259,174868,2,0,L|335:210,1,100
147,335,175116,6,0,P|94:338|51:304,1,100
133,178,175364,2,0,P|175:151|224:156,1,100
376,286,175612,2,0,P|323:289|280:255,1,100
373,111,175860,2,0,P|426:114|469:80,1,100
373,26,176108,5,0,0:0:0:0:
338,23,176169,1,0,0:0:0:0:
304,30,176231,1,0,0:0:0:0:
273,47,176293,1,0,0:0:0:0:
249,72,176355,1,0,0:0:0:0:
275,198,176480,1,0,0:0:0:0:
127,249,176604,5,0,0:0:0:0:
154,228,176665,1,0,0:0:0:0:
176,200,176727,1,0,0:0:0:0:
189,168,176789,1,0,0:0:0:0:
192,133,176851,1,0,0:0:0:0:
133,41,176975,1,0,0:0:0:0:
23,95,177099,6,0,B|53:138|20:189|20:189|66:216|66:216|46:251|46:251|72:295|55:358,1,300
166,358,177595,6,0,P|222:354|294:149,1,300
234,30,178091,5,0,0:0:0:0:
148,103,178215,1,0,0:0:0:0:
144,137,178276,1,0,0:0:0:0:
147,172,178338,1,0,0:0:0:0:
157,206,178400,1,0,0:0:0:0:
173,237,178462,1,0,0:0:0:0:
38,179,178587,5,0,0:0:0:0:
45,337,178711,1,0,0:0:0:0:
76,322,178772,1,0,0:0:0:0:
110,314,178834,1,0,0:0:0:0:
145,315,178896,1,0,0:0:0:0:
179,324,178959,2,0,P|240:336|284:368,1,100
414,286,179207,5,0,0:0:0:0:
377,270,179268,1,0,0:0:0:0:
346,245,179330,1,0,0:0:0:0:
322,213,179392,1,0,0:0:0:0:
309,175,179454,1,0,0:0:0:0:
306,135,179516,1,0,0:0:0:0:
315,97,179579,5,0,0:0:0:0:
276,66,179640,1,0,0:0:0:0:
229,49,179702,1,0,0:0:0:0:
179,49,179764,1,0,0:0:0:0:
132,65,179826,1,0,0:0:0:0:
92,95,179888,1,0,0:0:0:0:
65,136,179951,2,0,P|112:170|242:118,1,200
48,229,180323,6,0,L|26:353,1,100
256,268,180571,2,0,P|218:227|153:207,1,100
337,353,180818,2,0,L|458:293,1,100
490,183,181066,5,0,0:0:0:0:
332,256,181190,2,0,P|326:173|368:53,1,200
417,228,181562,1,0,0:0:0:0:
196,124,181686,1,0,0:0:0:0:
251,243,181810,1,0,0:0:0:0:
461,90,181934,1,0,0:0:0:0:
235,25,182058,5,0,0:0:0:0:
333,189,182182,1,0,0:0:0:0:
333,189,182244,1,0,0:0:0:0:
333,189,182306,2,0,L|350:77,1,100
111,118,182554,2,0,L|139:249,1,100
252,351,182802,1,0,0:0:0:0:
252,351,182864,1,0,0:0:0:0:
252,351,182926,2,0,P|332:326|373:284,1,100
439,207,183174,5,0,0:0:0:0:
255,230,183298,1,0,0:0:0:0:
425,357,183422,1,0,0:0:0:0:
401,96,183546,2,0,P|331:124|199:57,1,200
38,42,183918,1,0,0:0:0:0:
47,212,184042,6,0,L|58:288,3,50
94,301,184290,2,0,L|155:346,3,50
187,338,184537,2,0,L|263:327,3,50
289,313,184785,2,0,L|334:251,3,50
317,216,185033,5,0,0:0:0:0:
311,202,185094,1,0,0:0:0:0:
306,188,185156,1,0,0:0:0:0:
300,174,185218,1,0,0:0:0:0:
295,160,185280,1,0,0:0:0:0:
290,146,185342,1,0,0:0:0:0:
284,132,185404,1,0,0:0:0:0:
279,118,185466,1,0,0:0:0:0:
273,103,185529,5,0,0:0:0:0:
225,116,185590,1,0,0:0:0:0:
194,154,185652,1,0,0:0:0:0:
190,203,185714,1,0,0:0:0:0:
215,246,185776,1,0,0:0:0:0:
260,266,185838,1,0,0:0:0:0:
309,258,185900,1,0,0:0:0:0:
343,223,185962,1,0,0:0:0:0:
352,175,186025,6,0,P|292:57|129:62,1,300
257,356,186521,5,0,0:0:0:0:
225,116,186769,1,0,0:0:0:0:
82,310,187017,1,0,0:0:0:0:
444,184,187265,5,0,0:0:0:0:
183,25,187513,1,0,0:0:0:0:
149,342,187761,1,0,0:0:0:0:
244,64,188009,5,0,0:0:0:0:
156,232,188132,1,0,0:0:0:0:
123,27,188256,1,0,0:0:0:0:
236,270,188380,1,0,0:0:0:0:
58,228,188504,1,0,0:0:0:0:
276,92,188628,1,0,0:0:0:0:
31,104,188752,1,0,0:0:0:0:
304,224,188876,2,0,B|456:246|496:169|458:105|405:108|405:108|402:48|339:17|261:40|284:62|284:62|272:68|272:68|281:76|281:76|270:82|270:82|278:91|278:91|267:96|267:96|275:105|275:105|264:110|264:110|275:116|275:116|264:122|264:122|258:161|284:192,1,629.999980773926
220,36,197926,5,0,0:0:0:0:
144,100,198174,1,0,0:0:0:0:
48,56,198422,2,0,P|47:113|75:165,1,100
160,228,198918,5,0,0:0:0:0:
216,324,199166,2,0,L|328:348,1,100
424,304,199661,1,0,0:0:0:0:
360,232,199909,6,0,P|328:240|232:128,1,200
256,44,200529,1,0,0:0:0:0:
344,48,200653,2,0,L|392:64,2,50
312,140,201025,1,0,0:0:0:0:
404,140,201149,2,0,L|449:160,1,50
464,248,201397,2,0,L|412:348,1,100
200,240,201893,5,0,0:0:0:0:
376,256,202141,1,0,0:0:0:0:
316,104,202389,2,0,P|264:144|260:188,1,100
484,160,202885,6,0,P|476:104|448:56,1,100
232,100,203380,1,0,0:0:0:0:
328,292,203628,5,0,0:0:0:0:
376,52,203876,1,0,0:0:0:0:
25,91,205860,6,0,P|73:130|186:117,1,175
226,56,206356,2,0,P|282:76|343:219,1,200
188,359,206727,1,0,0:0:0:0:
104,141,206852,6,0,P|170:270|250:292,1,200
416,235,207223,1,0,0:0:0:0:
239,124,207347,2,0,P|253:188|294:233,1,100
450,37,207595,2,0,L|351:23,1,100
164,38,207843,6,0,P|191:95|97:215,1,200
24,49,208215,1,0,0:0:0:0:
271,79,208339,2,0,L|349:148,1,100
488,179,208587,1,0,0:0:0:0:
350,22,208711,1,0,0:0:0:0:
190,60,208835,6,0,P|133:77|75:64,1,100
28,213,209083,1,0,0:0:0:0:
192,146,209207,1,0,0:0:0:0:
282,288,209331,2,0,P|251:351|195:371,1,100
96,149,209579,2,0,P|161:135|199:150,1,100
370,331,209827,6,0,P|420:240|410:124,1,200
284,205,210199,1,0,0:0:0:0:
191,46,210323,2,0,L|394:25,1,200
498,207,210694,1,0,0:0:0:0:
345,145,210818,6,0,L|247:121,1,100
46,195,211066,2,0,P|90:219|149:223,1,100
254,20,211314,2,0,P|207:50|168:108,1,100
340,239,211562,1,0,0:0:0:0:
385,81,211686,1,0,0:0:0:0:
242,206,211810,6,0,L|265:340,1,100
498,207,212058,2,0,P|465:159|411:149,1,100
278,120,212306,1,0,0:0:0:0:
401,282,212430,1,0,0:0:0:0:
485,84,212554,2,0,L|367:46,1,100
229,29,212802,6,0,L|110:60,1,100
37,163,213050,2,0,L|148:218,1,100
316,328,213298,2,0,P|268:346|115:323,1,200
472,27,213794,6,0,L|451:241,1,200
343,108,214166,1,0,0:0:0:0:
212,217,214290,2,0,P|175:172|235:50,1,200
351,199,214661,1,0,0:0:0:0:
100,242,214785,6,0,P|164:235|287:335,1,200
84,354,215157,1,0,0:0:0:0:
38,179,215281,2,0,L|27:70,1,100
176,25,215529,2,0,L|186:138,1,100
259,260,215777,6,0,P|332:256|435:174,1,200
320,46,216149,1,0,0:0:0:0:
183,125,216273,2,0,P|243:148|291:146,1,100
486,261,216521,1,0,0:0:0:0:
426,98,216645,1,0,0:0:0:0:
295,233,216769,6,0,L|354:346,1,100
163,355,217017,1,0,0:0:0:0:
183,199,217141,1,0,0:0:0:0:
33,221,217265,2,0,L|69:321,1,100
249,102,217513,2,0,P|165:79|56:117,1,200
343,356,218009,6,0,L|366:240,1,100
477,92,218256,2,0,P|408:91|288:33,1,200
159,27,218628,1,0,0:0:0:0:
57,126,218752,6,0,L|32:243,1,100
266,192,219000,2,0,P|175:218|109:303,1,200
140,137,219372,1,0,0:0:0:0:
341,238,219496,2,0,P|345:180|324:122,1,100
190,39,219744,6,0,L|304:36,1,100
495,98,219992,2,0,L|392:94,1,100
231,137,220240,1,0,0:0:0:0:
435,224,220364,1,0,0:0:0:0:
254,290,220488,2,0,P|275:227|299:197,1,100
485,180,220736,6,0,L|467:295,1,100
293,358,220984,1,0,0:0:0:0:
131,281,221108,1,0,0:0:0:0:
217,197,221232,1,0,0:0:0:0:
178,355,221356,1,0,0:0:0:0:
80,178,221480,1,0,0:0:0:0:
283,263,221604,1,0,0:0:0:0:
49,341,221728,1,0,0:0:0:0:
357,49,221975,6,0,L|197:23,1,160
72,104,222347,1,0,0:0:0:0:
239,162,222471,1,0,0:0:0:0:
106,171,222595,1,0,0:0:0:0:
121,40,222719,1,0,0:0:0:0:
176,215,222843,1,0,0:0:0:0:
268,85,222967,1,0,0:0:0:0:
105,250,223091,1,0,0:0:0:0:
200,24,223215,2,0,L|179:127,1,80
258,243,223463,2,0,P|283:191|411:166,1,160
487,338,223959,5,0,0:0:0:0:
345,235,224083,1,0,0:0:0:0:
343,349,224207,1,0,0:0:0:0:
461,222,224331,1,0,0:0:0:0:
275,330,224455,1,0,0:0:0:0:
370,150,224579,1,0,0:0:0:0:
411,286,224703,1,0,0:0:0:0:
232,184,224827,1,0,0:0:0:0:
418,360,224951,1,0,0:0:0:0:
491,140,225075,1,0,0:0:0:0:
319,262,225199,2,0,P|308:225|306:167,1,80
407,19,225447,2,0,P|418:65|328:92,1,160
32,32,225942,5,0,0:0:0:0:
211,354,226190,2,0,L|402:328,1,160
480,32,226686,5,0,0:0:0:0:
301,354,226934,2,0,L|110:328,1,160
257,32,227430,1,0,0:0:0:0:
465,184,227678,5,0,0:0:0:0:
176,91,227926,2,0,L|12:138,1,160
250,347,228422,1,0,0:0:0:0:
252,31,228670,5,0,0:0:0:0:
442,71,228794,1,0,0:0:0:0:
321,186,228918,2,0,P|275:173|250:138,1,80
368,45,229166,1,0,0:0:0:0:
402,207,229290,1,0,0:0:0:0:
302,91,229413,1,0,0:0:0:0:
467,149,229537,1,0,0:0:0:0:
255,150,229661,1,0,0:0:0:0:
419,333,229909,6,0,P|338:336|263:288,1,160
120,210,230281,1,0,0:0:0:0:
199,339,230405,1,0,0:0:0:0:
190,166,230529,1,0,0:0:0:0:
126,315,230653,1,0,0:0:0:0:
263,198,230777,1,0,0:0:0:0:
115,135,230901,1,0,0:0:0:0:
200,258,231025,1,0,0:0:0:0:
260,105,231149,2,0,P|220:88|176:86,1,80
29,278,231397,2,0,P|58:344|126:306,1,160
438,135,231893,5,0,0:0:0:0:
309,48,232017,1,0,0:0:0:0:
329,235,232141,1,0,0:0:0:0:
425,55,232265,1,0,0:0:0:0:
221,127,232389,1,0,0:0:0:0:
463,207,232513,1,0,0:0:0:0:
261,303,232637,6,0,P|242:252|235:205,1,80
319,33,232885,2,0,P|335:77|343:128,1,80
83,223,233132,2,0,P|94:165|113:128,1,80
481,132,233380,2,0,P|470:190|451:227,1,80
262,352,233628,1,0,0:0:0:0:
13,192,233876,5,0,0:0:0:0:
174,41,234124,2,0,P|253:29|331:46,1,160
254,358,234620,5,0,0:0:0:0:
461,112,234868,2,0,P|478:173|455:275,1,160
255,39,235364,1,0,0:0:0:0:
100,185,235612,6,0,L|122:108,1,80
306,158,235860,2,0,L|325:255,1,80
146,355,236108,2,0,L|161:277,1,80
434,270,236356,2,0,L|460:380,1,80
306,158,236604,5,0,0:0:0:0:
257,324,236728,1,0,0:0:0:0:
225,110,236851,1,0,0:0:0:0:
331,292,236975,1,0,0:0:0:0:
160,163,237099,1,0,0:0:0:0:
368,108,237223,1,0,0:0:0:0:
195,263,237347,1,0,0:0:0:0:
270,30,237471,1,0,0:0:0:0:
460,157,237595,6,0,P|479:214|443:365,1,200
310,364,237967,1,0,0:0:0:0:
158,262,238091,2,0,L|211:155,1,100
375,166,238339,2,0,L|317:266,1,100
300,23,238587,5,0,0:0:0:0:
339,33,238711,1,0,0:0:0:0:
377,46,238835,2,0,P|429:79|448:129,1,100
235,285,239083,5,0,0:0:0:0:
196,275,239207,1,0,0:0:0:0:
158,262,239331,2,0,P|106:229|87:179,1,100
282,33,239579,6,0,L|73:72,1,200
19,224,239951,1,0,0:0:0:0:
218,142,240075,2,0,P|271:160|308:201,1,100
140,347,240323,2,0,P|86:330|50:288,1,100
333,260,240571,5,0,0:0:0:0:
370,274,240695,1,0,0:0:0:0:
400,300,240819,2,0,L|305:352,1,100
133,268,241066,5,0,0:0:0:0:
96,254,241190,1,0,0:0:0:0:
66,228,241314,2,0,L|161:176,1,100
320,112,241562,6,0,P|376:127|445:263,1,200
347,352,241934,1,0,0:0:0:0:
186,365,242058,2,0,L|214:269,1,100
13,141,242306,2,0,L|48:234,1,100
223,167,242554,5,0,0:0:0:0:
257,145,242678,1,0,0:0:0:0:
292,124,242802,2,0,P|267:80|201:60,1,100
404,173,243050,5,0,0:0:0:0:
426,207,243174,1,0,0:0:0:0:
446,242,243298,2,0,P|490:217|510:151,1,100
443,334,243546,6,0,L|245:357,1,200
84,275,243918,1,0,0:0:0:0:
224,169,244042,2,0,P|233:218|222:267,1,100
14,138,244290,2,0,P|39:95|79:65,1,100
302,36,244537,5,0,0:0:0:0:
146,124,244661,1,0,0:0:0:0:
304,200,244785,1,0,0:0:0:0:
192,37,244909,1,0,0:0:0:0:
381,111,245033,1,0,0:0:0:0:
177,243,245157,1,0,0:0:0:0:
371,316,245281,1,0,0:0:0:0:
264,117,245405,1,0,0:0:0:0:
