osu file format v14

[General]
AudioFilename: audio.mp3
AudioLeadIn: 0
PreviewTime:59098
Countdown: 0
SampleSet: Soft
StackLeniency: 0.5
Mode: 0
LetterboxInBreaks: 0
WidescreenStoryboard: 1

[Editor]
Bookmarks: 22833,45421,70833,82127
DistanceSpacing: 0.5
BeatDivisor: 4
GridSize: 8
TimelineZoom: 1.4

[Metadata]
Title:over and over (TV Size)
TitleUnicode:over and over (TV Size)
Artist:Iguchi Yuka
ArtistUnicode:井口裕香
Creator:Sotarks
Version:Stratosu's Insane
Source:ダンジョンに出会いを求めるのは間違っているだろうかⅢ
Tags:rosiie kudosu stratos so0p soop op opening anime japanese pop jpop j-pop is it wrong to try pick up chiga in a dungeon? ni deai wo motomeru no wa machigatteiru darou ka III danmachi ダンまち 3rd third season that I want meet you familia myth yukachi clearly 御恵明希 aki mimegumi シド sid 渡辺拓也 female vocalist girls
BeatmapID:2631591
BeatmapSetID:1266199

[Difficulty]
HPDrainRate:4.7
CircleSize:4.1
OverallDifficulty:8.3
ApproachRate:8.8
SliderMultiplier:1.6
SliderTickRate:1

[Events]
//Background and Video events
0,0,"bg.jpg"
//Break Periods
//Storyboard Layer 0 (Background)
//Storyboard Layer 1 (Fail)
//Storyboard Layer 2 (Pass)
//Storyboard Layer 3 (Foreground)
//Storyboard Layer 4 (Overlay)
//Storyboard Sound Samples

[TimingPoints]
3069,352.941176470588,4,2,22,52,1,0
3069,-181.818181818182,4,2,22,52,0,0
10127,-181.818181818182,4,2,22,82,0,0
10833,-133.333333333333,4,2,22,72,0,0
11186,-90.9090909090909,4,2,22,72,0,0
11539,-100,4,2,22,82,0,0
22833,-121.951219512195,4,2,22,62,0,0
32716,-86.9565217391304,4,2,22,82,0,0
34127,-86.9565217391304,4,2,22,72,0,0
34480,-100,4,2,22,72,0,0
39774,-90.9090909090909,4,2,22,72,0,0
40480,-100,4,2,22,72,0,0
42245,-90.9090909090909,4,2,22,72,0,0
45421,-111.111111111111,4,2,22,72,0,0
53892,-105.263157894737,4,2,22,72,0,0
58127,-105.263157894737,4,2,22,82,0,0
58833,-105.263157894737,4,2,22,72,0,0
59186,-95.2380952380954,4,2,22,72,0,0
59539,-95.2380952380954,4,2,22,92,0,0
74186,-74.0740740740741,4,2,22,92,0,0
74892,-95.2380952380952,4,2,22,92,0,0
75598,-74.0740740740741,4,2,22,92,0,0
76127,-95.2380952380952,4,2,22,92,0,0
82127,-176.36684303351,4,2,22,92,0,0
82216,-176.36684303351,4,2,22,72,0,0
83539,-95.2380952380952,4,2,22,82,0,0

[Colours]
Combo1 : 74,123,236
Combo2 : 255,251,176

[HitObjects]
32,64,3069,6,0,B|74:42|119:71|111:86|157:114|199:90,1,176.000005371094,2|0,0:2|0:0,0:0:0:0:
217,8,4127,2,0,L|173:14,1,44.0000013427735,2|2,0:2|0:2,0:0:0:0:
108,104,4480,2,0,L|123:198,1,88.000002685547,0|2,0:2|0:2,0:0:0:0:
206,216,5010,2,0,L|192:302,1,88.000002685547,2|2,0:2|0:2,0:0:0:0:
274,366,5716,1,2,0:2:0:0:
274,366,5892,6,0,P|324:342|366:358,1,88.000002685547,2|2,0:2|0:2,0:0:0:0:
438,384,6421,2,0,L|453:289,1,88.000002685547,2|2,0:2|0:2,0:0:0:0:
354,160,7127,1,2,0:2:0:0:
354,160,7304,2,0,L|367:246,1,88.000002685547,2|2,0:2|0:2,0:0:0:0:
281,219,7833,2,0,P|273:106|288:93,1,132.00000402832,2|2,0:2|0:2,0:0:0:0:
427,59,8539,1,2,0:2:0:0:
339,12,8716,6,0,L|349:75,1,44.0000013427735,2|2,0:2|0:2,0:0:0:0:
270,104,9068,1,2,0:2:0:0:
270,104,9245,2,0,L|83:74,1,176.000005371094,2|0,0:2|0:2,0:0:0:0:
215,16,10127,5,10,0:2:0:0:
44,134,10304,1,10,0:2:0:0:
232,224,10480,1,10,0:2:0:0:
163,108,10833,6,0,L|159:137,1,30.0000011444092,8|8,1:2|1:3,0:0:0:0:
181,99,11010,2,0,L|175:128,1,30.0000011444092,4|4,1:3|1:3,0:0:0:0:
232,224,11186,2,0,P|286:186|371:212,1,132.00000402832,8|4,1:2|1:3,0:0:0:0:
466,300,11539,6,0,P|387:287|307:274,1,160,6|0,1:2|1:2,0:0:0:0:
116,310,12068,1,0,0:2:0:0:
203,384,12245,2,0,L|218:289,1,80,0|0,1:2|0:2,0:0:0:0:
10,226,12598,2,0,L|22:305,1,80,0|8,1:2|0:2,0:0:0:0:
147,162,12951,6,0,B|221:144|226:210|298:190,1,160,2|2,1:2|1:2,0:0:0:0:
433,127,13480,1,2,0:2:0:0:
345,80,13657,1,8,1:2:0:0:
345,80,13745,1,0,1:2:0:0:
345,80,13833,2,0,L|355:143,1,40,2|0,1:2|1:2,0:0:0:0:
426,0,14010,1,8,1:3:0:0:
426,0,14098,1,8,1:3:0:0:
426,0,14186,2,0,L|415:63,1,40,4|4,1:3|1:3,0:0:0:0:
269,111,14363,6,0,B|231:77|184:80|184:80|167:113|118:107,1,160,6|0,1:2|1:2,0:0:0:0:
29,63,14892,1,0,0:2:0:0:
147,197,15068,2,0,L|126:323,1,120,2|0,1:2|0:0,0:0:0:0:
57,356,15421,2,0,P|46:304|78:259,1,80,0|8,1:2|0:2,0:0:0:0:
204,356,15774,6,0,P|242:318|351:345,1,160,2|8,1:2|0:2,0:0:0:0:
445,277,16304,1,0,1:2:0:0:
445,277,16392,1,0,1:2:0:0:
445,277,16480,1,8,1:3:0:0:
356,132,16657,2,0,L|343:211,1,80,10|0,0:2|0:0,0:0:0:0:
147,108,17010,1,8,0:2:0:0:
147,108,17098,1,8,0:2:0:0:
147,108,17186,6,0,L|265:89,1,120,6|0,1:2|0:0,0:0:0:0:
321,16,17539,2,0,P|258:0|231:11,1,80,0|0,1:2|0:2,0:0:0:0:
343,211,17892,2,0,L|356:132,1,80,2|2,1:2|0:2,0:0:0:0:
253,226,18245,1,0,1:2:0:0:
362,301,18421,6,0,B|425:290|425:290|461:317|461:317|525:307,1,160,10|0,0:2|0:2,0:0:0:0:
250,349,18951,2,0,L|170:336,1,80,0|0,1:2|0:2,0:0:0:0:
57,316,19304,1,10,1:2:0:0:
57,316,19392,1,0,1:2:0:0:
57,316,19480,2,0,L|67:379,1,40,0|0,1:2|1:2,0:0:0:0:
133,221,19657,1,10,1:3:0:0:
133,221,19745,1,4,1:3:0:0:
133,221,19833,2,0,L|126:260,1,40,4|4,1:3|1:3,0:0:0:0:
46,166,20010,6,0,P|106:124|166:133,1,120,6|0,1:2|0:0,0:0:0:0:
233,178,20363,2,0,L|248:83,1,80,2|2,1:2|0:2,0:0:0:0:
170,16,20716,1,0,1:2:0:0:
322,146,20892,2,0,L|401:133,1,80,2|0,0:2|1:0,0:0:0:0:
482,181,21245,1,8,0:2:0:0:
348,52,21421,5,10,1:2:0:0:
489,189,21598,1,10,1:2:0:0:
299,242,21774,1,10,1:2:0:0:
378,161,21951,1,10,1:2:0:0:
424,318,22127,1,10,1:3:0:0:
211,173,22304,2,0,P|123:188|52:198,1,160,6|0,1:2|0:0,0:0:0:0:
147,58,22833,6,0,P|204:87|265:70,2,131.200002001953,4|0|0,1:2|1:2|1:2,0:0:0:0:
70,0,23716,1,2,0:2:0:0:
12,77,23892,1,2,1:2:0:0:
89,135,24068,6,0,P|100:203|109:264,1,131.200002001953,2|2,0:2|0:2,0:0:0:0:
190,357,24598,1,2,1:2:0:0:
190,357,24774,2,0,L|200:292,1,65.6000010009766,2|0,0:2|1:2,0:0:0:0:
257,169,25127,2,0,L|267:233,1,65.6000010009766,2|0,0:2|1:2,0:0:0:0:
428,258,25480,1,10,0:2:0:0:
358,325,25657,6,0,P|415:353|478:339,1,131.200002001953,2|2,1:2|1:2,0:0:0:0:
498,191,26186,2,0,P|440:162|377:176,1,131.200002001953,2|2,0:2|0:2,0:0:0:0:
288,113,26716,2,0,L|224:123,1,65.6000010009766,2|0,1:2|0:2,0:0:0:0:
351,37,27068,6,0,L|480:16,2,131.200002001953,2|0|0,1:2|1:2|1:2,0:0:0:0:
288,113,27951,1,8,0:2:0:0:
149,55,28127,1,0,1:2:0:0:
247,14,28304,1,8,0:2:0:0:
189,153,28480,6,0,P|126:166|70:133,2,131.200002001953,0|0|0,1:2|1:2|1:2,0:0:0:0:
288,113,29363,1,2,0:2:0:0:
288,113,29539,2,0,L|298:177,1,65.6000010009766,2|2,1:2|0:2,0:0:0:0:
389,263,29892,5,2,1:2:0:0:
389,263,30068,2,0,P|405:232|404:202,1,65.6000010009766,2|0,0:2|1:2,0:0:0:0:
298,177,30421,2,0,P|282:208|283:238,1,65.6000010009766,2|0,0:2|1:2,0:0:0:0:
220,359,30774,2,0,L|210:295,1,65.6000010009766,2|0,0:2|1:2,0:0:0:0:
77,181,31127,1,10,0:2:0:0:
129,260,31304,6,0,P|66:275|9:247,2,131.200002001953,0|2|0,1:2|1:2|1:2,0:0:0:0:
488,75,32363,6,0,P|461:51|482:80,1,98.4000015014649,8|0,1:2|0:0,0:0:0:0:
475,64,32716,6,0,B|425:58|391:94|391:94|357:130|308:124,1,184.000003509522,14|0,0:2|1:2,0:0:0:0:
201,68,33245,6,0,B|172:36|172:36|190:4|190:4|217:28|217:28|201:68,1,138.000002632141,10|0,0:2|0:0,0:0:0:0:
159,142,33598,6,0,B|110:154|93:200|93:200|59:165|10:165,1,184.000003509522,10|8,0:2|0:2,0:0:0:0:
2,184,34039,1,8,0:2:0:0:
2,184,34127,1,0,1:2:0:0:
201,68,34480,6,0,B|271:80|271:80|281:95|281:95|350:108,1,160,8|0,0:2|1:2,0:0:0:0:
429,54,35010,1,2,1:2:0:0:
502,143,35186,1,10,0:2:0:0:
384,239,35363,6,0,P|332:182|350:108,1,160,2|2,1:2|1:2,0:0:0:0:
256,242,35892,1,10,0:2:0:0:
256,242,35980,1,2,0:0:0:0:
256,242,36068,2,0,P|180:261|114:221,1,160,2|2,0:2|1:2,0:0:0:0:
149,117,36598,2,0,L|136:37,1,80,8|2,0:2|0:2,0:0:0:0:
18,174,36951,6,0,L|42:332,1,160,2|10,1:2|0:2,0:0:0:0:
233,379,37480,2,0,P|252:346|252:305,1,80,2|0,0:2|1:2,0:0:0:0:
220,217,37833,1,2,1:2:0:0:
152,282,38010,2,0,P|132:314|132:355,1,80,10|0,0:2|0:2,0:0:0:0:
312,236,38363,6,0,P|358:179|343:93,1,160,2|8,1:2|0:2,0:0:0:0:
237,55,38892,1,0,1:2:0:0:
237,55,38980,1,8,0:2:0:0:
237,55,39068,2,0,L|158:67,1,80,0|0,1:2|1:2,0:0:0:0:
346,98,39421,2,0,L|425:86,1,80,8|0,0:2|0:2,0:0:0:0:
213,195,39774,6,0,B|172:198|134:206|134:206|119:228|119:228|51:253,1,176.000005371094,4|8,1:2|0:2,0:0:0:0:
276,379,40304,1,0,1:2:0:0:
276,379,40392,1,8,0:2:0:0:
276,379,40480,2,0,P|295:345|294:305,1,80,0|2,1:2|1:2,0:0:0:0:
198,288,40833,2,0,P|179:321|179:362,1,80,10|2,0:2|0:2,0:0:0:0:
386,299,41186,6,0,P|375:260|347:233,1,80,2|2,1:2|1:2,0:0:0:0:
255,220,41539,1,8,0:2:0:0:
387,132,41716,1,2,1:2:0:0:
387,132,41804,1,8,0:2:0:0:
387,132,41892,2,0,L|466:144,1,80,0|2,1:2|1:2,0:0:0:0:
382,16,42245,6,0,P|332:57|267:57,1,132.00000402832,8|0,0:2|0:0,0:0:0:0:
258,46,42598,5,12,0:2:0:0:
182,72,42774,1,0,1:2:0:0:
106,98,42951,1,0,1:2:0:0:
237,220,43127,6,0,P|251:178|245:135,1,88.000002685547,8|0,0:2|1:2,0:0:0:0:
117,13,43480,1,0,1:2:0:0:
325,106,43657,2,0,L|419:119,1,88.000002685547,10|2,0:2|1:2,0:0:0:0:
237,220,44010,5,12,0:2:0:0:
161,246,44186,1,0,1:2:0:0:
85,272,44363,1,0,1:2:0:0:
286,370,44539,6,0,P|300:328|294:285,1,88.000002685547,8|0,0:2|1:2,0:0:0:0:
172,163,44892,1,0,1:2:0:0:
362,232,45068,2,0,L|453:248,1,88.000002685547,8|0,0:2|1:2,0:0:0:0:
297,30,45421,6,0,L|275:173,1,143.999995605469,6|8,1:2|0:2,0:0:0:0:
122,86,45951,2,0,L|193:74,1,71.9999978027344,2|0,1:2|0:0,0:0:0:0:
64,172,46304,1,10,0:2:0:0:
156,251,46480,2,0,L|167:179,1,71.9999978027344,2|2,1:2|0:2,0:0:0:0:
81,325,46833,6,0,P|154:284|224:324,1,143.999995605469,2|10,1:2|0:2,0:0:0:0:
290,369,47363,2,0,L|309:245,1,107.999996704102,2|0,1:2|0:0,0:0:0:0:
356,192,47716,2,0,P|305:175|282:182,1,71.9999978027344,10|0,0:2|1:2,0:0:0:0:
392,271,48068,1,8,0:2:0:0:
450,198,48245,6,0,L|427:55,1,143.999995605469,0|8,1:2|0:2,0:0:0:0:
496,0,48774,2,0,P|512:51|497:85,1,71.9999978027344,0|0,1:2|0:0,0:0:0:0:
348,91,49127,2,0,L|268:78,1,71.9999978027344,10|2,0:2|1:2,0:0:0:0:
351,4,49480,1,10,0:2:0:0:
202,121,49657,6,0,L|224:263,1,143.999995605469,2|10,1:2|0:2,0:0:0:0:
156,319,50186,2,0,P|139:267|154:233,1,71.9999978027344,2|0,1:2|0:2,0:0:0:0:
295,203,50539,5,8,0:2:0:0:
382,216,50716,1,0,1:2:0:0:
470,229,50892,1,8,0:2:0:0:
344,115,51068,6,0,B|306:90|272:95|272:95|252:130|208:126,1,143.999995605469,0|8,1:2|0:2,0:0:0:0:
88,96,51598,2,0,L|101:182,1,71.9999978027344,0|0,1:2|0:2,0:0:0:0:
165,48,51951,1,10,0:2:0:0:
17,149,52127,1,2,1:2:0:0:
179,227,52304,1,10,0:2:0:0:
179,227,52392,1,8,0:2:0:0:
179,227,52480,6,0,B|245:210|250:270|314:252,1,143.999995605469,2|10,1:2|0:2,0:0:0:0:
409,225,53010,2,0,L|397:296,1,71.9999978027344,2|0,1:2|0:2,0:0:0:0:
281,104,53363,2,0,L|292:175,1,71.9999978027344,10|0,0:2|1:2,0:0:0:0:
196,305,53716,1,10,0:2:0:0:
188,308,53804,1,8,0:2:0:0:
180,310,53892,6,0,B|116:299|116:299|97:321|97:321|34:311,1,151.999995941162,6|8,1:2|0:2,0:0:0:0:
51,154,54421,1,0,0:0:0:0:
50,154,54598,2,0,L|61:229,1,75.9999979705811,0|0,1:2|1:2,0:0:0:0:
207,133,54951,2,0,L|195:208,1,75.9999979705811,8|0,0:2|0:2,0:0:0:0:
82,57,55304,6,0,L|157:45,1,75.9999979705811,0|0,1:2|1:2,0:0:0:0:
302,123,55657,2,0,L|283:240,1,113.999996955872,8|8,0:2|0:2,0:0:0:0:
346,293,56010,2,0,P|367:239|357:208,1,75.9999979705811,2|0,1:2|1:2,0:0:0:0:
225,296,56363,1,10,0:2:0:0:
394,383,56539,1,2,1:2:0:0:
190,211,56716,6,0,L|152:216,5,37.9999989852906,14|0|0|0|8|0,0:2|1:2|1:2|1:2|1:3|1:2,0:0:0:0:
28,167,57245,2,0,L|65:172,5,37.9999989852906,10|0|0|0|4|0,1:2|1:2|1:2|1:2|1:3|1:2,0:0:0:0:
156,85,57774,2,0,L|147:140,1,37.9999989852906,10|0,1:2|0:0,0:0:0:0:
58,13,57951,2,0,L|66:68,1,37.9999989852906,0|0,0:2|0:0,0:0:0:0:
274,122,58127,5,14,0:2:0:0:
63,267,58304,1,10,0:2:0:0:
236,50,58480,1,10,0:2:0:0:
101,339,58833,6,0,L|89:410,1,37.9999989852906,8|8,0:2|0:3,0:0:0:0:
114,331,59009,2,0,L|102:402,1,37.9999989852906,4|4,0:3|0:3,0:0:0:0:
257,209,59186,6,0,B|310:200|310:200|330:215|330:215|384:207,1,125.999996154785,14|0,0:2|0:2,0:0:0:0:
457,277,59539,6,0,B|470:190|470:190|466:185|466:185|479:104,2,167.999994873047,6|8|0,1:2|0:2|1:2,0:0:0:0:
324,179,60421,1,0,1:2:0:0:
352,360,60598,2,0,L|367:265,1,83.9999974365235,10|2,0:2|0:2,0:0:0:0:
226,184,60951,6,0,L|101:203,1,125.999996154785,0|0,1:2|0:0,0:0:0:0:
36,147,61304,2,0,P|74:122|128:129,1,83.9999974365235,10|2,0:2|0:2,0:0:0:0:
80,289,61657,1,0,1:2:0:0:
196,96,61833,2,0,P|194:54|171:20,1,83.9999974365235,2|8,0:2|0:2,0:0:0:0:
320,180,62186,1,2,1:2:0:0:
324,170,62274,1,8,0:0:0:0:
330,161,62363,6,0,B|369:125|419:128|419:128|436:163|488:156,1,167.999994873047,2|10,1:2|0:2,0:0:0:0:
382,318,62892,2,0,L|397:223,1,83.9999974365235,2|0,0:2|1:2,0:0:0:0:
223,141,63245,2,0,L|236:223,1,83.9999974365235,2|8,0:2|0:2,0:0:0:0:
149,326,63598,1,2,1:2:0:0:
148,316,63686,1,8,0:0:0:0:
142,308,63774,6,0,P|95:262|-16:286,2,167.999994873047,0|8|0,1:2|0:2|1:2,0:0:0:0:
259,219,64657,1,2,0:2:0:0:
158,161,64833,1,10,0:2:0:0:
217,308,65010,1,2,1:2:0:0:
225,312,65098,1,8,0:0:0:0:
233,315,65186,6,0,L|315:301,1,83.9999974365235,4|2,1:2|0:2,0:0:0:0:
454,354,65539,1,10,0:2:0:0:
416,171,65716,2,0,L|402:253,1,83.9999974365235,2|0,0:2|1:2,0:0:0:0:
336,118,66068,1,2,0:2:0:0:
496,236,66245,1,10,0:2:0:0:
310,303,66421,1,2,1:2:0:0:
300,306,66510,1,8,0:0:0:0:
290,309,66598,6,0,B|226:298|226:298|199:318|199:318|128:307,1,167.999994873047,0|8,1:2|0:2,0:0:0:0:
61,356,67127,1,2,0:2:0:0:
163,154,67304,2,0,L|179:256,1,83.9999974365235,2|2,1:2|0:2,0:0:0:0:
225,99,67657,1,10,0:2:0:0:
91,215,67833,1,2,0:2:0:0:
293,148,68010,5,14,0:2:0:0:
372,135,68186,1,0,0:0:0:0:
451,122,68363,1,2,1:2:0:0:
248,305,68539,6,0,L|234:218,1,83.9999974365235,10|0,0:2|1:0,0:0:0:0:
151,177,68892,1,0,0:2:0:0:
332,253,69068,2,0,L|395:242,1,41.9999987182618,8|8,0:3|0:3,0:0:0:0:
345,262,69245,2,0,L|408:251,1,41.9999987182618,4|4,0:3|0:3,0:0:0:0:
170,350,69421,6,0,L|87:336,1,83.9999974365235,0|0,1:2|0:2,0:0:0:0:
267,180,69774,1,0,1:2:0:0:
118,256,69951,1,8,0:2:0:0:
155,120,70127,1,8,0:2:0:0:
155,120,70215,1,0,0:0:0:0:
155,120,70303,2,0,L|161:161,1,41.9999987182618,0|0,1:2|1:2,0:0:0:0:
281,40,70480,1,8,0:2:0:0:
281,40,70568,1,8,0:3:0:0:
281,40,70656,2,0,L|274:81,1,41.9999987182618,4|4,0:3|0:3,0:0:0:0:
368,202,70833,6,0,P|403:162|526:191,2,167.999994873047,6|8|0,1:2|0:2|1:2,0:0:0:0:
204,254,71716,1,0,1:2:0:0:
259,326,71892,2,0,L|341:340,1,83.9999974365235,10|2,0:2|0:2,0:0:0:0:
235,164,72245,6,0,P|173:164|123:202,1,125.999996154785,0|0,1:2|0:0,0:0:0:0:
82,273,72598,2,0,L|0:258,1,83.9999974365235,10|2,0:2|0:2,0:0:0:0:
204,254,72951,1,0,1:2:0:0:
111,98,73127,2,0,L|126:16,1,83.9999974365235,2|8,0:2|0:3,0:0:0:0:
310,114,73480,1,6,0:3:0:0:
314,104,73568,1,4,0:3:0:0:
320,95,73657,6,0,B|359:59|409:62|409:62|430:96|478:90,1,167.999994873047,14|2,0:2|1:2,0:0:0:0:
329,247,74186,6,0,P|310:195|338:242,1,162.000000617981,10|0,0:2|0:0,0:0:0:0:
421,278,74539,6,0,L|401:384,1,108.000000411987,10|0,0:2|0:0,0:0:0:0:
191,291,74892,6,0,L|221:125,1,167.999994873047,14|0,0:2|1:2,0:0:0:0:
243,122,75333,1,0,1:0:0:0:
243,122,75421,1,10,0:2:0:0:
39,15,75598,2,0,P|24:114|117:150,1,216.000000823975,2|0,1:2|1:2,0:0:0:0:
325,26,76127,6,0,L|318:67,1,41.9999987182618,8|8,0:2|0:3,0:0:0:0:
338,18,76303,2,0,L|331:59,1,41.9999987182618,4|4,0:3|0:3,0:0:0:0:
491,209,76480,2,0,P|415:186|412:107,1,167.999994873047,4|8,1:2|0:2,0:0:0:0:
338,247,77010,2,0,L|255:231,1,83.9999974365235,0|0,0:2|1:2,0:0:0:0:
205,157,77363,1,2,0:2:0:0:
35,260,77539,1,10,0:2:0:0:
107,353,77716,1,2,1:2:0:0:
113,346,77804,1,8,0:0:0:0:
118,340,77892,6,0,P|146:264|103:195,1,167.999994873047,2|10,1:2|0:2,0:0:0:0:
8,42,78421,2,0,P|43:62|85:60,1,83.9999974365235,2|0,0:2|1:2,0:0:0:0:
202,3,78774,1,0,0:2:0:0:
96,153,78951,6,0,L|103:194,1,41.9999987182618,8|8,0:2|0:3,0:0:0:0:
83,145,79127,2,0,L|90:186,1,41.9999987182618,4|4,0:3|0:3,0:0:0:0:
252,317,79304,6,0,P|195:259|214:181,1,167.999994873047,4|8,1:2|0:2,0:0:0:0:
336,54,79833,2,0,L|320:137,1,83.9999974365235,0|0,0:2|1:2,0:0:0:0:
424,270,80186,1,2,0:2:0:0:
506,227,80363,1,10,0:2:0:0:
428,178,80539,1,2,0:2:0:0:
316,312,80716,6,0,P|235:311|193:242,1,167.999994873047,2|10,1:2|1:2,0:0:0:0:
134,176,81245,1,2,1:2:0:0:
134,176,81333,1,0,1:2:0:0:
134,176,81421,2,0,L|141:134,1,41.9999987182618,8|0,1:2|1:2,0:0:0:0:
58,35,81598,2,0,L|65:77,1,41.9999987182618,2|0,1:2|1:2,0:0:0:0:
247,175,81774,1,10,1:3:0:0:
247,175,81862,1,8,1:3:0:0:
247,175,81950,2,0,L|289:168,1,41.9999987182618,4|4,1:3|1:3,0:0:0:0:
406,232,82127,6,0,B|401:303|471:338|471:338|523:279|484:212,1,272.000005187988,6|2,1:2|0:2,0:0:0:0:
429,149,83363,1,0,1:0:0:0:
333,314,83539,6,0,B|251:294|246:366|166:344,1,167.999994873047,14|2,0:2|1:2,0:0:0:0:
38,242,84068,2,0,L|54:344,1,83.9999974365235,10|0,0:2|0:2,0:0:0:0:
209,180,84421,2,0,L|192:282,1,83.9999974365235,10|0,0:2|0:0,0:0:0:0:
92,120,84774,1,10,0:2:0:0:
102,123,84863,1,8,0:2:0:0:
112,126,84951,6,0,B|176:115|176:115|203:135|203:135|274:124,1,167.999994873047,6|10,1:2|0:2,0:0:0:0:
392,53,85480,2,0,L|365:218,1,167.999994873047,2|2,1:2|1:2,0:0:0:0:
471,128,86010,1,8,0:2:0:0:
283,300,86186,6,0,P|327:255|447:279,1,167.999994873047,2|0,1:2|1:2,0:0:0:0:
467,358,86716,2,0,L|380:344,1,83.9999974365235,8|0,0:2|0:2,0:0:0:0:
187,269,87068,2,0,L|200:351,1,83.9999974365235,0|0,1:2|1:2,0:0:0:0:
101,257,87421,1,10,0:2:0:0:
278,119,87598,6,0,L|264:201,1,83.9999974365235,6|0,1:2|0:0,0:0:0:0:
400,20,87951,5,10,1:2:0:0:
313,33,88128,1,10,1:2:0:0:
225,46,88304,1,10,1:2:0:0:
425,176,88480,5,10,1:2:0:0:
317,43,88657,1,10,1:2:0:0:
496,116,88833,1,10,1:2:0:0:
332,261,89010,1,14,1:2:0:0:
