osu file format v14

[General]
AudioFilename: audio.mp3
AudioLeadIn: 0
PreviewTime:59098
Countdown: 0
SampleSet: Soft
StackLeniency: 0.5
Mode: 0
LetterboxInBreaks: 0
WidescreenStoryboard: 1

[Editor]
DistanceSpacing: 1
BeatDivisor: 4
GridSize: 32
TimelineZoom: 1.4

[Metadata]
Title:over and over (TV Size)
TitleUnicode:over and over (TV Size)
Artist:Iguchi Yuka
ArtistUnicode:井口裕香
Creator:Sotarks
Version:Chiga's Normal
Source:ダンジョンに出会いを求めるのは間違っているだろうかⅢ
Tags:rosiie kudosu stratos so0p soop op opening anime japanese pop jpop j-pop is it wrong to try pick up chiga in a dungeon? ni deai wo motomeru no wa machigatteiru darou ka III danmachi ダンまち 3rd third season that I want meet you familia myth yukachi clearly 御恵明希 aki mimegumi シド sid 渡辺拓也 female vocalist girls
BeatmapID:2631588
BeatmapSetID:1266199

[Difficulty]
HPDrainRate:4
CircleSize:3
OverallDifficulty:4
ApproachRate:5
SliderMultiplier:0.999999999999999
SliderTickRate:1

[Events]
//Background and Video events
0,0,"bg.jpg"
//Break Periods
//Storyboard Layer 0 (Background)
//Storyboard Layer 1 (Fail)
//Storyboard Layer 2 (Pass)
//Storyboard Layer 3 (Foreground)
//Storyboard Layer 4 (Overlay)
//Storyboard Sound Samples

[TimingPoints]
3069,352.941176470588,4,2,22,52,1,0
3069,-111.111111111111,4,2,22,52,0,0
10127,-100,4,2,22,82,0,0
10833,-100,4,2,22,72,0,0
11539,-100,4,2,22,82,0,0
22833,-111.111111111111,4,2,22,62,0,0
32716,-100,4,2,22,82,0,0
34127,-100,4,2,22,72,0,0
58127,-100,4,2,22,82,0,0
58833,-100,4,2,22,72,0,0
59539,-90.9090909090909,4,2,22,92,0,0
82127,-100,4,2,22,92,0,0
82216,-100,4,2,22,72,0,0
83539,-90.9090909090909,4,2,22,82,0,0

[Colours]
Combo1 : 74,123,236
Combo2 : 255,251,176

[HitObjects]
36,105,3069,6,0,B|114:96|140:170|140:170|170:248|248:237,1,269.999991760254,2|2,0:2|0:2,0:0:0:0:
283,258,4304,2,0,P|334:211|328:143,1,134.999995880127,2|2,0:2|0:2,0:0:0:0:
291,126,5010,1,2,0:2:0:0:
349,57,5363,2,0,P|398:67|454:75,1,89.999997253418,2|2,0:2|0:2,0:0:0:0:
456,113,5892,6,0,P|445:162|438:218,1,89.999997253418,2|2,0:2|0:2,0:0:0:0:
421,242,6421,1,2,0:2:0:0:
340,201,6774,1,2,0:2:0:0:
260,242,7127,1,2,0:2:0:0:
256,192,7216,12,2,9245,0:2:0:0:
232,246,10127,6,0,P|225:217|216:180,2,50,10|10|10,0:2|0:2|0:2,0:0:0:0:
175,328,10833,2,0,P|150:333|126:339,1,50,8|4,1:2|1:3,0:0:0:0:
76,337,11186,1,8,1:2:0:0:
25,250,11539,6,0,P|61:219|118:221,1,99.9999999999999,6|0,1:2|1:2,0:0:0:0:
194,161,12245,2,0,P|181:112|170:63,1,99.9999999999999,0|0,1:2|1:2,0:0:0:0:
201,24,12774,1,8,0:2:0:0:
201,24,12951,6,0,P|275:34|297:62,1,99.9999999999999,2|2,1:2|1:2,0:0:0:0:
302,98,13480,1,2,0:2:0:0:
335,192,13833,2,0,P|374:220|423:217,1,99.9999999999999,2|4,1:2|1:3,0:0:0:0:
454,177,14363,6,0,B|396:212|396:212|442:306,1,150,6|0,1:2|0:2,0:0:0:0:
472,314,15068,2,0,B|405:320|405:320|395:326|395:326|320:334,1,150,2|8,1:2|0:2,0:0:0:0:
282,361,15774,1,2,1:2:0:0:
209,292,16127,2,0,P|186:236|209:187,1,99.9999999999999,8|8,0:2|1:3,0:0:0:0:
232,163,16657,2,0,P|254:107|231:58,1,99.9999999999999,10|8,0:2|0:2,0:0:0:0:
205,37,17186,6,0,P|159:45|85:57,1,99.9999999999999,6|0,1:2|1:2,0:0:0:0:
52,139,17892,1,2,1:2:0:0:
52,139,18068,2,0,P|86:144|120:150,1,50,2|0,0:2|1:2,0:0:0:0:
139,176,18421,6,0,P|178:213|237:216,1,99.9999999999999,10|0,0:2|0:2,0:0:0:0:
263,188,18951,1,0,1:2:0:0:
330,261,19304,2,0,P|381:253|432:244,1,99.9999999999999,10|10,1:2|1:3,0:0:0:0:
484,161,20010,6,0,P|434:153|385:145,1,99.9999999999999,6|2,1:2|1:2,0:0:0:0:
350,109,20539,2,0,P|319:78|252:70,1,99.9999999999999,2|2,0:2|0:2,0:0:0:0:
195,139,21245,1,8,0:2:0:0:
195,139,21421,6,0,L|206:201,2,50,10|10|10,1:2|1:2|1:2,0:0:0:0:
108,99,22127,1,10,1:3:0:0:
108,99,22304,2,0,L|87:214,1,99.9999999999999,6|0,1:2|0:0,0:0:0:0:
63,233,22833,5,4,1:2:0:0:
110,309,23186,2,0,P|167:331|207:317,1,89.999997253418,0|0,1:2|1:2,0:0:0:0:
227,294,23716,2,0,P|254:302|286:308,2,44.999998626709,2|2|2,0:2|1:2|0:2,0:0:0:0:
178,217,24421,2,0,P|151:225|119:231,2,44.999998626709,2|2|2,0:2|1:2|0:2,0:0:0:0:
234,146,25127,2,0,P|277:158|329:168,1,89.999997253418,2|10,0:2|0:2,0:0:0:0:
346,205,25657,6,0,P|390:196|433:183,1,89.999997253418,2|2,1:2|1:2,0:0:0:0:
467,154,26186,1,2,0:2:0:0:
471,68,26539,1,2,0:2:0:0:
471,68,26716,2,0,P|443:33|391:23,2,89.999997253418,2|2|0,1:2|1:2|1:2,0:0:0:0:
405,129,27774,2,0,P|379:121|350:116,2,44.999998626709,0|8|0,1:2|0:2|1:2,0:0:0:0:
444,161,28304,1,8,0:2:0:0:
444,161,28480,5,0,1:2:0:0:
419,247,28833,2,0,P|381:270|336:268,1,89.999997253418,0|0,1:2|1:2,0:0:0:0:
295,251,29363,2,0,P|299:226|304:187,2,44.999998626709,2|2|2,0:2|1:2|0:2,0:0:0:0:
259,276,29892,1,2,1:2:0:0:
259,276,30068,2,0,P|218:269|154:261,1,89.999997253418,2|2,0:2|0:2,0:0:0:0:
89,303,30774,1,2,0:2:0:0:
27,237,31127,6,0,P|17:183|43:139,1,89.999997253418,10|2,0:2|0:2,0:0:0:0:
68,126,31657,2,0,P|122:129|159:165,1,89.999997253418,2|0,1:2|1:2,0:0:0:0:
165,238,32363,1,8,1:2:0:0:
246,180,32716,6,0,B|294:185|294:185|299:190|299:190|346:196,1,99.9999999999999,14|0,0:2|1:2,0:0:0:0:
387,218,33245,1,10,0:2:0:0:
474,170,33598,2,0,B|511:139|511:139|506:87,1,99.9999999999999,10|8,0:2|0:2,0:0:0:0:
486,42,34127,6,0,P|425:29|375:59,1,99.9999999999999,0|8,1:2|0:2,0:0:0:0:
370,88,34657,1,0,0:2:0:0:
284,35,35010,2,0,P|257:40|227:45,1,50,2|10,1:2|0:2,0:0:0:0:
204,83,35363,2,0,P|214:134|222:186,1,99.9999999999999,2|2,1:2|1:2,0:0:0:0:
215,231,35892,1,10,0:2:0:0:
215,231,36068,1,2,0:2:0:0:
296,289,36421,1,2,1:2:0:0:
231,366,36774,1,2,0:2:0:0:
231,366,36951,6,0,P|155:354|128:322,1,99.9999999999999,2|10,1:2|0:2,0:0:0:0:
91,327,37480,2,0,P|96:250|125:220,1,99.9999999999999,2|2,0:2|1:2,0:0:0:0:
156,218,38010,1,10,0:2:0:0:
218,139,38363,2,0,P|167:129|109:115,2,99.9999999999999,2|8|0,1:2|0:2|1:2,0:0:0:0:
260,112,39245,1,0,1:2:0:0:
260,112,39421,2,0,P|295:105|323:110,1,50,8|0,0:2|0:2,0:0:0:0:
349,135,39774,5,4,1:2:0:0:
444,104,40127,2,0,P|434:158|427:209,1,99.9999999999999,8|0,0:2|1:2,0:0:0:0:
430,253,40657,2,0,P|458:246|494:237,2,50,2|10|2,1:2|0:2|0:2,0:0:0:0:
398,292,41186,1,2,1:2:0:0:
398,292,41363,1,2,1:2:0:0:
300,269,41716,1,2,0:0:0:0:
239,189,42068,2,0,P|194:166|145:170,1,99.9999999999999,2|2,1:2|0:2,0:0:0:0:
96,181,42598,6,0,P|65:176|36:172,2,50,12|0|0,0:2|1:2|1:2,0:0:0:0:
77,227,43127,2,0,P|68:276|61:325,1,99.9999999999999,8|0,0:2|1:2,0:0:0:0:
58,376,43657,1,10,0:2:0:0:
148,333,44010,6,0,P|152:307|158:280,2,50,12|0|0,0:2|1:2|1:0,0:0:0:0:
196,319,44539,2,0,P|251:323|308:335,1,99.9999999999999,8|0,0:2|1:2,0:0:0:0:
341,349,45068,1,8,0:2:0:0:
427,298,45421,6,0,P|446:252|432:201,1,99.9999999999999,6|8,1:2|0:2,0:0:0:0:
413,159,45951,1,2,1:2:0:0:
351,79,46304,2,0,P|355:55|358:27,2,50,10|2|2,0:2|1:2|0:2,0:0:0:0:
311,109,46833,2,0,P|261:103|211:95,1,99.9999999999999,2|10,1:2|0:2,0:0:0:0:
170,65,47363,1,2,1:2:0:0:
98,134,47716,2,0,P|103:167|107:200,1,50,10|0,0:2|1:2,0:0:0:0:
81,228,48068,1,8,0:2:0:0:
81,228,48245,6,0,P|56:284|74:331,1,99.9999999999999,0|8,1:2|0:2,0:0:0:0:
105,349,48774,1,0,1:2:0:0:
193,301,49127,2,0,P|218:305|244:308,2,50,10|2|10,0:2|1:2|0:2,0:0:0:0:
177,252,49657,2,0,P|186:192|193:130,1,99.9999999999999,2|10,1:2|0:2,0:0:0:0:
186,102,50186,1,2,1:2:0:0:
286,132,50539,1,8,0:2:0:0:
286,132,50716,2,0,P|313:130|338:124,1,50,0|8,1:2|0:2,0:0:0:0:
373,92,51068,6,0,B|378:143|378:143|382:150|382:150|387:199,1,99.9999999999999,0|8,1:2|0:2,0:0:0:0:
395,240,51598,1,0,1:2:0:0:
299,269,51951,1,10,0:2:0:0:
299,269,52127,2,0,P|275:264|234:258,1,50,2|10,1:2|0:2,0:0:0:0:
218,220,52480,2,0,P|168:227|119:237,1,99.9999999999999,2|10,1:2|0:2,0:0:0:0:
72,254,53010,1,2,1:2:0:0:
21,167,53363,1,10,0:2:0:0:
88,92,53716,1,10,0:2:0:0:
88,92,53892,6,0,P|161:112|179:141,2,99.9999999999999,6|8|0,1:2|0:2|1:2,0:0:0:0:
21,167,54951,2,0,P|31:217|40:272,1,99.9999999999999,8|0,0:2|1:2,0:0:0:0:
72,302,55480,1,0,1:2:0:0:
72,302,55657,2,0,P|102:296|130:295,1,50,8|0,0:2|1:2,0:0:0:0:
165,318,56010,1,2,1:2:0:0:
221,235,56363,2,0,P|245:236|270:242,1,50,10|2,0:2|1:2,0:0:0:0:
297,284,56716,6,0,P|357:315|389:308,1,99.9999999999999,14|8,0:2|1:3,0:0:0:0:
421,274,57245,2,0,P|420:206|398:181,1,99.9999999999999,10|4,1:2|1:3,0:0:0:0:
351,192,57774,1,10,1:2:0:0:
271,131,58127,6,0,P|278:106|283:77,2,50,14|10|10,0:2|0:2|0:0,0:0:0:0:
180,87,58833,2,0,P|155:82|131:75,1,50,8|4,0:2|0:3,0:0:0:0:
105,32,59186,1,14,0:2:0:0:
23,105,59539,6,0,P|5:156|25:208,1,110.000003356934,6|8,1:2|0:2,0:0:0:0:
128,239,60245,2,0,P|146:289|128:340,1,110.000003356934,0|10,1:2|0:2,0:0:0:0:
83,372,60774,2,0,P|136:362|205:356,1,110.000003356934,2|0,0:2|0:2,0:0:0:0:
248,377,61304,1,10,0:2:0:0:
248,377,61480,1,2,0:2:0:0:
276,270,61833,2,0,P|271:242|269:215,1,55.0000016784668,2|8,0:2|0:2,0:0:0:0:
244,172,62186,1,2,0:2:0:0:
244,172,62363,6,0,P|278:135|344:139,1,110.000003356934,2|10,1:2|0:2,0:0:0:0:
368,177,62892,1,2,0:2:0:0:
474,147,63245,2,0,P|471:174|470:201,1,55.0000016784668,2|8,0:2|0:2,0:0:0:0:
495,250,63598,2,0,P|515:314|489:357,1,110.000003356934,2|0,0:2|1:2,0:0:0:0:
445,367,64127,1,8,0:2:0:0:
368,295,64480,1,0,1:2:0:0:
368,295,64657,2,0,P|344:281|317:278,1,55.0000016784668,2|10,0:2|0:2,0:0:0:0:
267,301,65010,5,2,0:2:0:0:
226,198,65363,2,0,P|199:205|177:222,1,55.0000016784668,2|10,0:2|0:2,0:0:0:0:
141,262,65716,2,0,P|133:205|121:128,1,110.000003356934,2|2,0:2|0:2,0:0:0:0:
97,112,66245,1,10,0:2:0:0:
97,112,66421,2,0,P|155:107|231:92,1,110.000003356934,2|0,0:2|0:0,0:0:0:0:
297,34,67127,1,2,0:2:0:0:
297,34,67304,2,0,P|327:41|364:47,1,55.0000016784668,2|2,1:2|0:2,0:0:0:0:
393,80,67657,2,0,P|423:72|460:67,1,55.0000016784668,10|2,0:2|0:2,0:0:0:0:
486,104,68010,6,0,P|511:153|497:206,1,110.000003356934,14|2,0:2|1:2,0:0:0:0:
448,228,68539,1,10,0:2:0:0:
367,153,68892,1,0,0:2:0:0:
367,153,69068,2,0,P|371:123|377:91,1,55.0000016784668,8|4,0:3|0:3,0:0:0:0:
392,46,69421,1,0,1:2:0:0:
286,63,69774,1,0,1:2:0:0:
286,63,69951,2,0,P|230:55|170:44,1,110.000003356934,8|0,0:2|1:2,0:0:0:0:
128,19,70480,1,8,0:2:0:0:
45,91,70833,6,0,P|27:142|47:194,1,110.000003356934,6|8,1:2|0:2,0:0:0:0:
147,234,71539,2,0,P|201:234|243:198,1,110.000003356934,0|10,1:2|0:2,0:0:0:0:
257,147,72068,2,0,P|264:210|275:270,1,110.000003356934,2|0,0:2|0:2,0:0:0:0:
297,305,72598,1,10,0:2:0:0:
297,305,72774,1,2,0:2:0:0:
206,367,73127,2,0,P|178:371|151:373,1,55.0000016784668,2|8,0:2|0:3,0:0:0:0:
104,356,73480,1,6,0:3:0:0:
104,356,73657,6,0,P|74:309|91:245,1,110.000003356934,14|2,0:2|1:2,0:0:0:0:
127,226,74186,1,10,0:2:0:0:
65,135,74539,1,10,0:2:0:0:
157,75,74892,2,0,P|215:86|286:95,1,110.000003356934,14|0,0:2|1:2,0:0:0:0:
313,63,75421,1,10,0:2:0:0:
313,63,75598,2,0,B|357:33|357:33|415:44,1,110.000003356934,2|0,1:2|1:2,0:0:0:0:
463,65,76127,1,8,0:2:0:0:
431,170,76480,6,0,P|398:163|357:155,2,55.0000016784668,4|0|8,1:2|0:2|0:2,0:0:0:0:
469,210,77010,1,0,0:2:0:0:
378,272,77363,2,0,P|372:298|366:325,1,55.0000016784668,2|10,0:2|0:2,0:0:0:0:
379,384,77716,1,2,0:2:0:0:
379,384,77892,6,0,P|339:353|267:357,1,110.000003356934,2|10,1:2|0:2,0:0:0:0:
232,377,78421,2,0,P|177:376|134:344,1,110.000003356934,2|0,0:2|0:2,0:0:0:0:
123,289,78951,1,8,0:2:0:0:
203,213,79304,6,0,P|209:181|215:148,2,55.0000016784668,4|0|8,1:2|0:2|0:2,0:0:0:0:
231,260,79833,1,0,0:2:0:0:
331,215,80186,2,0,P|362:221|396:227,1,55.0000016784668,2|10,0:2|0:2,0:0:0:0:
437,202,80539,1,2,0:2:0:0:
437,202,80716,6,0,P|454:159|430:98,1,110.000003356934,2|10,1:2|1:2,0:0:0:0:
378,92,81245,1,2,1:2:0:0:
289,36,81598,1,2,1:2:0:0:
289,36,81774,2,0,P|274:70|272:97,1,55.0000016784668,10|4,1:3|1:3,0:0:0:0:
285,135,82127,6,0,B|217:134|198:207|198:207|173:292|105:282,1,250,6|0,1:2|0:0,0:0:0:0:
70,253,83186,1,2,0:2:0:0:
26,152,83539,6,0,P|54:118|125:118,1,110.000003356934,14|2,0:2|1:2,0:0:0:0:
145,160,84068,1,10,0:2:0:0:
231,91,84421,1,10,0:2:0:0:
301,175,84774,2,0,P|356:165|420:153,1,110.000003356934,10|2,0:2|0:2,0:0:0:0:
449,117,85304,1,10,0:2:0:0:
449,116,85480,2,0,P|429:167|446:218,1,110.000003356934,2|2,1:2|1:2,0:0:0:0:
492,247,86010,1,8,0:2:0:0:
492,247,86186,5,2,1:2:0:0:
411,321,86539,1,0,1:2:0:0:
411,321,86716,2,0,P|354:326|288:337,1,110.000003356934,8|0,0:2|1:2,0:0:0:0:
213,269,87421,1,10,0:2:0:0:
213,269,87598,6,0,P|190:228|216:163,1,110.000003356934,6|10,1:2|1:2,0:0:0:0:
253,140,88127,2,0,P|284:145|309:164,1,55.0000016784668,10|10,1:2|1:2,0:0:0:0:
340,198,88480,2,0,P|367:192|403:186,2,55.0000016784668,10|10|10,1:2|1:2|1:2,0:0:0:0:
316,248,89010,1,14,1:2:0:0:
