osu file format v14

[General]
AudioFilename: audio.mp3
AudioLeadIn: 0
PreviewTime: 58862
Countdown: 0
SampleSet: Normal
StackLeniency: 0.7
Mode: 1
LetterboxInBreaks: 0
WidescreenStoryboard: 0

[Editor]
Bookmarks: 10,2833,11304,22598,33892,45186,59304,70598,81892,84715,88951
DistanceSpacing: 1.2
BeatDivisor: 4
GridSize: 32
TimelineZoom: 1.5

[Metadata]
Title:over and over (TV Size)
TitleUnicode:over and over (TV Size)
Artist:Iguchi Yuka
ArtistUnicode:井口裕香
Creator:Roger
Version:Futsuu
Source:ダンジョンに出会いを求めるのは間違っているだろうかIII
Tags:taiko op opening anime japanese pop jpop j-pop is it wrong to try to pick up girls in a dungeon? ni deai wo motomeru no wa machigatteiru darou ka III danmachi ダンまち 3rd third season that I want to meet you in a familia myth yukachi ゆかち clearly 御恵明希 aki mimegumi シド sid 渡辺拓也 takuya watanabe ][ -GH- ][
BeatmapID:2642702
BeatmapSetID:1271715

[Difficulty]
HPDrainRate:7
CircleSize:2
OverallDifficulty:4
ApproachRate:0
SliderMultiplier:1.4
SliderTickRate:1

[Events]
//Background and Video events
0,0,"bg.jpg",0,30
Video,-20,"video.mp4"
//Break Periods
//Storyboard Layer 0 (Background)
//Storyboard Layer 1 (Fail)
//Storyboard Layer 2 (Pass)
//Storyboard Layer 3 (Foreground)
//Storyboard Layer 4 (Overlay)
//Storyboard Sound Samples

[TimingPoints]
10,352.941176470588,4,1,0,30,1,0
2745,-100,4,1,0,50,0,0
2833,-100,4,1,0,60,0,0
7157,-100,4,1,0,40,0,0
8480,-100,4,1,0,60,0,0
9539,-100,4,1,0,70,0,0
9892,-100,4,1,0,70,0,0
11304,-100,4,1,0,80,0,0
22598,-100,4,1,0,70,0,0
32480,-100,4,1,0,80,0,0
59304,352.941176470588,4,1,0,90,1,1
69892,-100,4,1,0,90,0,0
70598,-100,4,1,0,90,0,1
81892,-100,4,1,0,80,0,0
84715,352.941176470588,4,1,0,85,1,0

[HitObjects]
256,192,10,8,0,2480,0:0:0:0:
256,192,2833,5,0,0:0:0:0:
256,192,4245,1,8,0:0:0:0:
256,192,5657,1,0,0:0:0:0:
256,192,7068,1,8,0:0:0:0:
256,192,9539,1,0,0:0:0:0:
256,192,9892,1,12,0:0:0:0:
256,192,10068,1,12,0:0:0:0:
256,192,10245,1,12,0:0:0:0:
256,192,10598,1,0,0:0:0:0:
256,192,10774,1,0,0:0:0:0:
256,192,10951,1,8,0:0:0:0:
256,192,11304,1,4,0:0:0:0:
256,192,12009,1,0,0:0:0:0:
256,192,12362,1,8,0:0:0:0:
256,192,12539,1,8,0:0:0:0:
256,192,12715,1,0,0:0:0:0:
256,192,13068,1,8,0:0:0:0:
256,192,13245,1,8,0:0:0:0:
256,192,13598,1,8,0:0:0:0:
256,192,14127,1,0,0:0:0:0:
256,192,14480,1,0,0:0:0:0:
256,192,14833,1,8,0:0:0:0:
256,192,15186,1,0,0:0:0:0:
256,192,15362,1,8,0:0:0:0:
256,192,15539,1,0,0:0:0:0:
256,192,15892,1,8,0:0:0:0:
256,192,16245,1,0,0:0:0:0:
256,192,16421,1,8,0:0:0:0:
256,192,16951,1,4,0:0:0:0:
256,192,17657,1,8,0:0:0:0:
256,192,17833,1,8,0:0:0:0:
256,192,18186,1,8,0:0:0:0:
256,192,18362,1,0,0:0:0:0:
256,192,18715,1,0,0:0:0:0:
256,192,19068,1,8,0:0:0:0:
256,192,19245,1,0,0:0:0:0:
256,192,19421,1,8,0:0:0:0:
256,192,19774,1,0,0:0:0:0:
256,192,20127,1,8,0:0:0:0:
256,192,20304,1,8,0:0:0:0:
256,192,20657,1,8,0:0:0:0:
256,192,21009,1,0,0:0:0:0:
256,192,21186,1,8,0:0:0:0:
256,192,21539,1,0,0:0:0:0:
256,192,21715,1,0,0:0:0:0:
256,192,21892,1,0,0:0:0:0:
256,192,22068,1,12,0:0:0:0:
256,192,22598,1,0,0:0:0:0:
256,192,23304,1,0,0:0:0:0:
256,192,23657,1,8,0:0:0:0:
256,192,24009,1,0,0:0:0:0:
256,192,24362,1,8,0:0:0:0:
256,192,24539,1,8,0:0:0:0:
256,192,24892,1,0,0:0:0:0:
256,192,25245,1,8,0:0:0:0:
256,192,25421,1,0,0:0:0:0:
256,192,25774,1,0,0:0:0:0:
256,192,26480,1,0,0:0:0:0:
256,192,26833,1,8,0:0:0:0:
256,192,27186,1,0,0:0:0:0:
256,192,27539,1,0,0:0:0:0:
256,192,27715,1,8,0:0:0:0:
256,192,28068,1,8,0:0:0:0:
256,192,28245,1,0,0:0:0:0:
256,192,28951,1,0,0:0:0:0:
256,192,29304,1,8,0:0:0:0:
256,192,29657,1,0,0:0:0:0:
256,192,29833,1,8,0:0:0:0:
256,192,30186,1,0,0:0:0:0:
256,192,30539,1,0,0:0:0:0:
256,192,30892,1,8,0:0:0:0:
256,192,31068,1,0,0:0:0:0:
256,192,31421,1,8,0:0:0:0:
256,192,31951,1,0,0:0:0:0:
256,192,32127,1,8,0:0:0:0:
256,192,32480,1,4,0:0:0:0:
256,192,33009,1,12,0:0:0:0:
256,192,33362,1,12,0:0:0:0:
256,192,33892,1,4,0:0:0:0:
256,192,34245,1,8,0:0:0:0:
256,192,34951,1,8,0:0:0:0:
256,192,35304,1,0,0:0:0:0:
256,192,35657,1,8,0:0:0:0:
256,192,35833,1,0,0:0:0:0:
256,192,36186,1,0,0:0:0:0:
256,192,36362,1,8,0:0:0:0:
256,192,36715,1,0,0:0:0:0:
256,192,37068,1,8,0:0:0:0:
256,192,37245,1,8,0:0:0:0:
256,192,37598,1,0,0:0:0:0:
256,192,37774,1,8,0:0:0:0:
256,192,38127,1,0,0:0:0:0:
256,192,38480,1,8,0:0:0:0:
256,192,38833,1,0,0:0:0:0:
256,192,39009,1,0,0:0:0:0:
256,192,39186,1,8,0:0:0:0:
256,192,39539,1,4,0:0:0:0:
256,192,39892,1,8,0:0:0:0:
256,192,40598,1,8,0:0:0:0:
256,192,40951,1,0,0:0:0:0:
256,192,41304,1,8,0:0:0:0:
256,192,41480,1,0,0:0:0:0:
256,192,41833,1,0,0:0:0:0:
256,192,42009,1,8,0:0:0:0:
256,192,42362,1,0,0:0:0:0:
256,192,42715,1,8,0:0:0:0:
256,192,42892,1,0,0:0:0:0:
256,192,43421,1,0,0:0:0:0:
256,192,43774,1,8,0:0:0:0:
256,192,44127,1,0,0:0:0:0:
256,192,44304,1,8,0:0:0:0:
256,192,44833,1,8,0:0:0:0:
256,192,45186,1,4,0:0:0:0:
256,192,45715,1,0,0:0:0:0:
256,192,46068,1,8,0:0:0:0:
256,192,46245,1,0,0:0:0:0:
256,192,46598,1,8,0:0:0:0:
256,192,46951,1,0,0:0:0:0:
256,192,47127,1,0,0:0:0:0:
256,192,47480,1,8,0:0:0:0:
256,192,48009,1,0,0:0:0:0:
256,192,48539,1,0,0:0:0:0:
256,192,48892,1,8,0:0:0:0:
256,192,49245,1,0,0:0:0:0:
256,192,49421,1,0,0:0:0:0:
256,192,49774,1,8,0:0:0:0:
256,192,49951,1,0,0:0:0:0:
256,192,50833,1,0,0:0:0:0:
256,192,51362,1,0,0:0:0:0:
256,192,51715,1,8,0:0:0:0:
256,192,51892,1,0,0:0:0:0:
256,192,52245,1,8,0:0:0:0:
256,192,52598,1,0,0:0:0:0:
256,192,52774,1,0,0:0:0:0:
256,192,53127,1,8,0:0:0:0:
256,192,53480,1,8,0:0:0:0:
256,192,53657,1,4,0:0:0:0:
256,192,54009,1,8,0:0:0:0:
256,192,54362,1,0,0:0:0:0:
256,192,54539,1,0,0:0:0:0:
256,192,54715,1,8,0:0:0:0:
256,192,55068,1,0,0:0:0:0:
256,192,55774,1,8,0:0:0:0:
256,192,56127,1,8,0:0:0:0:
256,192,56304,1,0,0:0:0:0:
256,192,56480,1,8,0:0:0:0:
256,192,56833,1,0,0:0:0:0:
256,192,57009,1,8,0:0:0:0:
256,192,57362,1,0,0:0:0:0:
256,192,57539,1,0,0:0:0:0:
256,192,57892,1,12,0:0:0:0:
256,192,58068,1,12,0:0:0:0:
256,192,58245,1,12,0:0:0:0:
256,192,58598,1,0,0:0:0:0:
256,192,58774,1,0,0:0:0:0:
256,192,58951,1,8,0:0:0:0:
256,192,59304,1,4,0:0:0:0:
256,192,59656,1,8,0:0:0:0:
256,192,60362,1,8,0:0:0:0:
256,192,60539,1,8,0:0:0:0:
256,192,60715,1,0,0:0:0:0:
256,192,61068,1,8,0:0:0:0:
256,192,61245,1,8,0:0:0:0:
256,192,61598,1,0,0:0:0:0:
256,192,61951,1,0,0:0:0:0:
256,192,62127,1,0,0:0:0:0:
256,192,62480,1,8,0:0:0:0:
256,192,62656,1,0,0:0:0:0:
256,192,63009,1,0,0:0:0:0:
256,192,63362,1,8,0:0:0:0:
256,192,63539,1,0,0:0:0:0:
256,192,63892,1,8,0:0:0:0:
256,192,64245,1,0,0:0:0:0:
256,192,64421,1,0,0:0:0:0:
256,192,64598,1,8,0:0:0:0:
256,192,64951,1,0,0:0:0:0:
256,192,65304,1,8,0:0:0:0:
256,192,65480,1,0,0:0:0:0:
256,192,65833,1,0,0:0:0:0:
256,192,66009,1,8,0:0:0:0:
256,192,66362,1,0,0:0:0:0:
256,192,66892,1,0,0:0:0:0:
256,192,67068,1,8,0:0:0:0:
256,192,67245,1,0,0:0:0:0:
256,192,67421,1,8,0:0:0:0:
256,192,67774,1,0,0:0:0:0:
256,192,68127,1,8,0:0:0:0:
256,192,68304,1,0,0:0:0:0:
256,192,68833,1,0,0:0:0:0:
256,192,69009,1,0,0:0:0:0:
256,192,69186,1,8,0:0:0:0:
256,192,69539,1,0,0:0:0:0:
256,192,69715,1,8,0:0:0:0:
256,192,69892,1,0,0:0:0:0:
256,192,70245,1,8,0:0:0:0:
256,192,70598,1,4,0:0:0:0:
256,192,70951,1,8,0:0:0:0:
256,192,71656,1,8,0:0:0:0:
256,192,71833,1,8,0:0:0:0:
256,192,72009,1,0,0:0:0:0:
256,192,72362,1,8,0:0:0:0:
256,192,72539,1,0,0:0:0:0:
256,192,72892,1,8,0:0:0:0:
256,192,73245,1,8,0:0:0:0:
256,192,73421,1,0,0:0:0:0:
256,192,73951,1,8,0:0:0:0:
256,192,74303,1,8,0:0:0:0:
256,192,74656,1,0,0:0:0:0:
256,192,75009,1,0,0:0:0:0:
256,192,75186,1,8,0:0:0:0:
256,192,75362,1,0,0:0:0:0:
256,192,76245,1,4,0:0:0:0:
256,192,76598,1,8,0:0:0:0:
256,192,77127,1,0,0:0:0:0:
256,192,77303,1,8,0:0:0:0:
256,192,77480,1,8,0:0:0:0:
256,192,77656,1,0,0:0:0:0:
256,192,78009,1,8,0:0:0:0:
256,192,78186,1,0,0:0:0:0:
256,192,78539,1,0,0:0:0:0:
256,192,78715,1,8,0:0:0:0:
256,192,79068,1,4,0:0:0:0:
256,192,79421,1,8,0:0:0:0:
256,192,79951,1,0,0:0:0:0:
256,192,80127,1,8,0:0:0:0:
256,192,80303,1,0,0:0:0:0:
256,192,80480,1,8,0:0:0:0:
256,192,80833,1,0,0:0:0:0:
256,192,81009,1,0,0:0:0:0:
256,192,81362,1,8,0:0:0:0:
256,192,81539,1,8,0:0:0:0:
256,192,81892,1,4,0:0:0:0:
256,192,82951,1,8,0:0:0:0:
256,192,83303,1,4,0:0:0:0:
256,192,83833,1,12,0:0:0:0:
256,192,84186,1,12,0:0:0:0:
256,192,84715,1,0,0:0:0:0:
256,192,85067,1,8,0:0:0:0:
256,192,85244,1,0,0:0:0:0:
256,192,85597,1,0,0:0:0:0:
256,192,85773,1,8,0:0:0:0:
256,192,85950,1,0,0:0:0:0:
256,192,86479,1,8,0:0:0:0:
256,192,86832,1,0,0:0:0:0:
256,192,87185,1,8,0:0:0:0:
256,192,87362,1,8,0:0:0:0:
256,192,87715,1,0,0:0:0:0:
256,192,87891,1,0,0:0:0:0:
256,192,88244,1,0,0:0:0:0:
256,192,88420,1,0,0:0:0:0:
256,192,88597,1,0,0:0:0:0:
256,192,88773,1,12,0:0:0:0:
