osu file format v14

[General]
AudioFilename: Iguchi Yuka - over and over.mp3
AudioLeadIn: 0
PreviewTime: 58951
Countdown: 0
SampleSet: Soft
StackLeniency: 0.7
Mode: 3
LetterboxInBreaks: 0
SpecialStyle: 0
WidescreenStoryboard: 0

[Editor]
DistanceSpacing: 1.2
BeatDivisor: 4
GridSize: 4
TimelineZoom: 1.5

[Metadata]
Title:over and over (TV Size)
TitleUnicode:over and over (TV Size)
Artist:Iguchi Yuka
ArtistUnicode:井口裕香
Creator:Amiichii
Version:Normal
Source:ダンジョンに出会いを求めるのは間違っているだろうかIII
Tags:op opening anime japanese pop jpop j-pop is it wrong to try to pick up girls in a dungeon? ni deai wo motomeru no wa machigatteiru darou ka III danmachi ダンまち 3rd third season that I want to meet you in a familia myth yukachi clearly 御恵明希 aki mimegumi シド sid 渡辺拓也 takuya watanabe
BeatmapID:2622228
BeatmapSetID:1261488

[Difficulty]
HPDrainRate:7.5
CircleSize:4
OverallDifficulty:7.5
ApproachRate:5
SliderMultiplier:1.4
SliderTickRate:1

[Events]
//Background and Video events
0,0,"bg.jpg",0,0
Video,-20,"pideo.mp4"
//Break Periods
//Storyboard Layer 0 (Background)
//Storyboard Layer 1 (Fail)
//Storyboard Layer 2 (Pass)
//Storyboard Layer 3 (Foreground)
//Storyboard Layer 4 (Overlay)
//Storyboard Sound Samples

[TimingPoints]
10,352.941176470588,4,2,1,50,1,0
59304,-100,4,2,1,50,0,1
81892,-100,4,2,1,50,0,0

[HitObjects]
64,192,10,5,0,0:0:0:0:
448,192,10,1,0,0:0:0:0:
320,192,186,1,0,0:0:0:0:
192,192,362,1,0,0:0:0:0:
64,192,539,1,0,0:0:0:0:
448,192,715,1,0,0:0:0:0:
320,192,892,1,0,0:0:0:0:
192,192,1068,1,0,0:0:0:0:
64,192,1245,1,0,0:0:0:0:
448,192,1421,1,0,0:0:0:0:
320,192,1598,1,0,0:0:0:0:
192,192,1774,1,0,0:0:0:0:
64,192,1951,1,0,0:0:0:0:
448,192,2127,128,0,2833:0:0:0:0:
64,192,2480,128,0,2833:0:0:0:0:
192,192,2833,1,2,0:0:0:0:
320,192,2833,1,0,0:0:0:0:
448,192,3009,1,0,0:0:0:0:
64,192,3186,1,0,0:0:0:0:
320,192,3362,128,0,4245:0:0:0:0:
192,192,3892,1,0,0:0:0:0:
64,192,4245,1,2,0:0:0:0:
448,192,4421,1,0,0:0:0:0:
192,192,4598,1,0,0:0:0:0:
320,192,4774,128,0,5657:0:0:0:0:
192,192,5127,1,0,0:0:0:0:
192,192,5304,1,0,0:0:0:0:
64,192,5657,1,2,0:0:0:0:
192,192,5833,1,0,0:0:0:0:
448,192,6009,1,0,0:0:0:0:
320,192,6186,128,0,7068:0:0:0:0:
192,192,6539,1,0,0:0:0:0:
192,192,6715,1,0,0:0:0:0:
64,192,7068,1,2,0:0:0:0:
192,192,7245,1,0,0:0:0:0:
320,192,7421,1,0,0:0:0:0:
448,192,7598,128,0,9009:0:0:0:0:
64,192,8127,1,0,0:0:0:0:
192,192,8304,1,0,0:0:0:0:
320,192,8480,1,0,0:0:0:0:
64,192,8657,1,0,0:0:0:0:
192,192,8833,1,0,0:0:0:0:
64,192,9009,128,0,9539:0:0:0:0:
320,192,9009,1,0,0:0:0:0:
192,192,9362,1,0,0:0:0:0:
448,192,9539,128,0,9892:0:0:0:0:
320,192,9715,128,0,9892:0:0:0:0:
64,192,9892,1,2,0:0:0:0:
192,192,9892,1,8,0:0:0:0:
320,192,10068,1,2,0:0:0:0:
448,192,10068,1,8,0:0:0:0:
64,192,10245,1,2,0:0:0:0:
192,192,10245,1,8,0:0:0:0:
448,192,10598,1,8,0:0:0:0:
320,192,10774,1,0,0:0:0:50:Tom2.wav
64,192,10951,1,10,0:0:0:0:
192,192,10951,1,4,0:0:0:0:
320,192,11127,1,0,0:0:0:0:
192,192,11304,1,2,0:0:0:0:
448,192,11304,128,4,12362:0:0:0:0:
64,192,11657,1,4,0:0:0:0:
192,192,11657,1,2,0:0:0:0:
64,192,12009,1,2,0:0:0:0:
192,192,12009,1,4,0:0:0:0:
64,192,12362,1,4,0:0:0:0:
320,192,12362,128,2,12715:0:0:0:0:
192,192,12539,1,8,0:0:0:0:
64,192,12715,128,2,13068:0:0:0:0:
448,192,12715,1,4,0:0:0:0:
192,192,13068,1,4,0:0:0:0:
448,192,13068,128,2,13245:0:0:0:0:
64,192,13245,128,0,13421:0:0:0:0:
320,192,13421,1,2,0:0:0:0:
448,192,13421,1,8,0:0:0:0:
192,192,13598,1,0,0:0:0:50:Tom1.wav
320,192,13774,1,2,0:0:0:0:
192,192,13951,1,0,0:0:0:50:Tom3.wav
64,192,14127,1,4,0:0:0:0:
448,192,14127,128,2,14833:0:0:0:0:
64,192,14480,1,2,0:0:0:0:
192,192,14480,1,4,0:0:0:0:
64,192,14833,1,4,0:0:0:0:
192,192,14833,128,2,15539:0:0:0:0:
320,192,15186,1,2,0:0:0:0:
448,192,15186,1,4,0:0:0:0:
64,192,15362,1,8,0:0:0:0:
320,192,15539,128,2,16245:0:0:0:0:
448,192,15539,1,4,0:0:0:0:
64,192,15892,1,8,0:0:0:0:
192,192,15892,1,0,0:0:0:0:
64,192,16245,1,6,0:0:0:0:
448,192,16245,1,0,0:0:0:50:Tom2.wav
192,192,16421,1,8,0:0:0:0:
320,192,16598,1,4,0:0:0:0:
448,192,16598,1,2,0:0:0:0:
192,192,16774,1,8,0:0:0:0:
64,192,16951,1,4,0:0:0:0:
448,192,16951,128,2,17657:0:0:0:0:
64,192,17304,1,2,0:0:0:0:
192,192,17304,1,4,0:0:0:0:
64,192,17657,128,4,17833:0:0:0:0:
192,192,17657,1,2,0:0:0:0:
320,192,17833,128,0,18186:0:0:0:0:
64,192,18009,1,2,0:0:0:0:
192,192,18009,1,4,0:0:0:0:
448,192,18186,128,8,19068:0:0:0:0:
64,192,18362,1,2,0:0:0:0:
192,192,18362,1,4,0:0:0:0:
64,192,18715,1,4,0:0:0:0:
192,192,18715,1,2,0:0:0:0:
64,192,19068,1,8,0:0:0:0:
320,192,19068,1,2,0:0:0:0:
192,192,19245,1,0,0:0:0:50:Tom1.wav
448,192,19421,1,2,0:0:0:0:
320,192,19598,1,0,0:0:0:50:Tom3.wav
64,192,19774,128,4,20127:0:0:0:0:
192,192,19774,1,2,0:0:0:0:
320,192,20127,1,2,0:0:0:0:
448,192,20127,1,4,0:0:0:0:
192,192,20304,128,0,20480:0:0:0:0:
64,192,20480,1,4,0:0:0:0:
448,192,20480,1,2,0:0:0:0:
320,192,20657,128,0,20833:0:0:0:0:
64,192,20833,1,2,0:0:0:0:
192,192,20833,1,4,0:0:0:0:
448,192,21009,1,8,0:0:0:0:
64,192,21186,1,8,0:0:0:0:
192,192,21186,1,4,0:0:0:0:
320,192,21362,1,10,0:0:0:0:
320,192,21539,1,10,0:0:0:0:
192,192,21715,1,10,0:0:0:0:
64,192,21892,1,10,0:0:0:0:
320,192,22068,1,12,0:0:0:0:
448,192,22068,1,2,0:0:0:0:
64,192,22598,1,12,0:0:0:0:
320,192,22598,1,2,0:0:0:0:
192,192,22774,1,0,0:0:0:0:
448,192,22951,1,2,0:0:0:0:
192,192,23127,1,0,0:0:0:0:
448,192,23304,1,2,0:0:0:0:
192,192,23480,1,0,0:0:0:0:
448,192,23657,1,2,0:0:0:0:
192,192,23833,1,0,0:0:0:0:
448,192,24009,1,2,0:0:0:0:
192,192,24186,1,0,0:0:0:0:
448,192,24362,1,2,0:0:0:0:
192,192,24539,1,0,0:0:0:0:
448,192,24715,1,2,0:0:0:0:
192,192,24892,1,0,0:0:0:0:
448,192,25068,1,2,0:0:0:0:
64,192,25245,1,8,0:0:0:0:
192,192,25245,1,0,0:0:0:0:
448,192,25421,1,2,0:0:0:0:
64,192,25774,1,2,0:0:0:0:
320,192,25951,1,0,0:0:0:0:
64,192,26127,1,2,0:0:0:0:
320,192,26304,1,0,0:0:0:0:
64,192,26480,1,2,0:0:0:0:
320,192,26657,1,0,0:0:0:0:
64,192,26833,1,2,0:0:0:0:
320,192,27009,1,0,0:0:0:0:
64,192,27186,1,2,0:0:0:0:
320,192,27362,1,0,0:0:0:0:
64,192,27539,1,2,0:0:0:0:
320,192,27715,1,8,0:0:0:0:
448,192,27715,1,0,0:0:0:0:
192,192,27892,1,2,0:0:0:0:
320,192,28068,1,8,0:0:0:0:
448,192,28068,1,0,0:0:0:0:
64,192,28245,1,2,0:0:0:0:
320,192,28598,1,2,0:0:0:0:
192,192,28774,1,0,0:0:0:0:
320,192,28951,1,2,0:0:0:0:
192,192,29127,1,0,0:0:0:0:
320,192,29304,1,2,0:0:0:0:
192,192,29480,1,0,0:0:0:0:
320,192,29657,1,2,0:0:0:0:
192,192,29833,1,0,0:0:0:0:
320,192,30009,1,2,0:0:0:0:
192,192,30186,1,0,0:0:0:0:
320,192,30362,1,2,0:0:0:0:
192,192,30539,1,0,0:0:0:0:
320,192,30715,1,2,0:0:0:0:
64,192,30892,1,8,0:0:0:0:
192,192,30892,1,0,0:0:0:0:
448,192,31068,1,2,0:0:0:0:
192,192,31421,1,2,0:0:0:0:
448,192,31598,1,0,0:0:0:0:
192,192,31774,1,2,0:0:0:0:
448,192,31951,1,0,0:0:0:0:
64,192,32127,128,8,32480:0:0:0:0:
192,192,32127,1,0,0:0:0:0:
320,192,32480,1,4,0:0:0:0:
448,192,32480,1,8,0:0:0:0:
192,192,32833,1,2,0:0:0:0:
64,192,33009,1,8,0:0:0:0:
448,192,33009,1,0,0:0:0:0:
320,192,33362,128,8,33715:0:0:0:0:
192,192,33715,1,8,0:0:0:0:
64,192,33892,1,2,0:0:0:0:
448,192,33892,1,4,0:0:0:0:
64,192,34245,1,8,0:0:0:0:
192,192,34245,1,0,0:0:0:0:
320,192,34598,1,2,0:0:0:0:
192,192,34774,1,2,0:0:0:0:
64,192,34951,1,8,0:0:0:0:
448,192,34951,1,0,0:0:0:0:
320,192,35304,1,2,0:0:0:0:
192,192,35480,1,2,0:0:0:0:
320,192,35657,1,8,0:0:0:0:
448,192,35657,1,0,0:0:0:0:
64,192,35833,1,0,0:0:0:0:
448,192,36009,1,2,0:0:0:0:
320,192,36186,1,2,0:0:0:0:
64,192,36362,1,8,0:0:0:0:
192,192,36362,1,0,0:0:0:0:
320,192,36715,1,2,0:0:0:0:
192,192,36892,1,2,0:0:0:0:
64,192,37068,1,8,0:0:0:0:
448,192,37068,1,0,0:0:0:0:
192,192,37421,1,2,0:0:0:0:
320,192,37598,1,2,0:0:0:0:
192,192,37774,1,8,0:0:0:0:
448,192,37774,1,0,0:0:0:0:
64,192,38127,1,2,0:0:0:0:
448,192,38304,1,2,0:0:0:0:
192,192,38480,1,8,0:0:0:0:
320,192,38480,1,0,0:0:0:0:
448,192,38833,1,2,0:0:0:0:
64,192,39009,1,2,0:0:0:0:
192,192,39186,1,8,0:0:0:0:
448,192,39186,1,0,0:0:0:0:
64,192,39539,1,2,0:0:0:0:
448,192,39539,128,4,40774:0:0:0:0:
192,192,39715,1,2,0:0:0:0:
320,192,39892,1,8,0:0:0:0:
64,192,40245,1,2,0:0:0:0:
320,192,40421,1,2,0:0:0:0:
192,192,40598,1,8,0:0:0:0:
64,192,40774,128,0,40951:0:0:0:0:
320,192,40951,128,2,41127:0:0:0:0:
192,192,41127,128,2,41304:0:0:0:0:
320,192,41304,1,8,0:0:0:0:
448,192,41304,1,0,0:0:0:0:
64,192,41480,128,0,41833:0:0:0:0:
320,192,41657,1,2,0:0:0:0:
192,192,41833,1,2,0:0:0:0:
320,192,42009,1,8,0:0:0:0:
448,192,42009,1,4,0:0:0:0:
64,192,42362,1,8,0:0:0:0:
448,192,42362,128,4,42715:0:0:0:0:
192,192,42715,1,2,0:0:0:0:
64,192,42892,128,8,43245:0:0:0:0:
320,192,42892,1,4,0:0:0:0:
320,192,43245,1,2,0:0:0:0:
192,192,43421,1,4,0:0:0:0:
448,192,43421,128,8,43774:0:0:0:0:
64,192,43774,128,4,44127:0:0:0:0:
192,192,43774,1,8,0:0:0:0:
320,192,44127,1,2,0:0:0:0:
192,192,44304,1,4,0:0:0:0:
448,192,44304,128,8,44657:0:0:0:0:
192,192,44657,1,2,0:0:0:0:
64,192,44833,1,4,0:0:0:0:
320,192,44833,128,8,45186:0:0:0:0:
64,192,45186,1,4,0:0:0:0:
192,192,45186,1,2,0:0:0:0:
320,192,45539,1,8,0:0:0:0:
448,192,45539,1,0,0:0:0:0:
192,192,45715,1,2,0:0:0:0:
320,192,46068,1,8,0:0:0:0:
448,192,46068,1,0,0:0:0:0:
192,192,46245,1,2,0:0:0:0:
320,192,46421,1,0,0:0:0:0:
64,192,46598,1,2,0:0:0:0:
192,192,46951,1,8,0:0:0:0:
448,192,46951,1,0,0:0:0:0:
320,192,47127,1,2,0:0:0:0:
192,192,47480,1,8,0:0:0:0:
448,192,47480,1,0,0:0:0:0:
320,192,47657,1,2,0:0:0:0:
64,192,47833,1,8,0:0:0:0:
192,192,47833,1,0,0:0:0:0:
448,192,48009,1,2,0:0:0:0:
64,192,48362,1,8,0:0:0:0:
192,192,48362,1,0,0:0:0:0:
320,192,48539,1,2,0:0:0:0:
64,192,48892,1,8,0:0:0:0:
192,192,48892,1,0,0:0:0:0:
320,192,49068,1,2,0:0:0:0:
192,192,49245,1,0,0:0:0:0:
448,192,49421,1,2,0:0:0:0:
64,192,49774,1,8,0:0:0:0:
320,192,49774,1,0,0:0:0:0:
192,192,49951,1,2,0:0:0:0:
64,192,50304,1,8,0:0:0:0:
320,192,50304,1,4,0:0:0:0:
192,192,50480,1,2,0:0:0:0:
320,192,50657,1,8,0:0:0:0:
448,192,50657,1,4,0:0:0:0:
64,192,50833,1,2,0:0:0:0:
192,192,50833,1,0,0:0:0:0:
64,192,51186,1,8,0:0:0:0:
448,192,51186,1,0,0:0:0:0:
192,192,51362,1,2,0:0:0:0:
320,192,51362,1,4,0:0:0:0:
64,192,51715,1,8,0:0:0:0:
448,192,51715,1,0,0:0:0:0:
320,192,51892,1,2,0:0:0:0:
64,192,52068,1,8,0:0:0:0:
448,192,52068,1,0,0:0:0:0:
192,192,52245,1,2,0:0:0:0:
320,192,52598,1,8,0:0:0:0:
448,192,52598,1,0,0:0:0:0:
64,192,52774,1,2,0:0:0:0:
192,192,52774,1,4,0:0:0:0:
320,192,53127,1,8,0:0:0:0:
448,192,53127,1,0,0:0:0:0:
64,192,53304,1,2,0:0:0:0:
320,192,53480,1,8,0:0:0:0:
448,192,53480,1,0,0:0:0:0:
64,192,53657,1,2,0:0:0:0:
192,192,53657,1,4,0:0:0:0:
64,192,54009,1,8,0:0:0:0:
448,192,54009,1,0,0:0:0:0:
320,192,54362,1,2,0:0:0:0:
192,192,54539,1,2,0:0:0:0:
320,192,54715,1,8,0:0:0:0:
448,192,54715,1,0,0:0:0:0:
64,192,55068,1,2,0:0:0:0:
320,192,55245,1,2,0:0:0:0:
64,192,55421,1,8,0:0:0:0:
192,192,55421,1,0,0:0:0:0:
448,192,55774,1,2,0:0:0:0:
192,192,55951,1,2,0:0:0:0:
64,192,56127,1,8,0:0:0:0:
320,192,56127,1,0,0:0:0:0:
448,192,56304,1,8,0:0:0:0:
64,192,56480,1,2,0:0:0:0:
192,192,56480,1,8,0:0:0:0:
320,192,56657,1,8,0:0:0:0:
192,192,56833,1,8,0:0:0:0:
64,192,57009,1,2,0:0:0:0:
448,192,57009,1,8,0:0:0:0:
320,192,57186,1,8,0:0:0:0:
192,192,57362,1,8,0:0:0:0:
320,192,57539,1,8,0:0:0:0:
448,192,57539,1,4,0:0:0:0:
64,192,57892,1,2,0:0:0:0:
320,192,57892,1,8,0:0:0:0:
192,192,58068,1,2,0:0:0:0:
448,192,58068,1,8,0:0:0:0:
64,192,58245,1,2,0:0:0:0:
320,192,58245,1,8,0:0:0:0:
192,192,58598,1,8,0:0:0:0:
320,192,58774,1,0,0:0:0:50:Tom2.wav
64,192,58951,1,8,0:0:0:0:
448,192,58951,128,4,59304:0:0:0:0:
64,192,59304,1,4,0:0:0:0:
192,192,59304,1,2,0:0:0:0:
320,192,59657,1,8,0:0:0:0:
448,192,59657,1,0,0:0:0:0:
64,192,59833,1,0,0:0:0:0:
192,192,60009,1,2,0:0:0:0:
320,192,60186,1,0,0:0:0:0:
64,192,60362,1,8,0:0:0:0:
448,192,60362,1,0,0:0:0:0:
192,192,60539,1,0,0:0:0:0:
320,192,60715,1,2,0:0:0:0:
192,192,61068,1,8,0:0:0:0:
448,192,61068,1,0,0:0:0:0:
64,192,61245,1,0,0:0:0:0:
320,192,61421,1,2,0:0:0:0:
192,192,61598,1,0,0:0:0:0:
320,192,61774,1,8,0:0:0:0:
448,192,61774,1,0,0:0:0:0:
192,192,61951,1,0,0:0:0:0:
64,192,62127,1,2,0:0:0:0:
448,192,62127,1,4,0:0:0:0:
192,192,62480,1,8,0:0:0:0:
320,192,62480,1,0,0:0:0:0:
448,192,62657,1,0,0:0:0:0:
64,192,62833,1,2,0:0:0:0:
320,192,63009,1,0,0:0:0:0:
64,192,63186,1,8,0:0:0:0:
192,192,63186,1,0,0:0:0:0:
320,192,63362,1,0,0:0:0:0:
448,192,63539,128,2,63892:0:0:0:0:
64,192,63892,1,8,0:0:0:0:
320,192,63892,128,0,64245:0:0:0:0:
192,192,64245,128,2,64598:0:0:0:0:
64,192,64598,128,8,64951:0:0:0:0:
448,192,64598,1,0,0:0:0:0:
192,192,64951,1,2,0:0:0:0:
320,192,64951,1,4,0:0:0:0:
64,192,65304,1,8,0:0:0:0:
448,192,65304,1,0,0:0:0:0:
192,192,65480,1,0,0:0:0:0:
320,192,65657,1,2,0:0:0:0:
64,192,65833,1,0,0:0:0:0:
192,192,66009,1,8,0:0:0:0:
448,192,66009,1,0,0:0:0:0:
320,192,66186,1,0,0:0:0:0:
64,192,66362,1,2,0:0:0:0:
192,192,66715,1,8,0:0:0:0:
320,192,66715,1,0,0:0:0:0:
448,192,66892,1,0,0:0:0:0:
192,192,67068,1,2,0:0:0:0:
64,192,67245,1,0,0:0:0:0:
320,192,67421,1,8,0:0:0:0:
448,192,67421,1,4,0:0:0:0:
192,192,67598,1,0,0:0:0:0:
64,192,67774,1,10,0:0:0:0:
448,192,67774,1,4,0:0:0:0:
320,192,68127,1,2,0:0:0:0:
64,192,68304,1,8,0:0:0:0:
192,192,68304,1,0,0:0:0:0:
448,192,68480,1,2,0:0:0:0:
320,192,68833,1,8,0:0:0:0:
192,192,69009,1,8,0:0:0:0:
64,192,69186,1,4,0:0:0:0:
448,192,69186,1,8,0:0:0:0:
192,192,69539,1,2,0:0:0:0:
320,192,69715,1,8,0:0:0:0:
448,192,69715,1,0,0:0:0:0:
64,192,69892,1,8,0:0:0:0:
192,192,69892,1,0,0:0:0:0:
448,192,70068,1,8,0:0:0:0:
192,192,70245,1,8,0:0:0:0:
320,192,70421,1,8,0:0:0:0:
64,192,70598,1,4,0:0:0:0:
448,192,70598,1,2,0:0:0:0:
192,192,70951,1,8,0:0:0:0:
448,192,70951,1,0,0:0:0:0:
64,192,71127,1,0,0:0:0:0:
320,192,71304,1,2,0:0:0:0:
192,192,71480,1,0,0:0:0:0:
320,192,71657,1,8,0:0:0:0:
448,192,71657,1,0,0:0:0:0:
192,192,71833,1,0,0:0:0:0:
64,192,72009,1,2,0:0:0:0:
192,192,72362,1,8,0:0:0:0:
320,192,72362,1,0,0:0:0:0:
448,192,72539,1,0,0:0:0:0:
64,192,72715,1,2,0:0:0:0:
320,192,72892,1,0,0:0:0:0:
64,192,73068,1,8,0:0:0:0:
192,192,73068,1,0,0:0:0:50:Tom1.wav
320,192,73245,1,0,0:0:0:50:Tom2.wav
64,192,73421,1,2,0:0:0:0:
448,192,73421,1,4,0:0:0:0:
192,192,73774,1,2,0:0:0:0:
64,192,73951,1,8,0:0:0:0:
320,192,73951,1,4,0:0:0:0:
192,192,74304,1,8,0:0:0:0:
448,192,74304,1,4,0:0:0:0:
64,192,74657,1,10,0:0:0:0:
448,192,74657,1,4,0:0:0:0:
320,192,75009,1,0,0:0:0:50:Tom3.wav
64,192,75186,1,8,0:0:0:0:
192,192,75186,1,0,0:0:0:0:
320,192,75362,1,2,0:0:0:0:
448,192,75362,1,4,0:0:0:0:
64,192,75539,1,8,0:0:0:0:
192,192,75539,1,0,0:0:0:50:Tom2.wav
448,192,75715,1,2,0:0:0:0:
320,192,75892,1,0,0:0:0:50:Tom1.wav
192,192,76068,1,0,0:0:0:50:Tom2.wav
64,192,76245,1,4,0:0:0:0:
448,192,76245,1,2,0:0:0:0:
320,192,76421,1,0,0:0:0:0:
64,192,76598,1,8,0:0:0:0:
192,192,76598,1,0,0:0:0:0:
448,192,76774,1,0,0:0:0:0:
320,192,76951,1,2,0:0:0:0:
192,192,77127,1,0,0:0:0:0:
64,192,77304,1,8,0:0:0:0:
448,192,77304,1,0,0:0:0:0:
320,192,77480,1,8,0:0:0:0:
64,192,77657,1,2,0:0:0:0:
192,192,77657,1,4,0:0:0:0:
64,192,78009,1,8,0:0:0:0:
320,192,78009,1,0,0:0:0:0:
192,192,78186,1,0,0:0:0:0:
448,192,78362,1,2,0:0:0:0:
320,192,78539,1,0,0:0:0:0:
64,192,78715,1,8,0:0:0:0:
192,192,78715,1,0,0:0:0:0:
320,192,78892,1,0,0:0:0:50:Tom2.wav
64,192,79068,1,4,0:0:0:0:
448,192,79068,1,2,0:0:0:0:
320,192,79421,1,8,0:0:0:0:
448,192,79421,1,0,0:0:0:0:
64,192,79598,1,0,0:0:0:0:
192,192,79774,1,2,0:0:0:0:
320,192,79951,1,0,0:0:0:0:
64,192,80127,1,8,0:0:0:0:
448,192,80127,1,0,0:0:0:0:
192,192,80304,1,0,0:0:0:0:
320,192,80480,1,2,0:0:0:0:
448,192,80480,1,4,0:0:0:0:
64,192,80833,1,8,0:0:0:0:
192,192,80833,1,0,0:0:0:0:
320,192,81009,1,8,0:0:0:0:
192,192,81186,1,8,0:0:0:0:
448,192,81362,1,0,0:0:0:50:Tom1.wav
64,192,81539,1,2,0:0:0:0:
320,192,81715,1,2,0:0:0:0:
64,192,81892,128,4,82951:0:0:0:0:
192,192,81892,1,2,0:0:0:0:
448,192,82951,128,0,83304:0:0:0:0:
320,192,83127,1,2,0:0:0:0:
64,192,83304,1,8,0:0:0:0:
192,192,83304,1,4,0:0:0:0:
320,192,83657,1,2,0:0:0:0:
64,192,83833,1,8,0:0:0:0:
448,192,83833,1,4,0:0:0:0:
192,192,84186,1,8,0:0:0:0:
320,192,84186,1,4,0:0:0:0:
64,192,84539,1,8,0:0:0:0:
448,192,84715,1,6,0:0:0:0:
320,192,84892,1,0,0:0:0:0:
64,192,85068,1,8,0:0:0:0:
192,192,85068,1,0,0:0:0:0:
320,192,85245,1,4,0:0:0:0:
448,192,85245,1,2,0:0:0:0:
192,192,85598,1,2,0:0:0:0:
64,192,85774,1,8,0:0:0:0:
448,192,85774,1,0,0:0:0:0:
192,192,85951,1,2,0:0:0:0:
320,192,85951,1,4,0:0:0:0:
448,192,86304,1,2,0:0:0:0:
64,192,86480,1,8,0:0:0:0:
320,192,86480,1,0,0:0:0:0:
192,192,86833,1,2,0:0:0:0:
320,192,87009,1,2,0:0:0:0:
64,192,87186,1,8,0:0:0:0:
448,192,87186,1,0,0:0:0:0:
192,192,87362,1,4,0:0:0:0:
320,192,87362,1,8,0:0:0:0:
64,192,87715,1,10,0:0:0:0:
64,192,87892,1,10,0:0:0:0:
448,192,88068,1,10,0:0:0:0:
448,192,88245,1,10,0:0:0:0:
192,192,88421,1,10,0:0:0:0:
192,192,88598,1,10,0:0:0:0:
320,192,88774,1,10,0:0:0:0:
448,192,88774,1,4,0:0:0:0:
