osu file format v14

[General]
AudioFilename: Waikyou Shenshoujin.mp3
AudioLeadIn: 0
PreviewTime: 18619
Countdown: 0
SampleSet: Normal
StackLeniency: 0.7
Mode: 0
LetterboxInBreaks: 1
WidescreenStoryboard: 0

[Editor]
Bookmarks: 136556
DistanceSpacing: 1.1
BeatDivisor: 2
GridSize: 8
TimelineZoom: 2.2

[Metadata]
Title:Waikyou - Senshou Jing
TitleUnicode:歪鏡・シェンショウジン
Artist:Iguchi Yuka
ArtistUnicode:井口 裕香
Creator:Wintermute
Version:Normal
Source:Senki Zesshō Symphogear G
Tags:Miku Kohinata Symphogear
BeatmapID:672545
BeatmapSetID:299681

[Difficulty]
HPDrainRate:4
CircleSize:2.8
OverallDifficulty:4
ApproachRate:5
SliderMultiplier:1.10000000596046
SliderTickRate:1

[Events]
//Background and Video events
0,0,"bg-by-nuclearagent.jpg",0,0
//Break Periods
2,105444,113419
2,189819,195919
//Storyboard Layer 0 (Background)
//Storyboard Layer 1 (Fail)
//Storyboard Layer 2 (Pass)
//Storyboard Layer 3 (Foreground)
//Storyboard Sound Samples

[TimingPoints]
244,375,4,1,0,75,1,0
6619,375,4,1,0,75,1,0
6619,-133.333333333333,4,1,0,75,0,0
18619,-100,4,1,0,75,0,0
24619,-100,4,1,0,75,0,0
33619,-133.333333333333,4,2,0,70,0,0
45619,-100,4,1,0,75,0,0
78619,-100,4,1,0,75,0,1
96619,-100,4,1,0,75,0,0
98869,-100,4,1,0,75,0,0
114619,-133.333333333333,4,2,0,70,0,0
117619,-133.333333333333,4,2,0,70,0,0
129619,-100,4,1,0,75,0,0
162619,-100,4,1,0,75,0,1
180619,-100,4,1,0,75,0,0
198619,-100,4,1,0,75,0,1
210619,-100,4,2,0,75,0,0
218869,-100,4,2,0,70,0,0
239119,-100,4,1,0,75,0,0

[HitObjects]
64,64,6619,6,0,L|192:192,1,165.00000718832
264,232,7744,2,0,L|264:176,1,41.2500017970799
264,144,8119,1,0,0:0:0:0:
328,72,8494,1,0,0:0:0:0:
424,40,8869,2,0,L|424:128,1,82.5000035941599
472,208,9619,6,0,L|296:208,1,165.00000718832
208,208,10744,2,0,L|160:176,1,41.2500017970799
128,168,11119,1,0,0:0:0:0:
56,232,11494,5,0,0:0:0:0:
64,328,11869,2,0,L|160:328,1,82.5000035941599
248,328,12619,6,0,L|428:328,1,165.00000718832
480,256,13744,2,0,L|432:248,1,41.2500017970799
392,240,14119,1,0,0:0:0:0:
296,232,14494,1,0,0:0:0:0:
320,328,14869,6,0,P|240:320|200:240,1,165.00000718832
200,152,15994,1,0,0:0:0:0:
112,200,16369,2,0,L|16:200,1,82.5000035941599
40,104,17119,5,0,0:0:0:0:
128,56,17494,1,0,0:0:0:0:
224,48,17869,1,0,0:0:0:0:
318,50,18244,1,0,0:0:0:0:
318,50,18619,6,0,L|344:104,1,55.000000298023
376,144,18994,2,0,L|448:176,1,55.000000298023
464,208,19369,2,2,L|360:264,1,110.000000596046
296,344,20119,5,0,0:0:0:0:
288,232,20494,1,0,0:0:0:0:
192,288,20869,2,2,P|176:240|200:176,1,110.000000596046
192,72,21619,6,0,L|128:72,1,55.000000298023
88,96,21994,2,0,L|88:168,1,55.000000298023
88,208,22369,2,2,L|88:344,1,110.000000596046
192,344,23119,5,0,0:0:0:0:
304,344,23494,1,0,0:0:0:0:
408,312,23869,2,2,B|408:240,1,55.000000298023
448,216,24244,2,0,B|448:144,1,55.000000298023
448,104,24619,6,0,L|328:104,1,110.000000596046
232,88,25369,2,2,L|272:192,1,110.000000596046
296,296,26119,5,0,0:0:0:0:
256,232,26306,2,0,B|240:216|240:216|200:216,2,55.000000298023
224,304,26869,2,2,B|208:320|208:320|120:320,1,110.000000596046
48,232,27619,6,0,P|32:168|40:120,1,110.000000596046
120,56,28369,2,2,L|184:40,1,55.000000298023
232,48,28744,2,2,L|288:48,1,55.000000298023
344,48,29119,6,0,L|344:192,1,110.000000596046
456,152,29869,1,2,0:0:0:0:
456,264,30244,1,2,0:0:0:0:
256,192,30619,12,0,33244,0:0:0:0:
56,252,33619,6,0,L|104:328,1,82.5000035941599
184,344,34369,1,0,0:0:0:0:
264,344,34744,1,0,0:0:0:0:
344,344,35119,2,0,L|344:248,1,82.5000035941599
408,208,35869,2,0,L|344:156,1,82.5000035941599
408,104,36619,6,0,L|488:168,1,82.5000035941599
480,240,37369,1,0,0:0:0:0:
400,240,37744,1,0,0:0:0:0:
320,240,38119,6,0,L|232:240,1,82.5000035941599
160,208,38869,1,0,0:0:0:0:
160,288,39244,1,0,0:0:0:0:
80,288,39619,5,0,0:0:0:0:
80,208,39994,2,0,L|80:116,1,82.5000035941599
200,88,40931,6,0,L|176:136,2,41.2500017970799
216,56,41494,2,0,L|272:56,1,41.2500017970799
296,56,41869,2,0,L|408:56,1,82.5000035941599
400,136,42619,5,0,0:0:0:0:
480,152,42994,2,0,B|472:184|448:208|424:216|408:216,1,82.5000035941599
344,224,43744,1,0,0:0:0:0:
296,160,44119,6,0,P|256:280|224:160,1,330.00001437664
288,72,45994,1,0,0:0:0:0:
184,40,46369,2,0,L|72:40,1,110.000000596046
40,144,47119,6,0,B|39:186|43:206|55:226|79:246,1,110.000000596046
160,176,47869,2,0,L|288:176,1,110.000000596046
368,232,48619,5,0,0:0:0:0:
320,328,48994,2,0,B|208:328,1,110.000000596046
120,264,49744,1,0,0:0:0:0:
64,360,50119,6,0,L|64:240,1,110.000000596046
64,136,50869,2,0,L|184:136,1,110.000000596046
280,128,51619,5,0,0:0:0:0:
304,232,51994,2,0,P|368:196|384:148,1,110.000000596046
280,128,52744,2,0,L|164:128,1,110.000000596046
96,208,53494,5,0,0:0:0:0:
144,304,53869,1,0,0:0:0:0:
256,312,54244,2,0,B|392:312,1,110.000000596046
456,248,54994,6,0,B|456:191|456:191|392:160,1,110.000000596046
312,112,55744,2,0,B|312:168|312:168|248:192,1,110.000000596046
152,200,56494,5,0,0:0:0:0:
80,120,56869,2,0,L|32:152,2,55.000000298023
160,40,57619,6,0,P|224:51|257:87,1,110.000000596046
272,192,58369,6,0,B|272:240|272:240|312:240|296:296|296:328|360:352|408:336,1,220.000001192092
480,280,59494,2,0,L|480:184,1,55.000000298023
472,168,59869,2,0,P|456:104|392:56,1,110.000000596046
320,40,60619,5,0,0:0:0:0:
216,72,60994,1,0,0:0:0:0:
288,152,61369,2,0,L|288:264,1,110.000000596046
216,344,62119,6,0,L|112:304,1,110.000000596046
112,192,62869,1,0,0:0:0:0:
216,216,63244,2,0,L|216:160,1,55.000000298023
216,104,63619,6,0,B|200:64|200:64|120:64,1,110.000000596046
80,64,64181,1,0,0:0:0:0:
40,104,64369,2,0,L|40:224,1,110.000000596046
136,264,65119,6,0,B|171:286|209:277|251:258|268:237|279:185|279:185|285:145|312:112|336:96|368:80|408:96,1,330.000001788138
400,208,66619,6,0,B|444:167|460:96,1,110.000000596046
368,48,67369,2,0,B|324:89|312:162,1,110.000000596046
312,200,67931,1,0,0:0:0:0:
312,256,68119,6,2,L|224:256,1,55.000000298023
200,248,68494,6,2,L|200:193,1,55.000000298023
200,136,68869,6,2,L|90:135,1,110.000000596046
90,248,69619,6,0,L|217:248,1,110.000000596046
206,335,70369,2,0,P|264:320|289:262,1,110.000000596046
280,168,71119,6,0,L|280:48,1,110.000000596046
328,40,71681,1,0,0:0:0:0:
384,40,71869,2,0,L|384:168,1,110.000000596046
256,192,72619,12,0,75244,0:0:0:0:
112,72,75619,5,0,0:0:0:0:
168,72,75806,1,0,0:0:0:0:
224,72,75994,2,0,L|288:72,1,55.000000298023
328,128,76369,5,0,0:0:0:0:
328,184,76556,1,0,0:0:0:0:
328,240,76744,2,0,L|328:304,1,55.000000298023
288,264,77119,6,0,B|216:306|125:255|113:136|178:70|303:61|332:150|326:200,1,440.000002384184
352,304,78994,2,0,L|389:356,1,55.000000298023
440,344,79369,1,2,0:0:0:0:
440,232,79744,1,2,0:0:0:0:
440,120,80119,6,0,P|408:64|344:32,1,110.000000596046
336,136,80869,2,2,L|240:64,1,110.000000596046
144,40,81619,6,0,L|144:152,1,110.000000596046
144,264,82369,1,2,0:0:0:0:
256,264,82744,1,2,0:0:0:0:
190,355,83119,6,0,P|182:301|143:263,1,110.000000596046
64,336,83869,2,2,L|38:259,1,55.000000298023
56,232,84244,2,10,L|27:163,1,55.000000298023,0|0,0:0|0:0,0:0:0:0:
40,128,84619,6,0,L|176:128,1,110.000000596046
208,128,85181,1,0,0:0:0:0:
264,128,85369,2,2,P|302:90|315:37,1,110.000000596046
424,40,86119,6,0,L|453:168,1,110.000000596046
448,200,86681,1,0,0:0:0:0:
448,256,86869,2,2,P|391:255|352:215,1,110.000000596046
288,128,87619,6,0,L|224:128,1,55.000000298023
192,168,87994,2,8,L|120:168,1,55.000000298023
152,336,89119,6,2,L|288:336,1,110.000000596046
376,336,89869,1,0,0:0:0:0:
472,288,90244,1,0,0:0:0:0:
472,176,90619,5,0,0:0:0:0:
472,64,90994,2,0,L|400:64,1,55.000000298023
360,64,91369,1,2,0:0:0:0:
304,160,91744,1,2,0:0:0:0:
272,264,92119,6,0,L|160:264,1,110.000000596046
152,152,92869,2,2,L|208:144,1,55.000000298023
200,88,93244,2,2,L|144:72,1,55.000000298023
96,88,93619,5,0,0:0:0:0:
64,192,93994,1,0,0:0:0:0:
120,288,94369,2,0,P|176:272|224:216,1,110.000000596046
296,160,95119,6,0,P|335:122|387:108,1,110.000000596046
456,200,95869,1,2,0:0:0:0:
368,264,96244,1,2,0:0:0:0:
288,344,96619,6,0,P|248:320|224:248,1,110.000000596046
224,176,97181,1,0,0:0:0:0:
168,104,97369,2,0,L|264:40,1,110.000000596046
368,40,98119,6,2,L|432:40,1,55.000000298023
408,128,98494,6,2,L|344:128,1,55.000000298023
320,208,98869,6,2,L|464:208,1,110.000000596046
480,304,99619,6,0,P|432:336|352:344,1,110.000000596046
328,344,100181,2,0,L|328:160,1,165.000000894069
312,72,101119,6,0,P|256:102|240:168,1,110.000000596046
224,200,101681,2,0,P|192:288|112:336,1,165.000000894069
256,192,102619,12,0,105244,0:0:0:0:
176,88,114619,5,0,0:0:0:0:
176,128,114806,1,0,0:0:0:0:
176,168,114994,2,0,L|176:232,1,41.2500017970799
216,280,115369,5,0,0:0:0:0:
256,280,115556,1,0,0:0:0:0:
296,280,115744,2,0,L|360:280,1,41.2500017970799
376,208,116119,5,0,0:0:0:0:
341,187,116306,1,0,0:0:0:0:
306,168,116494,2,0,L|250:135,1,41.2500017970799
256,104,116869,1,0,0:0:0:0:
328,56,117244,1,0,0:0:0:0:
408,40,117619,5,0,0:0:0:0:
456,112,117994,1,0,0:0:0:0:
344,160,118369,1,0,0:0:0:0:
264,160,118744,1,0,0:0:0:0:
184,160,119119,6,0,L|96:160,1,82.5000035941599
56,232,119869,2,0,L|56:352,1,82.5000035941599
136,312,120619,5,0,0:0:0:0:
216,304,120994,2,0,P|208:264|160:232,1,82.5000035941599
232,168,121744,1,0,0:0:0:0:
312,168,122119,6,0,L|424:168,1,82.5000035941599
432,184,122681,1,0,0:0:0:0:
464,208,122869,2,0,L|464:304,1,82.5000035941599
400,344,123619,5,0,0:0:0:0:
320,344,123994,2,0,P|291:315|278:277,1,82.5000035941599
256,200,124744,6,0,P|228:160|192:138,1,82.5000035941599
208,56,125494,2,0,B|255:43,2,41.2500017970799
128,72,126244,1,0,0:0:0:0:
64,120,126619,6,0,L|40:208,1,82.5000035941599
120,232,127369,2,0,L|232:232,1,82.5000035941599
240,304,128119,2,0,B|301:274|280:200|280:200|223:75,1,247.50001078248
120,64,129619,5,0,0:0:0:0:
144,168,129994,2,0,B|184:200|184:200|248:136,1,110.000000596046
272,56,130744,2,0,L|352:56,1,55.000000298023
384,56,131119,6,0,L|464:152,1,110.000000596046
344,152,131869,2,0,L|232:152,1,110.000000596046
152,224,132619,5,0,0:0:0:0:
48,264,132994,2,0,B|80:336|159:334,1,110.000000596046
216,264,133744,2,0,L|216:200,1,55.000000298023
184,160,134119,5,0,0:0:0:0:
264,80,134494,2,0,P|304:128|304:192,1,110.000000596046
320,280,135244,1,0,0:0:0:0:
408,344,135619,6,0,L|408:192,1,110.000000596046
400,112,136369,2,0,L|272:112,1,110.000000596046
176,128,137119,5,0,0:0:0:0:
48,128,137494,1,0,0:0:0:0:
48,256,137869,2,0,L|192:256,1,110.000000596046
272,256,138619,6,0,B|280:320|280:320|329:345,1,110.000000596046
448,320,139369,2,0,B|432:264|432:264|367:246,1,110.000000596046
304,160,140119,5,0,0:0:0:0:
416,144,140494,2,0,L|480:144,2,55.000000298023
288,144,141244,1,0,0:0:0:0:
192,224,141619,6,0,P|160:128|256:32,2,220.000001192092
288,304,143494,2,0,L|384:304,1,55.000000298023
400,304,143869,1,0,0:0:0:0:
400,176,144244,1,0,0:0:0:0:
464,64,144619,6,0,L|345:64,1,110.000000596046
240,64,145369,2,0,L|185:64,1,55.000000298023
128,96,145744,2,0,L|128:157,1,55.000000298023
128,208,146119,5,0,0:0:0:0:
128,336,146494,1,0,0:0:0:0:
256,336,146869,2,0,P|336:320|368:272,1,110.000000596046
448,224,147619,5,0,0:0:0:0:
384,112,147994,1,0,0:0:0:0:
288,48,148369,2,0,P|192:64|160:112,1,110.000000596046
128,176,149119,6,2,B|48:192,1,55.000000298023
64,240,149494,2,0,L|112:272,1,55.000000298023
176,288,149869,1,2,0:0:0:0:
304,288,150244,1,2,0:0:0:0:
400,224,150619,6,0,B|371:173|371:173|319:173,1,110.000000596046
192,176,151369,1,0,0:0:0:0:
112,96,151744,2,0,B|162:73,1,55.000000298023
224,64,152119,6,2,L|288:64,1,55.000000298023
320,112,152494,6,2,L|384:112,1,55.000000298023
432,144,152869,6,2,L|496:272,1,110.000000596046
432,352,153619,6,0,P|384:320|368:240,1,110.000000596046
320,160,154369,1,0,0:0:0:0:
224,80,154744,1,0,0:0:0:0:
336,48,155119,6,0,B|400:32|448:80,1,110.000000596046
464,192,155869,2,0,L|400:192,1,55.000000298023
352,192,156244,1,0,0:0:0:0:
256,192,156619,12,0,159244,0:0:0:0:
400,312,159619,5,0,0:0:0:0:
344,312,159806,1,0,0:0:0:0:
288,312,159994,2,0,L|224:312,1,55.000000298023
184,256,160369,5,0,0:0:0:0:
184,200,160556,1,0,0:0:0:0:
184,144,160744,2,0,L|184:80,1,55.000000298023
224,120,161119,6,0,B|296:78|387:129|399:248|334:314|209:323|180:234|186:184,1,440.000002384184
160,80,162994,2,0,L|123:28,1,55.000000298023
72,40,163369,1,2,0:0:0:0:
72,152,163744,1,2,0:0:0:0:
72,264,164119,6,0,P|104:320|168:352,1,110.000000596046
176,248,164869,2,2,L|272:320,1,110.000000596046
368,344,165619,6,0,L|368:232,1,110.000000596046
368,120,166369,1,2,0:0:0:0:
256,120,166744,1,2,0:0:0:0:
322,29,167119,6,0,P|330:83|369:121,1,110.000000596046
448,48,167869,2,2,L|474:125,1,55.000000298023
456,152,168244,2,10,L|485:221,1,55.000000298023,0|0,0:0|0:0,0:0:0:0:
472,256,168619,6,0,L|336:256,1,110.000000596046
304,256,169181,1,0,0:0:0:0:
248,256,169369,2,2,P|210:294|197:347,1,110.000000596046
88,344,170119,6,0,L|59:216,1,110.000000596046
64,184,170681,1,0,0:0:0:0:
64,128,170869,2,2,P|121:129|160:169,1,110.000000596046
224,256,171619,6,0,L|288:256,1,55.000000298023
320,216,171994,2,8,L|392:216,1,55.000000298023
360,48,173119,6,2,L|224:48,1,110.000000596046
136,48,173869,1,0,0:0:0:0:
40,96,174244,1,0,0:0:0:0:
40,208,174619,5,0,0:0:0:0:
40,320,174994,2,0,L|112:320,1,55.000000298023
152,320,175369,1,2,0:0:0:0:
208,224,175744,1,2,0:0:0:0:
240,120,176119,6,0,L|352:120,1,110.000000596046
360,232,176869,2,2,L|304:240,1,55.000000298023
312,296,177244,2,2,L|368:312,1,55.000000298023
416,296,177619,5,0,0:0:0:0:
448,192,177994,1,0,0:0:0:0:
392,96,178369,2,0,P|336:112|288:168,1,110.000000596046
216,224,179119,6,0,P|177:262|125:276,1,110.000000596046
56,184,179869,1,2,0:0:0:0:
144,120,180244,1,2,0:0:0:0:
224,40,180619,6,0,P|264:64|288:136,1,110.000000596046
288,208,181181,1,0,0:0:0:0:
344,280,181369,2,0,L|248:344,1,110.000000596046
144,344,182119,6,2,L|80:344,1,55.000000298023
104,256,182494,6,2,L|168:256,1,55.000000298023
192,176,182869,6,2,L|48:176,1,110.000000596046
32,80,183619,6,0,P|80:48|160:40,1,110.000000596046
184,40,184181,2,0,L|184:224,1,165.000000894069
200,312,185119,6,0,P|256:282|272:216,1,110.000000596046
288,184,185681,6,0,P|320:96|400:48,1,165.000000894069
256,192,186619,12,0,189619,0:0:0:0:
96,144,197119,5,0,0:0:0:0:
192,80,197494,1,0,0:0:0:0:
304,48,197869,2,0,L|384:48,1,55.000000298023
416,80,198244,2,0,L|464:128,1,55.000000298023
464,176,198619,6,0,P|448:224|356:240,1,110.000000596046
272,256,199369,2,2,L|272:320,1,55.000000298023
208,320,199744,2,2,L|208:256,1,55.000000298023
176,208,200119,6,0,B|136:184|136:184|116:208|112:184|112:184|68:172,1,110.000000596046
112,64,200869,2,2,L|176:64,1,55.000000298023
224,64,201244,2,2,L|288:64,1,55.000000298023
336,80,201619,6,0,P|352:128|336:192,1,110.000000596046
304,304,202369,2,2,B|340:312|340:312|364:300,1,55.000000298023
416,288,202744,2,2,B|424:252|424:252|424:225,1,55.000000298023
432,176,203119,6,0,P|432:112|400:64,1,110.000000596046
288,48,203869,1,2,0:0:0:0:
208,128,204244,1,2,0:0:0:0:
288,224,204619,6,0,B|326:250|322:273|322:273|345:271|369:313,1,110.000000596046
256,368,205369,2,2,L|223:311,1,55.000000298023
192,272,205744,2,2,L|126:248,1,55.000000298023
96,208,206119,6,0,P|96:156|144:92,1,110.000000596046
176,64,206681,1,0,0:0:0:0:
240,48,206869,2,2,L|295:48,1,55.000000298023
352,48,207244,2,2,L|407:48,1,55.000000298023
256,192,207619,12,0,210244,0:0:0:0:
239,78,210619,6,0,B|198:70|167:84|142:115|142:115|111:89|78:80|40:96,1,220.000001192092
76,180,211744,1,0,0:0:0:0:
160,272,212119,6,0,P|195:230|203:177,1,110.000000596046
272,80,212869,1,0,0:0:0:0:
400,64,213244,1,0,0:0:0:0:
448,176,213619,6,0,B|409:192|376:182|346:157|346:157|320:187|289:202|249:194,1,220.000001192092
128,192,214744,1,0,0:0:0:0:
208,288,215119,6,0,B|224:336|256:352|288:352|320:320|320:320|352:288|384:288|416:304,1,220.000001192092
480,208,216244,1,0,0:0:0:0:
352,208,216619,6,0,P|305:180|289:128,1,110.000000596046
400,80,217369,2,0,L|464:80,2,55.000000298023
272,80,218119,6,0,L|176:80,1,55.000000298023
160,96,218494,6,0,L|80:96,1,55.000000298023
48,112,218869,6,0,L|64:240,1,110.000000596046
80,336,219619,6,0,L|192:304,1,110.000000596046
304,288,220369,1,0,0:0:0:0:
352,176,220744,1,0,0:0:0:0:
272,96,221119,6,0,B|304:136|284:144|284:144|256:160|284:208,1,110.000000596046
176,272,221869,2,0,P|128:176|128:128,1,110.000000596046
256,192,222619,12,0,225244,0:0:0:0:
112,312,225619,5,0,0:0:0:0:
168,312,225806,1,0,0:0:0:0:
224,312,225994,2,0,L|288:312,1,55.000000298023
328,256,226369,5,0,0:0:0:0:
328,200,226556,1,0,0:0:0:0:
328,144,226744,2,0,L|328:80,1,55.000000298023
288,120,227119,6,0,B|216:78|125:129|113:248|178:314|303:323|332:234|326:184,1,440.000002384184
352,80,228994,2,0,L|389:28,1,55.000000298023
440,40,229369,1,2,0:0:0:0:
440,152,229744,1,2,0:0:0:0:
440,264,230119,6,0,P|408:320|344:352,1,110.000000596046
336,248,230869,2,2,L|240:320,1,110.000000596046
144,344,231619,6,0,L|144:232,1,110.000000596046
144,120,232369,1,2,0:0:0:0:
256,120,232744,1,2,0:0:0:0:
190,29,233119,6,0,P|182:83|143:121,1,110.000000596046
64,48,233869,2,2,L|38:125,1,55.000000298023
56,152,234244,2,10,L|27:221,1,55.000000298023,0|0,0:0|0:0,0:0:0:0:
40,256,234619,6,0,L|176:256,1,110.000000596046
208,256,235181,1,0,0:0:0:0:
264,256,235369,2,2,P|302:294|315:347,1,110.000000596046
424,344,236119,6,0,L|453:216,1,110.000000596046
448,128,236869,2,2,P|391:129|352:169,1,110.000000596046
288,256,237619,6,0,L|224:256,1,55.000000298023
192,216,237994,2,8,L|120:216,1,55.000000298023
84,186,238369,2,0,P|67:133|68:79,1,110.000000596046
152,48,239119,6,2,L|288:48,1,110.000000596046
376,48,239869,1,0,0:0:0:0:
472,96,240244,1,0,0:0:0:0:
472,208,240619,5,0,0:0:0:0:
472,320,240994,2,0,L|400:320,1,55.000000298023
360,320,241369,1,2,0:0:0:0:
304,224,241744,1,2,0:0:0:0:
272,120,242119,6,0,L|160:120,1,110.000000596046
152,232,242869,2,2,L|208:240,1,55.000000298023
200,296,243244,2,2,L|144:312,1,55.000000298023
96,296,243619,5,0,0:0:0:0:
64,192,243994,1,0,0:0:0:0:
120,96,244369,2,0,P|176:112|224:168,1,110.000000596046
296,224,245119,6,0,P|335:262|387:276,1,110.000000596046
456,184,245869,1,2,0:0:0:0:
368,120,246244,1,2,0:0:0:0:
288,40,246619,6,0,P|248:64|224:136,1,110.000000596046
224,208,247181,1,0,0:0:0:0:
168,280,247369,2,0,L|264:344,1,110.000000596046
368,344,248119,6,2,L|432:344,1,55.000000298023
408,256,248494,6,2,L|344:256,1,55.000000298023
320,176,248869,6,2,L|464:176,1,110.000000596046
480,80,249619,6,0,P|432:48|352:40,1,110.000000596046
328,40,250181,2,0,L|328:224,1,165.000000894069
312,312,251119,6,0,P|256:282|240:216,1,110.000000596046
224,184,251681,2,0,P|192:96|112:48,1,165.000000894069
16,32,252619,6,0,L|96:144,1,110.000000596046
160,208,253369,2,2,L|224:192,1,55.000000298023
272,176,253744,2,2,L|318:115,1,55.000000298023
336,80,254119,5,0,0:0:0:0:
448,144,254494,1,0,0:0:0:0:
480,256,254869,2,2,L|448:320,1,55.000000298023
400,336,255244,2,0,L|336:336,1,55.000000298023
288,320,255619,5,0,0:0:0:0:
160,320,255994,1,0,0:0:0:0:
208,208,256369,2,2,L|144:208,1,55.000000298023
96,192,256744,2,2,L|48:160,1,55.000000298023
64,96,257119,5,0,0:0:0:0:
176,48,257494,1,0,0:0:0:0:
304,48,257869,2,2,L|279:97,1,55.000000298023
240,144,258244,2,2,L|236:211,1,55.000000298023
240,256,258619,5,0,0:0:0:0:
320,352,258994,1,8,0:0:0:0:
352,240,259369,1,2,0:0:0:0:
256,160,259744,1,10,0:0:0:0:
144,192,260119,6,0,P|172:240|240:264,1,110.000000596046
336,224,260869,2,2,P|308:176|236:152,1,110.000000596046
176,80,261619,5,0,0:0:0:0:
64,128,261994,1,0,0:0:0:0:
80,256,262369,1,2,0:0:0:0:
176,336,262744,1,2,0:0:0:0:
288,352,263119,6,0,P|336:320|368:272,1,110.000000596046
368,160,263869,2,2,L|369:43,1,110.000000596046
256,32,264619,6,0,L|256:112,1,55.000000298023
240,144,264994,2,0,L|192:171,1,55.000000298023
144,208,265369,2,2,P|144:272|176:304,1,110.000000596046
288,336,266119,6,0,L|345:342,1,55.000000298023
400,304,266494,2,0,L|448:256,1,55.000000298023
448,208,266869,1,0,0:0:0:0:
416,96,267244,1,0,0:0:0:0:
304,48,267619,6,0,L|332:104,1,55.000000298023
352,144,267994,2,0,L|352:208,1,55.000000298023
352,256,268369,2,2,P|304:288|240:288,1,110.000000596046
144,256,269119,6,0,L|88:228,1,55.000000298023
48,192,269494,2,0,L|32:128,1,55.000000298023
64,80,269869,1,2,0:0:0:0:
176,32,270244,1,2,0:0:0:0:
288,96,270619,6,0,B|260:168,1,55.000000298023
240,208,270994,2,0,B|219:258,1,55.000000298023
192,320,271369,1,2,0:0:0:0:
320,320,271744,1,2,0:0:0:0:
432,272,272119,6,0,P|464:224|464:160,1,110.000000596046
352,192,272869,2,2,L|224:192,1,110.000000596046
128,160,273619,5,0,0:0:0:0:
48,240,273994,2,0,L|60:293,1,55.000000298023
96,336,274369,2,2,B|189:336|189:336|201:324,1,110.000000596046
304,272,275119,6,0,L|359:272,1,55.000000298023
416,256,275494,1,0,0:0:0:0:
464,224,275681,1,0,0:0:0:0:
480,160,275869,2,2,P|448:80|400:64,1,110.000000596046
320,32,276619,6,0,L|192:48,1,110.000000596046
96,80,277369,2,0,P|128:144|192:144,1,110.000000596046
256,224,278119,6,0,L|256:95,1,110.000000596046
352,48,278869,5,0,0:0:0:0:
416,144,279244,5,0,0:0:0:0:
320,224,279619,5,0,0:0:0:0:
