osu file format v14

[General]
AudioFilename: Waikyou Shenshoujin.mp3
AudioLeadIn: 0
PreviewTime: 18619
Countdown: 0
SampleSet: Normal
StackLeniency: 0.3
Mode: 0
LetterboxInBreaks: 1
WidescreenStoryboard: 0

[Editor]
Bookmarks: 156603
DistanceSpacing: 2
BeatDivisor: 4
GridSize: 32
TimelineZoom: 2.2

[Metadata]
Title:Waikyou - Senshou Jing
TitleUnicode:歪鏡・シェンショウジン
Artist:Iguchi Yuka
ArtistUnicode:井口 裕香
Creator:Wintermute
Version:Insane
Source:Senki Zesshō Symphogear G
Tags:Miku Kohinata Symphogear
BeatmapID:725087
BeatmapSetID:299681

[Difficulty]
HPDrainRate:6.5
CircleSize:4
OverallDifficulty:8
ApproachRate:9
SliderMultiplier:1.2
SliderTickRate:1

[Events]
//Background and Video events
0,0,"bg-by-nuclearagent.jpg",0,0
//Break Periods
2,105444,114019
//Storyboard Layer 0 (Background)
//Storyboard Layer 1 (Fail)
//Storyboard Layer 2 (Pass)
//Storyboard Layer 3 (Foreground)
//Storyboard Sound Samples

[TimingPoints]
244,375,4,1,0,80,1,0
6619,375,4,2,0,55,1,0
18619,-66.6666666666667,4,1,0,60,0,0
30619,-100,4,1,0,60,0,0
33994,-100,4,2,0,60,0,0
45619,-66.6666666666667,4,1,0,60,0,0
63619,-66.6666666666667,4,1,0,10,0,0
63994,-66.6666666666667,4,1,0,60,0,0
67353,-66.6666666666667,4,1,0,60,0,0
68119,-200,4,1,0,60,0,0
68494,-100,4,1,0,60,0,0
68869,-66.6666666666667,4,1,0,60,0,0
69619,-66.6666666666667,4,1,0,10,0,0
69994,-66.6666666666667,4,1,0,60,0,0
71119,-66.6666666666667,4,1,0,10,0,0
71494,-66.6666666666667,4,1,0,60,0,0
78619,-66.6666666666667,4,1,0,60,0,1
80119,-66.6666666666667,4,1,0,10,0,1
80494,-66.6666666666667,4,1,0,60,0,1
83119,-66.6666666666667,4,1,0,10,0,1
83494,-66.6666666666667,4,1,0,60,0,1
84619,-66.6666666666667,4,1,0,10,0,1
84994,-66.6666666666667,4,1,0,60,0,1
87619,-66.6666666666667,4,1,0,10,0,1
87994,-66.6666666666667,4,1,0,60,0,1
95119,-66.6666666666667,4,1,0,10,0,1
95494,-66.6666666666667,4,1,0,60,0,1
96619,-66.6666666666667,4,1,0,60,0,0
98119,-200,4,1,0,60,0,0
98494,-100,4,1,0,60,0,0
98869,-66.6666666666667,4,1,0,60,0,0
114619,-100,4,2,0,60,0,0
129619,-66.6666666666667,4,1,0,60,0,0
130369,-66.6666666666667,4,1,0,10,0,0
130744,-66.6666666666667,4,1,0,60,0,0
132619,-66.6666666666667,4,1,0,10,0,0
132994,-66.6666666666667,4,1,0,60,0,0
135619,-66.6666666666667,4,1,0,10,0,0
135994,-66.6666666666667,4,1,0,60,0,0
140681,-66.6666666666667,4,1,0,10,0,0
140869,-66.6666666666667,4,1,0,60,0,0
141619,-66.6666666666667,4,1,0,10,0,0
141994,-66.6666666666667,4,1,0,60,0,0
145369,-66.6666666666667,4,1,0,10,0,0
145744,-66.6666666666667,4,1,0,60,0,0
147619,-66.6666666666667,4,1,0,10,0,0
147994,-66.6666666666667,4,1,0,60,0,0
148556,-66.6666666666667,4,1,0,10,0,0
148744,-66.6666666666667,4,1,0,60,0,0
152119,-200,4,1,0,60,0,0
152494,-100,4,1,0,60,0,0
152869,-66.6666666666667,4,1,0,60,0,0
153619,-66.6666666666667,4,1,0,10,0,0
153994,-66.6666666666667,4,1,0,60,0,0
156603,-100,4,1,0,60,0,0
159603,-66.6666666666667,4,1,0,60,0,0
162619,-66.6666666666667,4,1,0,60,0,1
164119,-66.6666666666667,4,1,0,10,0,1
164494,-66.6666666666667,4,1,0,60,0,1
167119,-66.6666666666667,4,1,0,10,0,1
167494,-66.6666666666667,4,1,0,60,0,1
168619,-66.6666666666667,4,1,0,10,0,1
168994,-66.6666666666667,4,1,0,60,0,1
171619,-66.6666666666667,4,1,0,10,0,1
171994,-66.6666666666667,4,1,0,60,0,1
179119,-66.6666666666667,4,1,0,10,0,1
179494,-66.6666666666667,4,1,0,60,0,1
180619,-66.6666666666667,4,1,0,60,0,0
182119,-200,4,1,0,60,0,0
182494,-100,4,1,0,60,0,0
182869,-66.6666666666667,4,1,0,60,0,0
183619,-66.6666666666667,4,1,0,60,0,0
189619,-100,4,1,0,60,0,0
197119,-66.6666666666667,4,1,0,60,0,0
198619,-66.6666666666667,4,1,0,60,0,1
201619,-66.6666666666667,4,1,0,10,0,1
201994,-66.6666666666667,4,1,0,60,0,1
210619,-100,4,2,0,60,0,0
218119,-200,4,2,0,60,0,0
218494,-100,4,2,0,60,0,0
225619,-66.6666666666667,4,1,0,60,0,0
228619,-66.6666666666667,4,2,0,60,0,0
239119,-66.6666666666667,4,1,0,60,0,0
240619,-66.6666666666667,4,1,0,60,0,1
242119,-66.6666666666667,4,1,0,10,0,1
242494,-66.6666666666667,4,1,0,60,0,1
245119,-66.6666666666667,4,1,0,10,0,1
245494,-66.6666666666667,4,1,0,60,0,1
246619,-66.6666666666667,4,1,0,60,0,0
248119,-200,4,1,0,60,0,0
248494,-100,4,1,0,60,0,0
248869,-66.6666666666667,4,1,0,60,0,0
258619,-66.6666666666667,4,1,0,20,0,0
258994,-66.6666666666667,4,1,0,60,0,0
259369,-66.6666666666667,4,1,0,10,0,0
259744,-66.6666666666667,4,1,0,60,0,0

[HitObjects]
80,112,6619,6,0,P|126:250|224:256,1,240
323,143,7744,2,0,P|289:150|259:143,1,60
176,160,8119,5,0,0:0:0:0:
320,288,8494,1,0,0:0:0:0:
240,80,8869,2,0,P|301:40|368:48,1,120
460,188,9619,6,0,P|414:326|352:304,1,240
240,208,10744,2,0,P|220:168|236:136,1,60
336,112,11119,5,0,0:0:0:0:
407,250,11494,1,0,0:0:0:0:
239,292,11869,2,0,P|183:271|157:217,1,120
208,132,12619,6,0,P|279:240|263:346,1,240
81,231,13744,1,0,0:0:0:0:
41,118,13931,1,0,0:0:0:0:
147,62,14119,5,0,0:0:0:0:
107,145,14494,2,0,B|131:166|170:158|170:158|225:204,1,120
365,62,15244,1,0,0:0:0:0:
249,230,15619,5,0,0:0:0:0:
371,222,15994,2,0,B|420:205|420:205|432:167|464:157,1,120
156,282,16744,1,0,0:0:0:0:
312,296,17119,6,0,L|343:328,3,30
342,224,17494,2,0,L|390:228,3,30
328,152,17869,2,0,L|374:129,3,30
256,104,18244,1,0,0:0:0:0:
229,127,18337,1,0,0:0:0:0:
208,155,18431,1,0,0:0:0:0:
195,187,18525,1,0,0:0:0:0:
190,222,18619,5,0,0:0:0:0:
376,128,18806,1,0,0:0:0:0:
312,248,18994,1,8,0:0:0:0:
200,136,19181,1,0,0:0:0:0:
398,273,19369,2,2,P|373:315|327:332,1,90.0000034332276
115,111,19744,2,10,P|140:69|186:52,1,90.0000034332276
325,73,20119,5,0,0:0:0:0:
423,165,20306,1,0,0:0:0:0:
291,196,20494,1,8,0:0:0:0:
259,92,20681,1,0,0:0:0:0:
210,212,20869,2,0,P|229:252|267:276,1,90.0000034332276,2|0,0:0|0:0,0:0:0:0:
471,230,21244,1,10,0:0:0:0:
428,66,21431,1,10,0:0:0:0:
250,35,21619,6,0,P|206:48|171:82,1,90.0000034332276
59,214,21994,1,8,0:0:0:0:
105,97,22181,1,0,0:0:0:0:
213,294,22369,2,2,P|254:285|289:223,1,90.0000034332276
59,214,22744,1,8,0:0:0:0:
210,212,22931,1,10,0:0:0:0:
126,137,23119,6,0,L|175:242,1,90.0000034332276
120,337,23494,1,8,0:0:0:0:
14,226,23681,1,0,0:0:0:0:
158,175,23869,1,2,0:1:0:0:
189,324,24056,1,2,0:1:0:0:
306,350,24244,2,10,L|247:254,1,90.0000034332276
208,163,24619,5,0,0:0:0:0:
298,103,24806,1,0,0:0:0:0:
200,54,24994,1,8,0:0:0:0:
177,223,25181,2,2,L|143:128,1,90.0000034332276
47,278,25556,1,0,0:0:0:0:
174,345,25744,2,10,P|222:313|241:258,1,90.0000034332276
275,98,26119,6,2,P|299:60|338:39,1,90.0000034332276
458,118,26494,1,8,0:0:0:0:
324,171,26681,1,0,0:0:0:0:
456,229,26869,2,2,L|486:333,1,90.0000034332276
397,165,27244,1,10,0:0:0:0:
483,61,27431,1,10,0:0:0:0:
288,159,27619,6,0,L|350:233,1,90.0000034332276
277,344,27994,1,8,0:1:0:0:
144,269,28181,1,0,0:1:0:0:
307,212,28369,2,0,L|301:308,1,90.0000034332276
172,339,28744,1,8,0:1:0:0:
225,196,28931,1,8,0:1:0:0:
116,87,29119,5,0,0:0:0:0:
35,171,29306,1,0,0:1:0:0:
207,118,29494,1,8,0:1:0:0:
217,213,29681,1,0,0:0:0:0:
386,154,29869,1,0,0:0:0:0:
224,35,30056,1,0,0:0:0:0:
102,153,30244,1,8,0:0:0:0:
280,135,30431,1,8,0:0:0:0:
142,62,30619,6,0,B|129:52|54:107|40:184|131:234|145:276|180:304|257:339|257:339|334:304|370:276|385:234|475:184|461:100|391:30|306:30|256:93|256:93|215:44|164:63,1,960
179,194,33994,6,0,B|291:143,1,120
467,164,34744,2,0,L|438:228,1,60
358,304,35119,5,0,0:0:0:0:
255,242,35306,1,0,0:0:0:0:
258,108,35494,1,8,0:0:0:0:
349,178,35681,1,0,0:0:0:0:
176,97,35869,2,0,P|205:46|261:29,1,120
207,336,36619,5,0,0:0:0:0:
292,216,36994,2,0,B|302:185|297:147|259:104|237:90,1,120
78,190,37744,2,0,L|151:190,1,60
240,192,38119,5,0,0:0:0:0:
283,284,38306,1,8,0:0:0:0:
377,320,38493,1,0,0:0:0:0:
474,290,38681,1,0,0:0:0:0:
487,188,38869,2,0,P|463:144|398:103,1,120
205,337,39619,5,8,0:0:0:0:
76,188,39994,2,8,L|179:126,1,120
322,239,40744,2,0,L|293:291,1,60
356,117,41119,5,0,0:0:0:0:
284,54,41306,1,0,0:0:0:0:
190,34,41494,1,8,0:0:0:0:
100,69,41681,1,8,0:0:0:0:
43,148,41869,2,0,P|36:205|77:253,1,120
241,53,42619,5,0,0:0:0:0:
218,190,42994,2,8,P|152:168|97:193,1,120
416,274,43744,1,0,0:0:0:0:
256,192,44119,12,0,45244,0:0:0:0:
252,299,45619,6,0,L|151:342,1,90.0000034332276
51,250,45994,1,8,0:0:0:0:
121,124,46181,1,0,0:0:0:0:
248,209,46369,2,0,L|144:221,1,90.0000034332276
50,109,46744,1,8,0:0:0:0:
222,58,46931,1,8,0:0:0:0:
222,58,47025,1,0,0:0:0:0:
223,58,47119,6,0,P|249:100|292:121,1,90.0000034332276
463,139,47494,2,8,P|458:86|440:54,1,90.0000034332276
256,199,47869,2,0,P|301:232|353:230,1,90.0000034332276
303,42,48244,1,8,0:0:0:0:
289,341,48619,6,0,L|340:256,1,90.0000034332276
191,269,48994,1,8,0:0:0:0:
451,311,49369,2,0,L|384:144,1,180.000006866455
222,242,49932,2,0,P|266:319|349:351,1,180.000006866455
437,210,50494,2,8,P|407:177|365:163,1,90.0000034332276
236,142,50869,2,0,B|267:164|267:164|269:204|288:236|318:260|354:260,1,180.000006866455
374,266,51337,1,0,0:0:0:0:
402,274,51430,1,0,0:0:0:0:
431,282,51524,1,0,0:0:0:0:
460,290,51618,5,4,0:0:0:0:
316,71,51994,1,8,0:0:0:0:
186,230,52369,2,0,L|117:163,1,90.0000034332276
298,133,52744,2,8,L|390:145,1,90.0000034332276
275,255,53119,6,0,P|253:302|186:314,1,90.0000034332276
51,287,53494,1,8,0:0:0:0:
26,118,53681,2,0,B|40:65|74:29|139:25|206:46,1,180.000006866455
321,110,54244,1,8,0:0:0:0:
385,248,54431,1,8,0:0:0:0:
425,72,54619,1,4,0:0:0:0:
425,72,54994,5,8,0:1:0:0:
334,112,55181,1,0,0:1:0:0:
447,253,55369,1,0,0:1:0:0:
355,58,55556,1,0,0:1:0:0:
286,131,55743,1,8,0:1:0:0:
445,217,55931,1,8,0:1:0:0:
325,87,56119,6,0,P|272:52|223:51,1,90.0000034332276
72,96,56494,1,8,0:0:0:0:
181,238,56681,1,0,0:0:0:0:
63,350,56869,2,0,L|38:222,1,90.0000034332276
129,122,57244,2,8,L|233:122,1,90.0000034332276
55,186,57619,6,0,P|31:103|86:36,1,180.000006866455
200,232,58369,2,0,B|200:233|245:208|276:156|272:83|224:32|224:32|129:122,1,360.000013732911
127,214,59494,1,8,0:1:0:0:
209,96,59681,1,0,0:3:0:0:
29,101,59869,1,8,0:0:0:0:
203,311,60056,1,8,0:0:0:0:
166,337,60149,1,8,0:0:0:0:
122,348,60243,1,8,0:0:0:0:
92,314,60337,1,8,0:0:0:0:
57,285,60431,1,8,0:0:0:0:
31,248,60524,1,8,0:0:0:0:
33,202,60619,6,4,P|49:155|89:115,1,90.0000034332277
270,143,60994,1,8,0:0:0:0:
161,206,61181,1,0,0:0:0:0:
227,77,61369,2,0,P|271:61|324:88,1,90.0000034332277
293,240,61744,1,8,0:0:0:0:
279,355,61931,6,0,P|205:313|181:191,1,180.000006866455
268,191,62494,1,8,0:0:0:0:
359,153,62681,1,0,0:0:0:0:
403,64,62869,1,0,0:0:0:0:
449,286,63056,1,0,0:0:0:0:
348,169,63244,2,8,L|250:112,1,90.0000034332277
444,63,63619,6,8,B|408:111|408:111|434:139|441:183|420:217|388:239,1,180.000006866455
243,290,64181,1,0,0:0:0:0:
422,268,64369,2,0,L|355:186,1,90.0000034332277
242,65,64744,1,8,0:0:0:0:
103,179,64931,1,8,0:0:0:0:
224,214,65119,6,0,P|225:150|201:106,1,90.0000034332277
45,186,65494,1,8,0:0:0:0:
132,342,65681,1,8,0:0:0:0:
218,237,65869,2,0,L|351:239,1,90.0000034332277
135,185,66244,1,8,0:0:0:0:
304,125,66431,1,8,0:0:0:0:
198,53,66619,6,0,P|133:56|80:112,1,135.000005149841
49,99,66994,1,8,0:0:0:0:
269,226,67181,1,0,0:0:0:0:
79,215,67369,2,0,P|121:147|194:113,1,135.000005149841
200,89,67744,1,8,0:0:0:0:
256,282,67931,1,8,0:0:0:0:
111,157,68119,6,2,L|81:157,1,30,0|0,0:0|0:0,0:0:0:0:
401,157,68494,6,10,L|470:157,1,60
256,251,68869,6,2,L|256:61,1,180.000006866455
138,119,69619,6,8,B|141:141|141:141|98:130|50:140|20:183|20:210,1,180.000006866455
260,253,70181,1,0,0:0:0:0:
111,236,70368,1,0,0:0:0:0:
196,108,70556,1,0,0:0:0:0:
342,128,70744,2,8,B|246:158,1,90.0000034332277
64,148,71119,6,8,P|93:67|189:32,1,180.000006866455
264,163,71681,1,0,0:0:0:0:
204,297,71869,1,0,0:0:0:0:
97,196,72056,1,0,0:0:0:0:
186,208,72244,2,8,B|158:269|158:269|103:297,1,90.0000034332277
256,192,72619,12,0,75244,0:0:0:0:
96,192,75619,5,8,0:0:0:0:
96,192,75806,1,8,0:0:0:0:
152,92,75994,2,0,L|237:161,1,90.0000034332277
96,192,76369,1,8,0:0:0:0:
96,192,76556,1,8,0:0:0:0:
290,100,76744,2,0,L|297:213,1,90.0000034332277
96,192,77119,5,8,0:0:0:0:
96,192,77306,1,8,0:0:0:0:
401,186,77494,2,0,L|345:280,1,90.0000034332277
337,284,77774,1,0,0:0:0:0:
314,297,77868,1,0,0:0:0:0:
288,307,77962,1,0,0:0:0:0:
265,312,78056,1,0,0:0:0:0:
242,314,78149,1,0,0:0:0:0:
219,312,78243,1,8,0:0:0:0:
196,307,78337,1,8,0:0:0:0:
174,300,78431,1,8,0:0:0:0:
154,289,78524,1,8,0:0:0:0:
135,279,78619,6,0,P|99:222|97:176,1,90.0000034332277
221,71,78994,1,8,0:0:0:0:
302,230,79181,1,0,0:0:0:0:
152,123,79369,2,2,B|114:69|158:0,1,90.0000034332277
368,181,79744,2,10,B|406:235|362:304,1,90.0000034332277
223,355,80119,6,8,B|162:319|226:281|226:281|225:192,1,180.000006866455
346,69,80681,1,2,0:0:0:0:
463,206,80869,1,0,0:0:0:0:
337,193,81056,1,2,0:0:0:0:
425,46,81244,2,10,L|497:113,1,90.0000034332277
460,347,81619,6,0,P|418:306|411:247,1,90.0000034332277
384,181,81994,1,8,0:0:0:0:
307,118,82181,1,0,0:0:0:0:
219,165,82369,1,2,0:0:0:0:
315,316,82556,1,0,0:0:0:0:
228,231,82744,2,10,L|143:260,1,90.0000034332277
131,349,83119,6,8,B|102:353|58:325|41:263|69:209,1,180.000006866455
300,209,83681,1,0,0:0:0:0:
166,240,83869,1,2,0:0:0:0:
147,64,84056,1,2,0:0:0:0:
74,255,84244,2,10,L|53:347,1,90.0000034332277
165,239,84619,6,8,B|222:234|266:187|266:134|248:111,1,180.000006866455
45,44,85181,1,0,0:0:0:0:
161,141,85369,1,0,0:0:0:0:
161,141,85463,1,0,0:0:0:0:
161,141,85556,1,0,0:0:0:0:
24,214,85744,1,8,0:0:0:0:
77,71,85931,1,8,0:0:0:0:
245,41,86119,6,2,P|278:68|297:117,1,90.0000034332277
373,96,86494,6,10,P|370:138|340:182,1,90.0000034332277
400,235,86869,6,2,P|363:256|311:257,1,90.0000034332277
303,335,87244,6,10,P|264:317|234:274,1,90.0000034332277
246,136,87619,6,8,P|315:103|423:158,1,180.000006866455
327,218,88181,1,0,0:0:0:0:
364,78,88369,2,0,L|486:56,1,90.0000034332277
327,218,88744,1,8,0:0:0:0:
192,99,88931,1,0,0:0:0:0:
298,69,89119,6,0,B|298:87|298:87|297:133|297:133|242:189,1,135.000005149841
204,174,89494,1,8,0:0:0:0:
104,28,89681,1,0,0:0:0:0:
52,213,89869,2,0,L|120:320,1,90.0000034332277
117,309,90149,1,0,0:0:0:0:
136,328,90243,1,8,0:0:0:0:
158,342,90337,1,8,0:0:0:0:
183,349,90431,1,8,0:0:0:0:
209,351,90524,1,8,0:0:0:0:
236,348,90619,5,0,0:0:0:0:
151,182,90806,1,0,0:0:0:0:
300,283,90994,1,8,0:0:0:0:
224,120,91181,1,0,0:0:0:0:
370,225,91369,1,2,0:0:0:0:
238,196,91556,1,2,0:0:0:0:
385,299,91744,2,10,P|426:280|444:212,1,90.0000034332277
462,143,92119,5,0,0:0:0:0:
364,63,92306,1,0,0:0:0:0:
277,154,92494,1,8,0:0:0:0:
400,174,92681,1,0,0:0:0:0:
286,117,92869,2,2,L|188:76,1,90.0000034332277
96,150,93244,1,10,0:0:0:0:
175,247,93431,1,10,0:0:0:0:
102,350,93619,6,2,B|49:335|28:264,1,90.0000034332277
25,174,93994,1,8,0:0:0:0:
204,174,94181,1,0,0:0:0:0:
117,271,94369,2,2,L|102:163,1,90.0000034332277
172,52,94744,1,10,0:0:0:0:
64,127,94931,1,10,0:0:0:0:
162,219,95119,6,8,P|194:136|155:31,1,180.000006866455
64,127,95681,1,0,0:0:0:0:
64,127,95775,1,0,0:0:0:0:
64,127,95869,1,2,0:0:0:0:
253,131,96056,2,10,L|197:201,1,90.0000034332277
253,131,96431,1,2,0:0:0:0:
98,217,96619,6,8,P|162:294|246:288,1,180.000006866455
356,145,97181,1,0,0:0:0:0:
356,145,97369,2,8,L|322:347,1,180.000006866455,8|8,0:1|0:1,0:1:0:0:
96,336,98119,6,2,L|128:336,1,30,2|2,0:1|0:1,0:1:0:0:
96,192,98494,6,10,L|180:192,1,60
96,48,98869,6,2,L|303:48,1,180.000006866455
108,252,99619,6,0,P|69:217|57:170,1,90.0000034332277
173,144,99994,1,8,0:0:0:0:
454,182,100181,2,0,P|438:223|404:252,1,90.0000034332277
172,236,100556,1,0,0:0:0:0:
292,132,100744,1,8,0:0:0:0:
312,304,100931,1,8,0:0:0:0:
146,192,101119,5,0,0:1:0:0:
146,152,101213,1,0,0:1:0:0:
155,115,101307,1,0,0:1:0:0:
176,80,101400,1,0,0:1:0:0:
204,54,101494,1,8,0:1:0:0:
376,132,101681,1,0,0:0:0:0:
355,167,101775,1,0,0:0:0:0:
351,208,101869,1,0,0:0:0:0:
355,249,101963,1,0,0:0:0:0:
341,288,102056,1,0,0:0:0:0:
316,321,102150,1,0,0:0:0:0:
280,342,102244,1,8,0:0:0:0:
239,347,102338,1,8,0:0:0:0:
200,333,102431,1,8,0:0:0:0:
159,327,102525,1,8,0:0:0:0:
256,192,102619,12,0,105244,0:0:0:0:
473,136,114619,6,0,P|447:107|411:91,1,60,0|0,2:0|2:0,2:0:0:0:
379,206,114994,2,8,P|404:246|405:273,1,60,8|8,2:0|2:0,2:0:0:0:
354,332,115369,1,0,0:0:0:0:
267,355,115556,1,0,0:0:0:0:
275,265,115744,2,8,L|268:201,1,60
200,106,116119,6,0,P|180:73|135:56,1,60,0|0,2:0|2:0,2:0:0:0:
131,177,116494,2,8,P|151:210|196:227,1,60,8|8,2:0|2:0,2:0:0:0:
136,318,116869,1,0,0:0:0:0:
38,138,117244,1,0,0:0:0:0:
90,231,117431,1,0,0:0:0:0:
242,160,117619,6,0,P|246:100|224:46,1,120,0|0,2:0|2:0,2:0:0:0:
178,232,118369,2,2,L|246:251,1,70,2|2,2:0|2:0,2:0:0:0:
312,175,118744,1,0,0:0:0:0:
455,108,118931,6,0,P|477:174|458:231,1,120,0|0,2:0|2:0,2:0:0:0:
363,294,119494,1,8,2:0:0:0:
273,214,119681,1,0,0:0:0:0:
384,170,119869,2,0,L|383:101,1,60,0|0,2:0|2:0,2:0:0:0:
470,192,120244,2,8,L|469:262,1,60,8|8,2:2|2:2,2:2:0:0:
384,32,120619,6,0,B|339:34|312:56|307:90|302:120,1,120
253,266,121369,2,2,P|228:294|197:313,1,60,2|2,0:2|0:2,0:2:0:0:
135,258,121744,1,8,2:0:0:0:
56,167,121931,6,0,P|86:106|137:73,1,120
262,104,122494,5,0,2:0:0:0:
350,185,122682,1,0,0:0:0:0:
273,277,122869,1,8,2:0:0:0:
178,189,123057,1,0,2:0:0:0:
312,164,123244,1,8,2:0:0:0:
193,150,123431,1,8,2:0:0:0:
190,270,123619,5,0,0:0:0:0:
384,307,123994,2,8,P|431:271|456:217,1,120
283,162,124744,2,8,L|334:195,1,60
434,141,125119,5,0,0:0:0:0:
348,66,125306,1,0,0:0:0:0:
245,115,125494,1,8,0:2:0:0:
223,226,125681,1,0,0:0:0:0:
144,309,125869,2,0,P|82:334|26:293,1,120
75,108,126619,5,0,0:0:0:0:
91,259,126994,2,0,P|156:215|168:154,1,120
235,64,127744,1,8,0:0:0:0:
257,83,127931,1,0,0:0:0:0:
272,115,128119,6,0,B|282:163|309:204|358:221|410:204,1,180
426,176,128775,1,0,0:0:0:0:
432,128,128869,1,0,0:0:0:0:
413,84,128962,1,0,0:0:0:0:
378,54,129056,1,0,0:0:0:0:
331,42,129150,1,0,0:0:0:0:
285,52,129244,1,0,0:0:0:0:
250,81,129337,1,0,0:0:0:0:
230,126,129431,1,0,0:0:0:0:
231,172,129525,1,0,0:0:0:0:
256,216,129619,5,0,0:0:0:0:
351,255,129994,2,10,P|338:155|256:121,1,180.000006866455
64,174,130744,2,8,B|32:199|32:199|56:248,1,90.0000034332277
187,334,131119,6,2,B|220:310|220:246,1,90.0000034332277
162,121,131494,1,8,0:1:0:0:
40,197,131681,1,0,0:0:0:0:
95,330,131869,2,2,L|124:208,1,90.0000034332277
182,114,132244,1,8,0:1:0:0:
318,68,132431,1,8,0:0:0:0:
372,201,132619,6,8,P|329:270|261:198,1,180.000006866455
386,30,133369,2,2,L|420:118,1,90.0000034332277
445,292,133744,1,8,0:0:0:0:
489,146,133931,1,8,0:0:0:0:
467,116,134025,1,0,0:0:0:0:
439,91,134119,6,0,P|383:65|344:66,1,90.0000034332277
223,92,134494,1,8,0:0:0:0:
364,201,134681,1,0,0:0:0:0:
150,326,134869,2,0,L|257:326,1,90.0000034332277
373,269,135244,1,8,0:1:0:0:
386,245,135338,1,8,0:0:0:0:
395,220,135431,1,8,0:0:0:0:
391,193,135525,1,8,0:0:0:0:
378,169,135619,6,8,P|277:83|208:74,1,180.000006866455
60,202,136369,2,2,L|162:202,1,90.0000034332277
253,147,136744,1,8,0:0:0:0:
120,92,136931,1,8,0:0:0:0:
120,92,137025,1,8,0:0:0:0:
120,92,137119,6,0,P|157:57|217:30,1,90.0000034332277
323,95,137494,1,8,0:0:0:0:
323,238,137681,2,0,L|225:197,1,90.0000034332277
101,244,138056,1,0,0:0:0:0:
198,350,138244,1,8,0:0:0:0:
269,225,138431,1,8,0:0:0:0:
190,59,138619,6,0,L|213:165,1,90.0000034332277
149,276,138994,1,8,0:1:0:0:
342,196,139181,1,0,0:1:0:0:
137,244,139369,1,0,0:1:0:0:
346,231,139556,1,0,0:1:0:0:
136,206,139744,1,8,0:1:0:0:
336,265,139931,1,8,0:1:0:0:
198,220,140119,5,0,0:1:0:0:
300,106,140306,1,0,0:1:0:0:
451,185,140494,2,8,L|410:99,1,90.0000034332277
250,45,140869,2,0,P|226:75|241:151,1,90.0000034332277
294,353,141244,2,8,L|293:248,1,90.0000034332277
376,35,141619,6,0,P|444:73|484:191,1,180.000006866455
112,341,142369,2,8,B|80:344|24:288|3:233|17:168|71:123|118:103|118:103|81:43,1,360.000013732911
309,110,143494,1,8,0:0:0:0:
145,228,143681,1,0,0:0:0:0:
280,347,143869,1,8,0:0:0:0:
464,256,144056,2,8,L|420:263,1,45.0000017166138
407,172,144244,2,8,L|491:197,1,45.0000017166138
459,95,144431,2,8,L|400:103,1,45.0000017166138
335,34,144619,5,4,0:0:0:0:
237,184,144806,1,0,0:0:0:0:
409,237,144994,1,8,0:0:0:0:
300,93,145181,1,0,0:0:0:0:
287,273,145369,2,8,P|221:288|151:208,1,180.000006866455
194,74,145931,1,0,0:0:0:0:
94,308,146119,5,0,0:0:0:0:
228,189,146306,1,0,0:0:0:0:
103,210,146494,2,8,P|124:254|186:310,1,90.0000034332277
263,341,146869,1,0,0:0:0:0:
164,224,147056,1,0,0:0:0:0:
315,198,147244,1,8,0:0:0:0:
225,74,147431,1,0,0:0:0:0:
60,108,147619,6,8,P|32:160|76:290,1,180.000006866455
158,192,148181,1,0,0:0:0:0:
101,59,148369,1,0,0:0:0:0:
255,107,148556,2,8,L|354:88,1,90.0000034332277
236,211,148931,1,8,0:0:0:0:
407,307,149119,6,2,L|311:344,1,90.0000034332277
234,225,149494,6,10,L|317:257,1,90.0000034332277
417,152,149869,6,2,L|333:184,1,90.0000034332277
244,70,150244,6,10,L|327:102,1,90.0000034332277
166,42,150619,6,8,B|213:85|226:137|203:192|138:219,1,180.000006866455
338,199,151369,2,8,B|308:192|285:137|298:85|345:42,1,180.000006866455
400,129,151931,1,0,0:0:0:0:
108,126,152119,6,2,L|119:163,1,30
181,263,152494,6,10,L|204:204,1,60
308,124,152869,6,2,L|351:328,1,180.000006866455
123,333,153619,6,8,P|53:281|37:195,1,180.000006866455
346,85,154181,1,0,0:0:0:0:
163,210,154369,1,0,0:0:0:0:
334,251,154556,1,0,0:0:0:0:
175,112,154744,2,8,P|215:155|253:167,1,90.0000034332277
263,68,155119,6,0,L|317:25,1,45.0000017166138
405,75,155306,2,0,L|481:73,1,45.0000017166138
473,201,155494,2,8,L|514:266,1,45.0000017166138
432,324,155681,2,0,L|397:368,1,45.0000017166138
285,312,155869,1,0,0:0:0:0:
254,275,155962,1,0,0:0:0:0:
276,233,156056,1,0,0:0:0:0:
288,192,156150,1,0,0:0:0:0:
266,157,156244,1,8,0:0:0:0:
220,166,156337,1,8,0:0:0:0:
190,128,156431,1,8,0:0:0:0:
177,82,156525,1,8,0:0:0:0:
142,62,156619,6,0,B|129:52|54:107|40:184|131:234|145:276|180:304|257:339|257:339|334:304|370:276|385:234|475:184|461:100|391:30|306:30|256:93|256:93|215:44|164:63,1,960
157,78,159806,1,0,0:0:0:0:
144,178,159994,2,8,L|227:243,1,90.0000034332277
157,78,160369,1,0,0:0:0:0:
157,78,160556,1,0,0:0:0:0:
163,260,160744,2,8,L|271:267,1,90.0000034332277
157,78,161119,5,0,0:0:0:0:
157,78,161306,1,0,0:0:0:0:
203,358,161494,2,8,P|246:328|271:273,1,90.0000034332277
301,119,161869,1,0,0:0:0:0:
177,189,162056,1,0,0:0:0:0:
174,220,162150,1,0,0:0:0:0:
182,250,162244,1,8,0:0:0:0:
198,277,162338,1,8,0:0:0:0:
224,293,162431,1,8,0:0:0:0:
253,304,162525,1,8,0:0:0:0:
284,299,162619,6,0,P|340:259|358:201,1,90.0000034332277
438,111,162994,1,8,0:0:0:0:
327,50,163181,1,0,0:0:0:0:
265,219,163369,1,2,0:0:0:0:
403,93,163556,1,2,0:0:0:0:
483,244,163744,2,10,L|426:328,1,90.0000034332277
264,350,164119,6,8,P|165:321|120:248,1,180.000006866455
212,115,164681,1,2,0:0:0:0:
236,236,164869,2,2,L|248:142,1,90.0000034332277
154,36,165244,1,8,0:0:0:0:
44,129,165431,1,8,0:0:0:0:
41,169,165525,1,8,0:0:0:0:
56,206,165619,6,2,L|129:293,1,90.0000034332277
259,323,165994,1,8,0:0:0:0:
359,208,166181,1,2,0:0:0:0:
359,208,166275,1,0,0:0:0:0:
359,208,166369,1,2,0:0:0:0:
206,195,166556,1,2,0:0:0:0:
390,279,166744,2,10,P|426:247|437:204,1,90.0000034332277,10|10,1:0|1:0,1:0:0:0:
263,30,167119,6,8,B|240:52|223:80|237:123|237:123|195:109|166:126|141:151,1,180.000006866455
71,293,167681,2,0,L|38:330,2,45.0000017166138
311,94,168056,1,8,0:0:0:0:
268,269,168244,1,8,0:0:0:0:
206,195,168431,1,8,0:0:0:0:
405,80,168619,6,8,B|451:108|465:153|471:203|431:248,1,180.000006866455
344,176,169181,2,2,L|249:137,2,90.0000034332277
171,122,169744,1,8,0:0:0:0:
93,283,169931,1,0,0:0:0:0:
93,283,170025,1,0,0:0:0:0:
93,283,170119,6,2,B|135:261|135:261|137:209,1,90.0000034332277
253,218,170494,6,10,B|231:176|231:176|179:174,1,90.0000034332277
188,57,170869,6,2,B|146:79|146:79|144:131,1,90.0000034332277
27,123,171244,6,10,B|49:165|49:165|101:167,1,90.0000034332277
271,148,171619,6,8,P|305:268|272:286,1,180.000006866455
112,338,172181,2,0,L|181:264,1,90.0000034332277
323,173,172555,1,8,0:0:0:0:
302,261,172744,1,0,0:0:0:0:
229,96,172931,1,8,0:0:0:0:
398,32,173119,6,0,P|465:123|471:159,1,135.000005149841
445,162,173494,1,8,0:0:0:0:
377,327,173681,1,0,0:0:0:0:
165,193,173869,2,0,L|255:193,1,90.0000034332277
279,212,174149,1,0,0:0:0:0:
293,239,174243,1,8,0:0:0:0:
295,284,174337,1,8,0:0:0:0:
271,322,174431,1,8,0:0:0:0:
229,339,174524,1,8,0:0:0:0:
184,347,174619,6,0,L|80:347,1,90.0000034332277
35,235,174994,1,8,0:0:0:0:
166,265,175181,1,0,0:0:0:0:
119,137,175369,2,2,L|92:33,1,90.0000034332277
321,151,175744,1,10,0:0:0:0:
218,81,175931,1,10,0:0:0:0:
263,208,176119,6,0,P|315:231|362:217,1,90.0000034332277
416,109,176494,1,8,0:0:0:0:
469,232,176681,1,0,0:0:0:0:
335,354,176869,2,2,L|370:268,1,90.0000034332277
465,352,177244,1,8,0:0:0:0:
251,278,177431,1,10,0:0:0:0:
396,187,177619,6,0,L|298:173,1,90.0000034332277
160,144,177994,1,8,0:0:0:0:
352,144,178181,1,0,0:0:0:0:
218,250,178369,2,2,L|196:151,1,90.0000034332277
142,48,178744,1,8,0:0:0:0:
38,134,178931,1,8,0:0:0:0:
24,268,179119,6,8,B|27:299|61:356|113:377|167:361,1,180.000006866455
300,268,179681,1,0,0:0:0:0:
300,268,179775,1,0,0:0:0:0:
300,268,179869,1,2,0:0:0:0:
138,256,180056,1,10,0:0:0:0:
361,213,180244,1,10,0:1:0:0:
174,144,180431,1,8,0:0:0:0:
244,307,180619,6,8,B|188:340|136:358|74:346|36:324,1,180.000006866455
121,144,181181,1,0,0:0:0:0:
40,252,181369,2,8,B|73:278|131:292|178:276|232:233,1,180.000006866455
67,155,182119,6,2,L|56:128,1,30
256,140,182494,6,10,L|256:80,1,60
456,128,182869,6,2,L|392:323,1,180.000006866455
96,112,183619,6,0,P|56:160|49:217,1,90.0000034332277
152,200,183994,1,8,0:0:0:0:
253,199,184181,2,0,P|243:247|214:279,1,90.0000034332277
152,200,184556,1,8,0:0:0:0:
360,200,184744,1,8,0:0:0:0:
256,336,184931,1,8,0:0:0:0:
152,200,185119,5,8,0:0:0:0:
163,170,185213,1,0,0:0:0:0:
181,144,185307,1,0,0:0:0:0:
203,121,185400,1,0,0:0:0:0:
229,103,185494,1,8,0:0:0:0:
332,52,185681,1,0,0:0:0:0:
432,109,185869,1,8,0:0:0:0:
453,139,185962,1,0,0:0:0:0:
466,174,186056,1,0,0:0:0:0:
470,211,186150,1,0,0:0:0:0:
465,249,186244,1,8,0:0:0:0:
452,283,186337,1,8,0:0:0:0:
430,314,186431,1,8,0:0:0:0:
402,338,186525,1,8,0:0:0:0:
256,192,186619,12,0,189244,0:0:0:0:
432,272,189619,6,0,P|386:134|288:128,1,240
189,241,190744,2,0,P|223:234|253:241,1,60
336,224,191119,5,0,0:0:0:0:
192,96,191494,1,0,0:0:0:0:
272,304,191869,2,0,P|211:344|144:336,1,120
52,196,192619,6,0,P|98:58|160:80,1,240
272,176,193744,6,0,P|292:216|276:248,1,60
176,272,194119,5,0,0:0:0:0:
105,134,194494,1,0,0:0:0:0:
273,92,194869,2,0,P|329:113|355:167,1,120
304,252,195619,6,0,P|233:144|249:38,1,240
431,153,196744,5,0,0:0:0:0:
471,266,196931,1,0,0:0:0:0:
365,322,197119,5,0,0:0:0:0:
346,166,197306,1,0,0:0:0:0:
346,166,197400,1,0,0:0:0:0:
345,165,197494,1,8,0:0:0:0:
183,45,197681,1,0,0:0:0:0:
141,25,197774,1,0,0:0:0:0:
96,31,197869,1,8,0:0:0:0:
61,61,197962,1,0,0:0:0:0:
39,100,198056,1,0,0:0:0:0:
33,144,198150,1,0,0:0:0:0:
29,191,198243,1,8,0:0:0:0:
45,235,198337,1,8,0:0:0:0:
76,271,198431,1,8,0:0:0:0:
110,303,198524,1,8,0:0:0:0:
147,330,198619,6,8,B|164:364|275:369|287:351|287:351|250:311,1,180.000006866455
474,283,199181,1,0,0:0:0:0:
335,198,199369,2,2,B|325:219|295:215|257:250,1,90.0000034332277
105,338,199744,2,10,B|68:302|57:247,1,90.0000034332277
65,47,200119,5,0,0:0:0:0:
106,57,200213,1,0,0:0:0:0:
137,85,200306,1,0,0:0:0:0:
170,112,200400,1,0,0:0:0:0:
179,153,200494,1,8,0:0:0:0:
160,190,200588,1,0,0:0:0:0:
143,227,200681,1,0,0:0:0:0:
143,269,200775,1,0,0:0:0:0:
165,305,200869,2,2,B|200:297|200:297|206:333|254:348,1,90.0000034332277
409,306,201244,2,2,B|374:314|374:314|368:278|320:263,1,90.0000034332277,10|2,0:0|0:0,0:0:0:0:
208,151,201619,6,8,B|166:117|166:117|288:81,1,180.000006866455
447,166,202181,1,0,0:0:0:0:
360,324,202369,2,2,B|327:308|299:247,1,90.0000034332277
208,127,202744,2,10,B|185:76|139:59,1,90.0000034332277
65,169,203119,6,0,L|21:153,3,45.0000017166138
162,300,203494,2,0,L|205:267,3,45.0000017166138
330,223,203869,2,2,B|348:229|348:229|326:162,1,90.0000034332277
182,161,204244,2,10,B|163:154|163:154|185:221,1,90.0000034332277
164,360,204619,6,0,B|105:344|101:291,1,90.0000034332277
57,127,204994,1,8,0:0:0:0:
228,180,205181,1,0,0:0:0:0:
84,289,205369,2,2,B|106:191,1,90.0000034332277
326,162,205744,2,10,B|267:248,1,90.0000034332277
149,96,206119,5,0,0:0:0:0:
194,113,206213,1,0,0:0:0:0:
232,105,206306,1,0,0:0:0:0:
266,82,206400,1,0,0:0:0:0:
305,67,206494,1,8,0:0:0:0:
346,73,206588,1,0,0:0:0:0:
379,100,206681,1,0,0:0:0:0:
406,132,206775,1,0,0:0:0:0:
414,175,206869,2,2,B|426:213|360:256,1,90.0000034332277
194,283,207244,2,10,B|216:332|267:350,1,90.0000034332277
424,254,207619,6,0,L|478:279,3,45.0000017166138
288,113,207994,2,0,L|273:56,3,45.0000017166138
159,277,208369,2,0,L|120:320,3,45.0000017166138
83,122,208744,2,0,L|41:97,3,45.0000017166138
258,83,209119,6,0,L|234:28,3,45.0000017166138
326,257,209494,2,0,L|317:324,3,45.0000017166138
421,126,209869,2,0,L|480:116,3,45.0000017166138
191,183,210244,2,0,L|195:235,1,45.0000017166138
115,115,210431,2,0,L|120:66,1,45.0000017166138
22,164,210619,6,0,P|42:221|101:251,1,120
209,228,211181,1,0,0:0:0:0:
151,122,211369,2,0,L|110:178,1,60
51,272,211744,1,0,0:0:0:0:
156,328,211931,6,0,P|241:338|275:319,1,120
330,219,212494,1,0,0:0:0:0:
209,228,212681,1,0,0:0:0:0:
151,122,212869,2,8,L|131:59,1,60
311,69,213244,6,0,L|383:69,1,60
460,34,213619,2,0,P|466:81|458:116,1,60
328,181,213994,1,8,0:0:0:0:
409,157,214181,1,0,0:0:0:0:
388,275,214369,2,8,L|415:349,1,60
478,233,214744,2,8,P|452:195|421:183,1,60
320,198,215119,5,0,0:0:0:0:
277,309,215306,1,0,0:0:0:0:
237,195,215494,2,8,P|207:168|169:161,1,60,0|0,0:0|0:0,0:0:0:0:
171,238,215869,1,0,0:0:0:0:
171,238,216431,5,0,0:0:0:0:
256,189,216619,5,0,0:0:0:0:
112,320,216994,1,8,0:0:0:0:
32,176,217369,1,0,0:0:0:0:
208,288,217744,1,8,0:0:0:0:
128,240,217931,1,0,0:0:0:0:
48,144,218119,6,10,L|48:96,1,30
224,144,218494,6,10,L|224:64,1,60
400,144,218869,6,10,L|400:0,1,120
290,168,219619,6,0,P|254:206|221:215,1,60
143,274,219994,1,8,0:0:0:0:
121,156,220181,2,0,L|121:82,1,60
39,185,220556,1,0,0:0:0:0:
65,302,220744,1,8,0:0:0:0:
173,352,220931,1,8,0:0:0:0:
220,241,221119,6,0,L|181:179,1,60
228,76,221494,1,8,0:0:0:0:
379,57,221681,2,0,P|415:154|394:228,1,180
256,192,222619,12,0,225244,0:0:0:0:
351,208,225619,5,8,0:0:0:0:
351,208,225806,1,8,0:0:0:0:
295,308,225994,2,0,L|210:239,1,90.0000034332277
351,208,226369,1,8,0:0:0:0:
351,208,226556,1,8,0:0:0:0:
157,300,226744,2,0,L|150:187,1,90.0000034332277
351,208,227119,5,8,0:0:0:0:
351,208,227306,1,8,0:0:0:0:
46,214,227494,2,0,L|102:120,1,90.0000034332277
110,116,227774,1,0,0:0:0:0:
133,103,227868,1,0,0:0:0:0:
159,93,227962,1,0,0:0:0:0:
182,88,228056,1,0,0:0:0:0:
205,86,228149,1,0,0:0:0:0:
228,88,228243,1,8,0:0:0:0:
251,93,228337,1,8,0:0:0:0:
273,100,228431,1,8,0:0:0:0:
293,111,228524,1,8,0:0:0:0:
312,121,228619,6,0,P|348:178|350:224,1,90.0000034332277
243,202,228994,1,8,0:0:0:0:
375,121,229181,1,0,0:0:0:0:
302,224,229369,1,0,0:0:0:0:
252,108,229556,1,0,0:0:0:0:
160,50,229744,2,8,L|102:154,1,90.0000034332277
103,159,230119,6,0,P|91:263|146:323,1,180.000006866455
199,222,230681,1,0,0:0:0:0:
62,104,230869,2,0,P|129:55|231:43,1,180.000006866455
92,234,231431,1,0,0:0:0:0:
92,234,231525,1,0,0:0:0:0:
92,234,231619,6,0,P|135:199|146:127,1,90.0000034332277
98,100,231994,1,8,0:2:0:0:
148,168,232181,1,0,0:0:0:0:
169,43,232369,1,0,0:0:0:0:
148,168,232556,1,0,0:0:0:0:
255,101,232744,2,8,L|346:101,1,90.0000034332277,8|8,0:2|0:2,0:2:0:0:
409,159,233119,6,0,P|421:263|366:323,1,180.000006866455
237,354,233681,1,0,0:0:0:0:
178,222,233869,2,0,L|293:243,1,90.0000034332277
376,316,234244,1,8,0:0:0:0:
313,143,234431,1,0,0:0:0:0:
420,116,234619,6,0,P|372:43|286:36,1,180.000006866455
191,131,235181,1,0,0:0:0:0:
313,143,235368,1,0,0:0:0:0:
326,248,235556,2,8,P|272:240|234:199,1,90.0000034332277,8|8,0:2|0:2,0:2:0:0:
112,96,235931,1,0,0:0:0:0:
112,96,236025,1,0,0:0:0:0:
112,96,236119,6,2,P|172:112|211:168,1,90.0000034332277
228,60,236494,6,2,P|271:103|254:167,1,90.0000034332277
352,92,236869,6,2,P|355:157|334:196,1,90.0000034332277
440,173,237244,6,2,P|424:232|372:272,1,90.0000034332277
247,340,237619,6,0,P|195:328|141:243,1,135.000005149841
168,227,237994,1,8,0:0:0:0:
341,232,238181,2,0,L|228:233,1,90.0000034332277
106,231,238556,1,8,0:0:0:0:
145,312,238744,1,0,0:0:0:0:
192,138,238931,1,8,0:0:0:0:
98,40,239119,5,8,0:0:0:0:
89,60,239213,1,0,0:0:0:0:
82,80,239307,1,0,0:0:0:0:
74,99,239401,1,0,0:0:0:0:
67,119,239494,1,0,0:0:0:0:
22,207,239681,2,2,L|75:279,1,90.0000034332277
111,311,239963,1,0,0:0:0:0:
157,334,240056,1,0,0:0:0:0:
208,348,240150,1,0,0:0:0:0:
260,349,240244,1,8,0:0:0:0:
311,337,240338,1,8,0:0:0:0:
358,314,240431,1,8,0:0:0:0:
401,284,240525,1,8,0:0:0:0:
439,250,240619,6,4,L|487:153,1,90.0000034332277
335,59,240994,1,8,0:0:0:0:
223,236,241181,1,0,0:0:0:0:
168,114,241369,1,2,0:0:0:0:
335,166,241556,1,2,0:0:0:0:
228,311,241744,2,8,P|177:297|151:255,1,90.0000034332277
70,76,242119,6,8,B|59:218|59:218|87:188,1,180.000006866455
185,114,242681,1,0,0:0:0:0:
178,294,242869,2,2,L|114:225,1,90.0000034332277
145,105,243244,1,10,0:0:0:0:
297,52,243431,1,10,0:0:0:0:
371,215,243618,5,0,0:0:0:0:
418,69,243806,1,0,0:0:0:0:
494,179,243993,1,8,0:0:0:0:
331,123,244181,2,2,P|290:147|282:209,1,90.0000034332277
318,322,244556,1,0,0:0:0:0:
459,349,244744,2,8,P|477:310|451:231,1,90.0000034332277
350,165,245119,6,8,P|318:248|357:353,1,180.000006866455
448,257,245681,1,0,0:0:0:0:
448,257,245775,1,0,0:0:0:0:
448,257,245869,1,2,0:0:0:0:
315,183,246056,2,10,L|259:253,1,90.0000034332277
148,332,246431,1,2,0:0:0:0:
84,230,246619,6,8,L|59:51,1,180.000006866455,8|8,0:1|0:1,0:1:0:0:
184,184,247181,1,0,0:0:0:0:
212,280,247369,2,8,P|124:262|86:187,1,180.000006866455
288,48,248119,6,2,L|320:48,1,30,2|2,0:1|0:1,0:1:0:0:
288,192,248494,6,10,L|372:192,1,60
288,336,248869,6,2,L|495:336,1,180.000006866455
404,132,249619,6,0,P|443:167|455:214,1,90.0000034332277
339,240,249994,1,8,0:0:0:0:
58,202,250181,2,0,P|74:161|108:132,1,90.0000034332277
340,148,250556,1,0,0:0:0:0:
220,252,250744,1,8,0:0:0:0:
200,80,250931,1,8,0:0:0:0:
366,192,251119,5,0,0:1:0:0:
366,232,251213,1,0,0:1:0:0:
357,269,251307,1,0,0:1:0:0:
336,304,251400,1,0,0:1:0:0:
308,330,251494,1,8,0:1:0:0:
136,252,251681,1,0,0:0:0:0:
157,217,251775,1,0,0:0:0:0:
161,176,251869,1,0,0:0:0:0:
157,135,251963,1,0,0:0:0:0:
171,96,252056,1,0,0:0:0:0:
196,63,252150,1,0,0:0:0:0:
232,42,252244,1,8,0:0:0:0:
273,37,252338,1,8,0:0:0:0:
312,51,252431,1,8,0:0:0:0:
353,57,252525,1,8,0:0:0:0:
395,69,252619,6,0,P|436:93|465:131,1,90.0000034332277
437,286,252994,1,8,0:0:0:0:
300,199,253181,1,0,0:0:0:0:
384,104,253369,1,2,0:0:0:0:
368,282,253556,1,2,0:0:0:0:
205,279,253744,1,10,0:0:0:0:
216,117,253931,1,10,0:0:0:0:
326,210,254119,6,0,L|286:310,1,90.0000034332277
141,353,254494,1,8,0:0:0:0:
80,203,254681,1,0,0:0:0:0:
214,293,254869,1,2,0:0:0:0:
260,206,255056,1,2,0:0:0:0:
89,264,255244,1,10,0:0:0:0:
157,98,255431,1,10,0:0:0:0:
165,224,255619,6,0,L|56:169,1,90.0000034332277
228,108,255994,2,8,L|327:121,1,90.0000034332277
404,48,256369,1,2,0:0:0:0:
464,176,256556,1,2,0:0:0:0:
323,120,256744,1,10,0:0:0:0:
406,278,256931,1,10,0:0:0:0:
268,161,257119,6,0,L|164:161,1,90.0000034332277
292,300,257494,1,8,0:0:0:0:
379,186,257681,1,0,0:0:0:0:
256,112,257869,1,2,0:0:0:0:
314,242,258056,1,2,0:0:0:0:
302,61,258244,1,10,0:0:0:0:
167,179,258431,1,10,0:0:0:0:
274,324,258619,6,8,P|362:320|409:243,1,180.000006866455
103,248,259369,2,8,P|151:320|238:324,1,180.000006866455
76,107,260119,6,8,L|35:72,2,45.0000017166138
276,230,260494,2,8,L|336:207,2,45.0000017166138
193,66,260869,2,8,L|188:21,2,45.0000017166138
78,327,261244,2,8,L|50:362,2,45.0000017166138
225,223,261619,6,0,P|266:185|265:111,1,90.0000034332277
149,80,261994,1,8,0:0:0:0:
95,213,262181,1,8,0:0:0:0:
347,212,262369,2,0,P|379:255|381:316,1,90.0000034332277
258,359,262744,1,8,0:0:0:0:
165,248,262931,1,8,0:0:0:0:
239,100,263119,5,0,0:0:0:0:
265,75,263212,1,0,0:0:0:0:
298,62,263306,1,0,0:0:0:0:
330,77,263400,1,0,0:0:0:0:
350,106,263494,1,8,0:0:0:0:
363,139,263587,1,0,0:0:0:0:
397,148,263681,1,0,0:0:0:0:
427,167,263775,1,0,0:0:0:0:
443,199,263869,1,8,0:0:0:0:
444,234,263962,1,0,0:0:0:0:
430,267,264056,1,0,0:0:0:0:
403,291,264150,1,0,0:0:0:0:
371,308,264244,6,8,L|332:323,8,22.5000008583069
292,220,264806,1,0,0:0:0:0:
286,346,264994,1,8,0:0:0:0:
420,346,265181,1,0,0:0:0:0:
306,205,265369,1,2,0:0:0:0:
470,277,265556,1,2,0:0:0:0:
240,264,265744,2,10,L|243:174,1,90.0000034332277
141,47,266119,6,0,P|83:58|37:110,1,90.0000034332277
170,230,266494,1,8,0:0:0:0:
123,120,266681,1,0,0:0:0:0:
89,269,266869,2,2,P|121:306|176:319,1,90.0000034332277
320,344,267244,1,10,0:0:0:0:
232,197,267431,1,10,0:0:0:0:
135,338,267619,6,0,P|184:323|216:289,1,90.0000034332277
207,136,267994,1,8,0:0:0:0:
123,226,268181,1,8,0:0:0:0:
240,89,268369,1,2,0:0:0:0:
294,231,268556,1,2,0:0:0:0:
171,173,268744,1,10,0:0:0:0:
322,118,268931,1,10,0:0:0:0:
208,258,269119,5,0,0:0:0:0:
69,297,269306,1,0,0:0:0:0:
33,157,269494,1,8,0:0:0:0:
170,116,269681,1,0,0:0:0:0:
287,200,269869,2,2,P|359:198|398:161,1,90.0000034332277
477,54,270244,1,10,0:0:0:0:
322,118,270431,1,2,0:0:0:0:
401,280,270619,6,0,L|399:177,1,90.0000034332277
340,68,270994,1,8,0:0:0:0:
460,146,271181,1,0,0:0:0:0:
340,241,271369,1,2,0:0:0:0:
453,343,271556,1,2,0:0:0:0:
273,326,271744,1,10,0:0:0:0:
434,246,271931,1,10,0:0:0:0:
342,239,272119,5,0,0:0:0:0:
114,229,272306,1,0,0:0:0:0:
286,108,272494,1,8,0:0:0:0:
242,312,272681,1,0,0:0:0:0:
191,121,272869,1,2,0:0:0:0:
342,239,273056,1,0,0:0:0:0:
342,239,273150,1,0,0:0:0:0:
342,239,273244,2,10,L|222:217,1,90.0000034332277
107,54,273619,5,0,0:0:0:0:
249,207,273806,1,0,0:0:0:0:
53,285,273994,1,8,0:0:0:0:
149,99,274181,1,0,0:0:0:0:
351,157,274369,1,2,0:0:0:0:
205,307,274556,1,2,0:0:0:0:
252,101,274744,1,10,0:0:0:0:
379,227,274931,1,10,0:0:0:0:
480,320,275119,6,0,L|368:320,1,90.0000034332277
224,240,275494,2,8,L|322:240,1,90.0000034332277
480,160,275869,2,0,L|368:160,1,90.0000034332277
240,80,276244,2,8,L|336:80,1,90.0000034332277
240,80,276619,6,0,P|198:126|198:169,1,90.0000034332277
294,168,276994,1,8,0:0:0:0:
212,317,277181,2,0,P|167:293|147:241,1,90.0000034332277
141,66,277556,1,0,0:0:0:0:
50,154,277744,2,8,L|50:249,1,90.0000034332277
82,328,278119,2,0,L|147:242,1,90.0000034332277
277,316,278494,1,8,0:0:0:0:
230,138,278869,5,0,0:0:0:0:
493,51,279244,5,0,0:0:0:0:
431,305,279619,5,0,0:0:0:0:
