osu file format v14

[General]
AudioFilename: Waikyou Shenshoujin.mp3
AudioLeadIn: 0
PreviewTime: 18619
Countdown: 0
SampleSet: Normal
StackLeniency: 0.4
Mode: 0
LetterboxInBreaks: 1
WidescreenStoryboard: 0

[Editor]
DistanceSpacing: 1.1
BeatDivisor: 4
GridSize: 8
TimelineZoom: 3.4

[Metadata]
Title:Waikyou - Senshou Jing
TitleUnicode:歪鏡・シェンショウジン
Artist:Iguchi Yuka
ArtistUnicode:井口 裕香
Creator:Wintermute
Version:Hard
Source:Senki Zesshō Symphogear G
Tags:Miku Kohinata Symphogear
BeatmapID:711641
BeatmapSetID:299681

[Difficulty]
HPDrainRate:5
CircleSize:4
OverallDifficulty:6
ApproachRate:7
SliderMultiplier:1.4
SliderTickRate:1

[Events]
//Background and Video events
0,0,"bg-by-nuclearagent.jpg",0,0
//Break Periods
2,102443,113719
//Storyboard Layer 0 (Background)
//Storyboard Layer 1 (Fail)
//Storyboard Layer 2 (Pass)
//Storyboard Layer 3 (Foreground)
//Storyboard Sound Samples

[TimingPoints]
244,375,4,1,0,45,1,0
6619,375,4,1,0,45,1,0
6619,-100,4,1,0,45,0,0
17119,-100,4,1,0,45,0,0
18619,-80,4,1,0,45,0,0
30619,-100,4,1,0,45,0,0
33619,-100,4,2,0,45,0,0
44119,-100,4,2,0,45,0,0
45619,-80,4,1,0,45,0,0
60619,-80,4,1,0,45,0,0
66619,-80,4,1,0,45,0,0
68119,-100,4,1,0,45,0,0
68494,-80,4,1,0,45,0,0
68869,-66.6666666666667,4,1,0,45,0,0
69619,-80,4,1,0,45,0,0
75619,-100,4,1,0,45,0,0
78619,-80,4,1,0,45,0,1
96619,-100,4,1,0,45,0,0
98119,-100,4,1,0,45,0,0
98494,-80,4,1,0,45,0,0
98869,-66.6666666666667,4,1,0,45,0,0
99619,-80,4,1,0,45,0,0
114619,-100,4,2,0,45,0,0
129619,-80,4,1,0,45,0,0
152119,-100,4,1,0,45,0,0
152494,-80,4,1,0,45,0,0
152869,-66.6666666666667,4,1,0,45,0,0
153244,-80,4,1,0,45,0,0
159619,-100,4,1,0,45,0,0
162619,-80,4,1,0,45,0,1
180619,-100,4,1,0,45,0,0
182119,-100,4,1,0,45,0,0
182494,-80,4,1,0,45,0,0
182869,-66.6666666666667,4,1,0,45,0,0
183619,-80,4,1,0,45,0,0
189619,-100,4,1,0,45,0,0
198619,-66.6666666666667,4,1,0,45,0,1
207619,-100,4,1,0,45,0,1
210619,-100,4,2,0,45,0,0
222619,-100,4,1,0,45,0,0
228619,-100,4,2,0,45,0,0
239119,-80,4,1,0,45,0,0
248119,-100,4,1,0,45,0,0
248494,-80,4,1,0,45,0,0
248869,-66.6666666666667,4,1,0,45,0,0
249619,-80,4,1,0,45,0,0

[HitObjects]
64,96,6619,6,0,P|48:176|232:248,1,280
160,160,7744,1,0,0:0:0:0:
272,72,8119,6,0,L|448:72,1,140
480,192,8869,1,0,0:0:0:0:
344,192,9244,1,0,0:0:0:0:
208,200,9619,6,0,P|256:288|104:320,1,280
32,232,10744,2,0,L|32:112,1,70
32,88,11119,5,0,0:0:0:0:
136,184,11494,1,0,0:0:0:0:
160,320,11869,2,0,L|344:320,1,140
440,320,12619,6,0,P|440:232|264:136,1,280
152,128,13744,1,0,0:0:0:0:
40,48,14119,6,0,L|200:48,1,140
320,56,14869,1,0,0:0:0:0:
456,56,15244,1,0,0:0:0:0:
472,192,15619,6,0,P|392:176|340:230,1,140
252,299,16369,1,0,0:0:0:0:
112,240,16744,1,0,0:0:0:0:
256,192,17119,12,0,18244,0:0:0:0:
232,216,18619,6,0,L|232:112,1,87.5
288,56,18994,1,8,0:0:0:0:
344,120,19181,1,0,0:0:0:0:
408,56,19369,2,0,P|432:144|384:208,1,175
216,168,20119,5,0,0:0:0:0:
154,106,20306,1,0,0:0:0:0:
66,104,20494,2,8,P|42:144|42:208,1,87.5
56,264,20869,2,0,P|136:336|248:344,1,175
376,336,21619,6,0,L|376:224,1,87.5
312,192,21994,1,8,0:0:0:0:
232,160,22181,1,0,0:0:0:0:
160,208,22369,2,8,P|224:248|312:192,1,175
368,40,23119,6,0,L|456:40,1,87.5
480,128,23494,2,8,L|392:128,1,87.5
360,208,23869,2,0,L|464:208,1,87.5
480,288,24244,1,8,0:0:0:0:
480,288,24431,1,8,0:0:0:0:
408,344,24619,6,0,L|272:344,1,87.5
248,296,24994,1,8,0:0:0:0:
176,344,25181,2,0,L|80:344,1,87.5
32,176,25744,1,8,0:0:0:0:
208,176,26119,5,0,0:0:0:0:
272,112,26306,1,0,0:0:0:0:
344,56,26494,2,8,L|432:56,1,87.5
464,136,26869,2,8,L|232:136,1,175
112,136,27619,6,0,P|64:152|40:192,1,87.5
40,272,27994,1,8,0:0:0:0:
104,328,28181,1,0,0:0:0:0:
192,344,28369,2,8,P|296:312|368:200,1,175
280,104,29119,6,0,L|192:104,1,87.5
144,176,29494,2,8,L|256:176,1,87.5
288,248,29869,2,0,L|184:248,1,87.5
144,320,30244,2,8,L|240:320,1,87.5
256,192,30619,12,0,33244,0:0:0:0:
168,160,33619,6,0,L|336:160,2,140
24,247,34931,1,0,0:0:0:0:
67,318,35119,2,0,L|163:318,1,70
220,311,35494,1,0,0:0:0:0:
281,254,35681,1,0,0:0:0:0:
357,289,35869,2,0,P|405:217|373:121,1,140
288,64,36619,6,0,P|208:128|200:224,1,140
176,296,37369,2,0,P|197:338|234:350,1,70
328,296,37931,1,0,0:0:0:0:
400,312,38119,6,0,L|400:208,1,70
376,176,38494,1,0,0:0:0:0:
320,136,38681,1,0,0:0:0:0:
256,168,38869,2,0,P|168:216|64:208,1,140
32,120,39619,6,0,P|88:40|168:48,1,140
264,32,40369,1,0,0:0:0:0:
425,78,40931,1,0,0:0:0:0:
461,154,41119,1,0,0:0:0:0:
396,195,41306,1,0,0:0:0:0:
342,139,41494,2,0,P|286:171|278:211,1,70
248,240,41869,2,0,P|256:312|368:352,1,140
448,344,42619,5,0,0:0:0:0:
328,272,42994,2,0,L|424:272,1,70
464,240,43369,2,0,L|464:56,1,140
256,192,44119,12,0,45244,0:0:0:0:
80,80,45619,6,8,P|40:176|56:256,1,175
104,312,46181,1,0,0:0:0:0:
184,336,46369,2,0,L|288:336,1,87.5
344,288,46744,1,8,0:0:0:0:
392,216,46931,1,8,0:0:0:0:
424,136,47119,6,0,L|424:40,1,87.5
336,40,47494,2,8,L|336:136,1,87.5
336,216,47869,2,0,P|280:296|168:312,1,175
37,237,48619,6,0,L|205:186,1,175
408,224,49369,1,8,0:0:0:0:
480,64,49744,2,8,L|384:80,1,87.5
344,152,50119,6,0,L|448:176,1,87.5
464,248,50494,2,8,L|360:256,1,87.5
296,288,50869,2,0,L|368:344,2,87.5
128,240,51619,5,0,0:0:0:0:
48,280,51806,1,0,0:0:0:0:
112,344,51994,2,8,L|216:344,1,87.5
256,280,52369,2,0,L|256:160,1,87.5
224,112,52744,1,8,0:0:0:0:
144,72,52931,1,8,0:0:0:0:
96,144,53119,6,0,L|96:288,1,87.5
152,296,53493,1,8,0:0:0:0:
248,304,53681,2,0,L|248:80,1,175
304,64,54244,2,8,L|424:64,1,87.5
464,104,54619,6,0,P|384:168|232:160,1,175
240,136,55181,1,0,0:0:0:0:
160,104,55369,2,0,P|88:96|48:120,1,87.5
24,184,55744,2,8,L|24:288,1,87.5
64,344,56119,6,0,P|112:296|112:256,1,87.5
152,200,56494,2,8,L|56:200,1,87.5
24,280,56869,2,0,L|136:280,1,87.5
200,280,57244,1,8,0:0:0:0:
200,280,57431,1,8,0:0:0:0:
264,344,57619,6,0,P|400:304|432:208,1,175
456,112,58369,2,0,P|320:152|288:248,1,175
368,216,59119,6,2,L|224:216,1,87.5
216,152,59494,2,10,L|328:152,1,87.5
352,224,59869,2,2,L|216:224,1,87.5
200,160,60244,2,10,L|328:160,1,87.5
376,160,60619,6,0,L|472:160,1,87.5
464,248,60994,1,8,0:0:0:0:
400,312,61181,1,0,0:0:0:0:
320,344,61369,2,8,P|208:352|144:320,1,175
96,264,61931,1,0,0:0:0:0:
56,184,62119,6,8,P|56:136|168:48,1,175
224,48,62681,1,0,0:0:0:0:
304,64,62869,2,0,L|400:88,1,87.5
448,152,63244,2,8,L|328:152,1,87.5
272,144,63619,6,0,L|80:144,1,175
32,200,64181,1,0,0:0:0:0:
80,272,64369,1,8,0:0:0:0:
168,272,64556,1,0,0:0:0:0:
240,224,64744,2,8,P|336:200|392:224,1,87.5
408,200,65119,6,0,L|408:320,1,87.5
328,320,65494,2,8,L|328:192,1,87.5
248,200,65869,2,0,L|248:320,1,87.5
168,320,66244,2,8,L|168:208,1,87.5
168,144,66619,6,0,L|352:144,1,175
488,240,67369,2,0,L|272:240,1,175
232,248,67931,1,0,0:0:0:0:
184,184,68119,6,2,L|184:96,1,70
256,72,68494,2,10,L|256:176,1,87.5
328,240,68869,2,0,L|328:24,1,210.000008010865
472,72,69619,6,0,L|472:160,1,87.5
480,248,69994,1,8,0:0:0:0:
416,312,70181,1,0,0:0:0:0:
328,328,70369,2,0,L|224:328,1,87.5
160,304,70744,2,8,P|192:256|240:248,1,87.5
304,240,71119,6,0,L|424:240,1,87.5
424,160,71494,2,8,L|328:160,1,87.5
248,160,71869,1,0,0:0:0:0:
168,184,72056,1,0,0:0:0:0:
224,248,72244,2,8,L|328:312,1,87.5
256,192,72619,12,0,75244,0:0:0:0:
272,160,75619,5,0,0:0:0:0:
272,160,75806,1,0,0:0:0:0:
344,160,75994,2,0,L|344:248,1,70
280,264,76369,1,0,0:0:0:0:
280,264,76556,1,0,0:0:0:0:
208,264,76744,2,0,L|208:176,1,70
208,120,77119,5,0,0:0:0:0:
208,120,77306,1,0,0:0:0:0:
152,72,77494,2,0,L|72:72,1,70
40,128,77869,2,0,P|40:224|112:296,1,140
232,304,78619,6,0,P|328:288|368:232,1,87.5
384,240,78994,1,8,0:0:0:0:
416,160,79181,1,0,0:0:0:0:
376,80,79369,2,10,L|184:80,1,175
48,168,80119,5,0,0:0:0:0:
112,232,80306,1,0,0:0:0:0:
192,256,80494,1,8,0:0:0:0:
280,232,80681,1,0,0:0:0:0:
352,184,80869,2,0,B|408:152|416:104|448:80|496:56,1,175,2|0,0:0|0:0,0:0:0:0:
488,224,81619,6,0,P|456:272|408:296,1,87.5
352,320,81994,1,8,0:0:0:0:
272,280,82181,1,0,0:0:0:0:
200,328,82369,2,2,P|96:344|40:288,1,175
16,128,83119,6,0,P|72:56|120:40,1,87.5
152,56,83494,1,8,0:0:0:0:
216,112,83681,1,0,0:0:0:0:
144,168,83869,2,2,P|104:248|152:328,1,175
296,248,84619,6,8,P|360:168|344:80,1,175
280,48,85181,1,0,0:0:0:0:
192,64,85369,1,0,0:0:0:0:
144,136,85556,1,0,0:0:0:0:
152,224,85744,2,12,L|208:328,1,87.5
256,232,86119,6,0,P|192:120|144:88,1,175
328,72,86869,2,2,P|376:160|376:256,1,175
232,328,87619,6,8,L|40:272,1,175
216,192,88369,1,2,0:0:0:0:
280,248,88556,1,2,0:0:0:0:
368,256,88744,1,10,0:0:0:0:
448,216,88931,1,2,0:0:0:0:
488,136,89119,6,0,P|456:48|328:64,1,175
288,128,89869,2,2,L|216:200,1,87.5
344,184,90244,2,2,L|416:104,1,87.5
464,168,90619,5,0,0:0:0:0:
480,248,90806,1,0,0:0:0:0:
448,320,90994,2,8,P|424:352|320:368,1,87.5
304,368,91369,2,2,B|288:368|264:360|248:344|232:328|216:320|184:312|152:312|112:344,1,175
32,360,92119,5,0,0:0:0:0:
48,272,92306,1,0,0:0:0:0:
120,224,92494,1,8,0:0:0:0:
208,224,92681,1,0,0:0:0:0:
296,248,92869,2,2,P|392:256|472:200,1,175
296,160,93619,6,0,P|224:192|208:240,1,87.5
208,280,93994,1,8,0:0:0:0:
272,336,94181,1,0,0:0:0:0:
360,312,94369,2,2,P|424:224|424:136,1,175
312,24,95119,6,0,P|264:144|288:192,1,175
272,264,95681,1,0,0:0:0:0:
216,328,95869,2,2,P|112:360|32:288,1,175
32,192,96619,6,8,P|88:88|168:56,1,140
176,56,97181,1,0,0:0:0:0:
248,88,97369,2,8,L|248:280,1,140
328,328,98119,6,2,L|328:224,1,70
408,328,98494,2,10,L|408:216,1,87.5
488,328,98869,2,2,L|488:88,1,210.000008010865
352,40,99619,6,0,P|288:40|224:96,1,87.5
216,112,99994,1,8,0:0:0:0:
240,184,100181,2,0,P|328:232|432:224,1,175
280,104,101119,6,0,P|184:112|152:208,1,175
144,256,101681,1,0,0:0:0:0:
80,216,101869,2,0,P|40:96|72:32,1,175
88,232,114619,6,0,P|128:256|168:256,1,70
224,248,114994,1,8,0:0:0:0:
256,184,115181,1,8,0:0:0:0:
240,112,115369,2,8,P|296:56|360:72,1,140
312,136,116119,6,0,P|288:176|240:184,1,70
200,184,116494,1,8,0:0:0:0:
144,144,116681,1,8,0:0:0:0:
120,80,116869,2,0,P|40:128|34:197,1,140
80,296,117619,6,0,P|120:320|208:288,1,140
296,200,118369,1,0,0:0:0:0:
240,72,118744,1,0,0:0:0:0:
101,130,119119,6,0,P|90:197|136:248,1,140
208,272,119681,1,0,0:0:0:0:
272,240,119869,2,0,L|328:168,1,70
384,200,120244,2,0,L|384:288,1,70
304,320,120619,6,0,P|216:304|208:208,1,140
152,128,121369,2,0,P|168:48|256:24,1,140
232,104,122119,6,0,P|232:152|288:208,1,70
288,224,122494,1,8,0:0:0:0:
352,192,122681,1,8,0:0:0:0:
424,208,122869,2,0,P|464:288|464:336,1,140
344,264,123619,6,0,P|328:176|384:120,1,140
424,136,124181,1,0,0:0:0:0:
408,208,124369,1,0,0:0:0:0:
272,208,124744,1,0,0:0:0:0:
160,120,125119,6,0,P|128:104|72:104,1,70
32,128,125494,1,0,0:0:0:0:
0,192,125681,1,0,0:0:0:0:
16,264,125869,2,0,P|88:328|160:320,1,140
112,232,126619,6,0,L|112:72,1,140
240,152,127369,2,0,L|240:240,1,70
288,272,127744,2,0,L|352:184,1,70
256,192,128119,12,0,129244,0:0:0:0:
368,128,129619,6,0,P|288:64|200:72,1,175
144,104,130181,1,0,0:0:0:0:
112,184,130369,2,2,L|184:360,1,175
312,232,131119,6,0,P|208:200|168:96,1,175
176,64,131681,1,0,0:0:0:0:
256,24,131869,1,2,0:0:0:0:
336,64,132056,1,2,0:0:0:0:
392,136,132244,2,10,L|392:240,1,87.5
312,184,132619,6,0,L|312:72,1,87.5
384,48,132994,1,8,0:0:0:0:
464,88,133181,1,0,0:0:0:0:
480,176,133369,2,2,P|408:272|312:256,1,175
200,200,134119,6,0,P|96:184|16:248,1,175
24,304,134681,1,0,0:0:0:0:
112,280,134869,2,2,B|144:280|176:280|184:320|208:336,1,87.5
264,344,135244,2,2,P|312:336|352:304,1,87.5
352,224,135619,5,0,0:0:0:0:
272,248,135806,1,0,0:0:0:0:
200,200,135994,2,8,B|168:184|136:176|104:176|64:200|64:200|64:144,1,175
96,88,136556,1,0,0:0:0:0:
176,64,136744,2,8,L|256:136,1,87.5
248,208,137119,5,0,0:0:0:0:
200,280,137306,1,0,0:0:0:0:
128,328,137494,2,0,P|64:320|32:288,1,87.5
24,224,137869,2,2,P|48:160|160:136,1,175
296,216,138619,6,0,P|400:256|488:208,1,175
328,120,139369,2,2,P|256:120|216:152,1,87.5
192,200,139744,1,2,0:0:0:0:
224,280,139931,1,2,0:0:0:0:
280,208,140119,6,0,L|232:96,1,87.5
168,88,140494,1,8,0:0:0:0:
80,96,140681,1,0,0:0:0:0:
32,168,140869,2,2,P|24:256|120:344,1,175
248,336,141619,6,0,L|360:160,1,175
184,112,142369,2,0,L|160:296,1,175
283,290,143119,6,2,L|166:206,1,87.5
291,197,143494,2,10,L|381:263,1,87.5
282,315,143869,2,2,L|183:222,1,87.5
302,224,144244,2,10,L|396:311,1,87.5
304,344,144619,6,0,P|192:352|112:304,1,175
96,248,145181,1,0,0:0:0:0:
104,160,145369,2,2,P|128:104|200:80,1,87.5
232,96,145744,2,8,P|288:128|352:120,1,87.5,10|8,0:0|0:0,0:0:0:0:
392,96,146119,5,0,0:0:0:0:
464,144,146306,1,0,0:0:0:0:
472,232,146494,2,8,P|432:280|336:280,1,87.5
328,264,146869,2,2,P|224:224|168:240,1,87.5
176,264,147244,2,10,P|88:288|56:264,1,87.5
24,248,147619,6,8,P|24:128|112:64,1,175
136,64,148181,1,0,0:0:0:0:
112,152,148369,1,2,0:0:0:0:
144,232,148556,1,2,0:0:0:0:
200,296,148744,2,8,P|256:328|328:320,1,87.5,10|8,0:0|0:0,0:0:0:0:
272,240,149119,6,0,L|272:120,1,87.5
336,96,149494,2,8,L|368:200,1,87.5
448,160,149869,2,2,L|408:272,1,87.5
504,272,150244,2,10,L|424:336,1,87.5
352,352,150619,6,8,P|240:368|144:328,1,175
136,280,151181,1,0,0:0:0:0:
224,272,151369,2,8,P|304:272|376:168,1,175
328,128,151931,1,0,0:0:0:0:
248,80,152119,6,2,L|224:184,1,70
160,104,152494,2,10,L|160:216,1,87.5
64,160,152869,2,2,L|152:360,1,210.000008010865
312,296,153619,6,0,L|312:192,1,87.5
256,136,153994,1,8,0:0:0:0:
176,160,154181,1,0,0:0:0:0:
224,232,154369,2,0,P|248:288|224:352,1,87.5
168,360,154744,2,8,P|152:312|168:264,1,87.5
216,208,155119,5,0,0:0:0:0:
304,208,155306,1,0,0:0:0:0:
376,256,155494,2,8,P|432:288|480:288,1,87.5
440,208,155869,2,10,P|360:176|296:232,1,175
256,192,156619,12,0,159244,0:0:0:0:
240,224,159619,5,0,0:0:0:0:
240,224,159806,1,0,0:0:0:0:
168,224,159994,2,0,L|168:136,1,70
232,120,160369,1,0,0:0:0:0:
232,120,160556,1,0,0:0:0:0:
304,120,160744,2,0,L|304:208,1,70
304,264,161119,5,0,0:0:0:0:
304,264,161306,1,0,0:0:0:0:
360,312,161494,2,0,L|440:312,1,70
472,256,161869,6,0,P|472:160|400:88,1,140
280,80,162619,6,0,P|184:96|144:152,1,87.5
128,144,162994,1,8,0:0:0:0:
96,224,163181,1,0,0:0:0:0:
136,304,163369,2,10,L|328:304,1,175
464,216,164119,5,0,0:0:0:0:
400,152,164306,1,0,0:0:0:0:
320,128,164494,1,8,0:0:0:0:
232,152,164681,1,0,0:0:0:0:
160,200,164869,2,0,B|104:232|96:280|64:304|16:328,1,175,2|0,0:0|0:0,0:0:0:0:
24,160,165619,6,0,P|56:112|104:88,1,87.5
160,64,165994,1,8,0:0:0:0:
240,104,166181,1,0,0:0:0:0:
312,56,166369,2,2,P|416:40|472:96,1,175
496,256,167119,6,0,P|440:328|392:344,1,87.5
360,328,167494,1,8,0:0:0:0:
296,272,167681,1,0,0:0:0:0:
368,216,167869,2,2,P|408:136|360:56,1,175
216,136,168619,6,8,P|152:216|168:304,1,175
232,336,169181,1,0,0:0:0:0:
320,320,169369,1,0,0:0:0:0:
368,248,169556,1,0,0:0:0:0:
360,160,169744,2,12,L|304:56,1,87.5
256,152,170119,6,0,P|320:264|368:296,1,175
184,312,170869,2,2,P|136:224|136:128,1,175
280,56,171619,6,8,L|472:112,1,175
296,192,172369,1,2,0:0:0:0:
232,136,172556,1,2,0:0:0:0:
144,128,172744,1,10,0:0:0:0:
64,168,172931,1,2,0:0:0:0:
24,248,173119,6,0,P|56:336|184:320,1,175
224,256,173869,2,2,L|296:184,1,87.5
168,200,174244,2,2,L|96:280,1,87.5
48,216,174619,5,0,0:0:0:0:
32,136,174806,1,0,0:0:0:0:
64,64,174994,2,0,P|88:32|192:16,1,87.5
208,16,175369,2,2,B|224:16|248:24|264:40|280:56|296:64|328:72|360:72|400:40,1,175
480,24,176119,5,0,0:0:0:0:
464,112,176306,1,0,0:0:0:0:
392,160,176494,1,0,0:0:0:0:
304,160,176681,1,0,0:0:0:0:
216,136,176869,2,2,P|120:128|40:184,1,175
216,224,177619,6,0,P|288:192|304:144,1,87.5
304,104,177994,1,0,0:0:0:0:
240,48,178181,1,0,0:0:0:0:
152,72,178369,2,2,P|88:160|88:248,1,175
200,360,179119,6,0,P|248:240|224:192,1,175
240,120,179681,1,0,0:0:0:0:
296,56,179869,2,2,P|400:24|480:96,1,175
480,192,180619,6,0,P|424:296|344:328,1,140
336,328,181181,1,0,0:0:0:0:
264,296,181369,2,0,L|264:104,1,140
192,88,182119,6,2,L|168:160,1,70
88,120,182494,2,10,L|112:240,1,87.5
32,248,182869,2,2,L|224:352,1,210.000008010865
336,344,183619,6,0,P|370:290|358:206,1,87.5
349,190,183994,1,8,0:0:0:0:
276,171,184181,2,0,P|187:218|137:310,1,175
321,248,185119,6,0,P|366:163|303:84,1,175
268,51,185681,1,0,0:0:0:0:
336,20,185869,2,0,P|458:51|494:113,1,175
256,192,186619,12,0,189244,0:0:0:0:
128,136,189619,6,0,P|128:232|296:304,1,280
400,248,190744,2,0,L|400:168,1,70
384,112,191119,5,0,0:0:0:0:
280,200,191494,1,0,0:0:0:0:
184,96,191869,1,0,0:0:0:0:
64,176,192244,1,0,0:0:0:0:
192,232,192619,6,0,P|320:224|408:80,1,280
496,216,193744,1,0,0:0:0:0:
408,328,194119,6,0,L|248:336,1,140
144,272,194869,1,0,0:0:0:0:
48,168,195244,1,0,0:0:0:0:
184,184,195619,6,0,B|250:223|237:297|237:297|384:272,1,280
468,162,196744,1,0,0:0:0:0:
328,145,197119,6,0,L|210:101,1,70
199,88,197494,2,8,L|122:109,1,70
70,140,197869,1,0,0:0:0:0:
42,204,198056,1,0,0:0:0:0:
50,273,198244,1,8,0:0:0:0:
87,331,198431,1,8,0:0:0:0:
190,347,198619,6,0,P|320:323|380:236,1,210.000008010865
328,61,199369,2,2,L|223:94,1,105.000004005432
259,192,199744,2,2,L|137:173,1,105.000004005432
50,185,200119,6,0,P|116:281|219:263,1,210.000008010865
392,193,200869,1,2,0:0:0:0:
484,144,201056,1,2,0:0:0:0:
482,249,201244,1,2,0:0:0:0:
392,193,201431,1,2,0:0:0:0:
353,94,201619,6,0,P|231:62|138:96,1,210.000008010865
34,259,202369,2,2,L|150:231,1,105.000004005432
226,180,202744,2,2,L|352:227,1,105.000004005432
414,270,203119,6,0,L|306:328,1,105.000004005432
219,293,203494,1,0,0:0:0:0:
122,334,203681,1,0,0:0:0:0:
30,282,203869,2,2,L|33:142,1,105.000004005432
125,127,204244,2,2,L|196:32,1,105.000004005432
292,51,204619,6,0,P|207:174|161:217,1,210.000008010865
340,328,205369,2,2,L|326:196,1,105.000004005432
430,249,205744,2,2,L|440:124,1,105.000004005432
401,45,206119,5,0,0:0:0:0:
327,119,206306,1,0,0:0:0:0:
231,74,206494,1,0,0:0:0:0:
129,50,206681,1,0,0:0:0:0:
52,122,206869,2,2,L|25:247,1,105.000004005432
130,254,207244,2,2,L|152:133,1,105.000004005432
256,192,207619,12,0,210244,0:0:0:0:
424,152,210619,6,0,P|384:128|344:128,1,70
288,136,210994,1,8,0:0:0:0:
256,200,211181,1,8,0:0:0:0:
272,272,211369,2,8,P|216:328|152:312,1,140
200,248,212119,6,0,P|224:208|272:200,1,70
312,200,212494,1,8,0:0:0:0:
368,240,212681,1,8,0:0:0:0:
392,304,212869,2,0,P|472:256|472:184,1,140
480,144,213431,1,0,0:0:0:0:
432,88,213619,6,0,P|392:64|304:96,1,140
216,184,214369,1,0,0:0:0:0:
272,312,214744,1,0,0:0:0:0:
411,254,215119,6,0,P|422:187|376:136,1,140
304,112,215681,1,0,0:0:0:0:
240,144,215869,2,0,L|184:216,1,70
128,184,216244,2,0,L|128:96,1,70
208,64,216619,6,0,P|296:80|304:176,1,140
360,256,217369,2,0,P|344:336|256:360,1,140
280,280,218119,6,0,P|280:232|224:176,1,70
224,160,218494,1,8,0:0:0:0:
160,192,218681,1,8,0:0:0:0:
88,176,218869,2,0,P|48:96|48:48,1,140
168,120,219619,6,0,P|184:208|128:264,1,140
88,248,220181,1,0,0:0:0:0:
104,176,220369,1,0,0:0:0:0:
233,122,220744,1,0,0:0:0:0:
322,233,221119,6,0,P|349:255|404:268,1,70
449,254,221494,1,0,0:0:0:0:
494,199,221681,1,0,0:0:0:0:
495,125,221869,2,0,P|439:46|367:38,1,140
256,192,222619,12,0,225244,0:0:0:0:
272,224,225619,5,0,0:0:0:0:
272,224,225806,1,0,0:0:0:0:
344,224,225994,2,0,L|344:136,1,70
280,120,226369,1,0,0:0:0:0:
280,120,226556,1,0,0:0:0:0:
208,120,226744,2,0,L|208:208,1,70
208,264,227119,5,0,0:0:0:0:
208,264,227306,1,0,0:0:0:0:
152,312,227494,2,0,L|72:312,1,70
40,256,227869,2,0,P|40:160|112:88,1,140
184,56,228619,5,0,0:0:0:0:
251,37,228806,1,0,0:0:0:0:
309,75,228994,2,0,L|385:86,1,70
446,99,229369,2,2,P|483:171|468:254,1,140
355,294,230119,6,0,P|269:333|186:316,1,140
183,274,230681,1,0,0:0:0:0:
227,220,230869,2,2,P|326:186|354:132,1,140
212,112,231619,6,0,P|141:152|119:218,1,140
131,272,232181,1,0,0:0:0:0:
183,318,232369,2,2,L|272:348,1,70
304,297,232744,2,2,L|396:271,1,70
424,232,233119,5,0,0:0:0:0:
433,162,233306,1,0,0:0:0:0:
398,101,233494,1,0,0:0:0:0:
338,63,233681,1,0,0:0:0:0:
268,54,233869,2,2,L|118:81,1,140
253,144,234619,6,0,L|411:166,1,140
399,303,235369,1,2,0:0:0:0:
340,264,235556,1,2,0:0:0:0:
278,229,235744,2,2,L|194:216,1,70
138,221,236119,6,0,P|92:141|115:59,1,140
228,50,236869,2,0,P|274:120|338:159,1,140
447,93,237619,6,0,P|479:174|475:237,1,140
380,327,238369,2,2,L|307:334,1,70
265,279,238744,2,2,L|265:202,1,70
181,181,239119,6,0,P|213:133|336:159,1,175
387,194,239681,1,0,0:0:0:0:
464,153,239869,2,2,L|468:343,1,175
296,272,240619,6,0,P|240:344|192:360,1,87.5
209,260,240994,1,8,0:0:0:0:
296,272,241181,1,0,0:0:0:0:
368,216,241369,2,2,P|408:136|360:56,1,175
216,136,242119,6,8,P|152:216|168:304,1,175
232,336,242681,1,0,0:0:0:0:
320,320,242869,1,2,0:0:0:0:
368,248,243056,1,2,0:0:0:0:
360,160,243244,2,14,L|304:56,1,87.5
256,152,243619,6,0,P|320:264|368:296,1,175
184,312,244369,2,2,P|136:224|136:128,1,175
280,56,245119,6,8,L|472:112,1,175
296,192,245869,1,2,0:0:0:0:
232,136,246056,1,2,0:0:0:0:
144,128,246244,1,10,0:0:0:0:
64,168,246431,1,2,0:0:0:0:
24,248,246619,6,0,P|56:336|184:320,1,175
214,339,247181,1,0,0:0:0:0:
224,256,247369,2,2,B|295:169|295:169|262:111,1,175
154,208,248119,6,2,L|91:292,1,70
48,203,248494,2,0,L|130:129,1,87.5
29,80,248869,2,0,L|290:47,1,210.000008010865
480,24,249619,5,0,0:0:0:0:
464,112,249806,1,0,0:0:0:0:
392,160,249994,1,8,0:0:0:0:
304,160,250181,1,0,0:0:0:0:
216,136,250369,2,2,P|120:128|40:184,1,175
216,224,251119,6,0,P|288:192|304:144,1,87.5
304,104,251494,1,8,0:0:0:0:
240,48,251681,1,0,0:0:0:0:
152,72,251869,2,2,P|88:160|88:248,1,175
200,360,252619,6,0,P|248:240|224:192,1,175
296,56,253369,2,2,P|400:24|480:96,1,175
470,227,254119,6,0,L|244:254,1,175
121,257,254869,2,2,L|32:276,1,87.5
48,188,255244,2,2,L|99:114,1,87.5
174,73,255619,6,0,L|275:65,1,87.5
234,149,255994,2,0,L|146:174,1,87.5
140,260,256369,1,2,0:0:0:0:
197,325,256556,1,2,0:0:0:0:
284,331,256744,1,2,0:0:0:0:
356,281,256931,1,2,0:0:0:0:
417,218,257119,6,0,L|418:30,1,175
242,47,257869,2,2,L|292:133,1,87.5
286,210,258244,2,2,L|238:304,1,87.5
176,341,258619,6,0,L|38:221,1,175
218,239,259369,2,0,L|405:326,1,175
486,176,260119,5,0,0:0:0:0:
344,72,260494,1,0,0:0:0:0:
241,213,260869,1,0,0:0:0:0:
410,168,261244,1,0,0:0:0:0:
240,123,261619,6,0,L|137:139,1,87.5
72,170,261994,1,0,0:0:0:0:
72,170,262181,1,0,0:0:0:0:
57,256,262369,2,0,L|147:312,1,87.5
218,294,262744,1,0,0:0:0:0:
218,294,262931,1,0,0:0:0:0:
256,192,263119,12,0,264244,0:0:0:0:
280,168,264619,6,0,L|280:272,1,87.5
224,328,264994,1,8,0:0:0:0:
168,264,265181,1,0,0:0:0:0:
104,328,265369,2,8,P|80:240|128:176,1,175
296,216,266119,5,0,0:0:0:0:
368,264,266306,1,0,0:0:0:0:
456,280,266494,2,8,P|480:240|480:176,1,87.5
456,120,266869,2,8,P|376:48|264:40,1,175
136,48,267619,6,0,L|136:160,1,87.5
200,192,267994,1,8,0:0:0:0:
280,224,268181,1,0,0:0:0:0:
352,176,268369,2,8,P|288:136|200:192,1,175
144,344,269119,6,0,L|56:344,1,87.5
32,256,269494,2,8,L|120:256,1,87.5
152,176,269869,2,0,L|48:176,1,87.5
32,96,270244,1,8,0:0:0:0:
32,96,270431,1,8,0:0:0:0:
104,40,270619,6,0,L|240:40,1,87.5
264,88,270994,1,8,0:0:0:0:
336,40,271181,2,0,L|432:40,1,87.5
480,208,271744,1,8,0:0:0:0:
304,208,272119,5,0,0:0:0:0:
240,272,272306,1,0,0:0:0:0:
168,328,272494,2,8,L|80:328,1,87.5
48,248,272869,2,8,L|280:248,1,175
400,248,273619,6,0,P|448:232|472:192,1,87.5
472,112,273994,1,8,0:0:0:0:
408,56,274181,1,0,0:0:0:0:
320,40,274369,2,8,P|216:72|144:184,1,175
232,280,275119,6,0,L|320:280,1,87.5
368,208,275494,2,8,L|256:208,1,87.5
224,136,275869,2,0,L|328:136,1,87.5
368,64,276244,2,8,L|272:64,1,87.5
256,192,276619,12,0,279619,0:0:0:0:
