osu file format v14

[General]
AudioFilename: Stand still.mp3
AudioLeadIn: 0
PreviewTime: 9494
Countdown: 1
SampleSet: None
StackLeniency: 0.7
Mode: 0
LetterboxInBreaks: 1
WidescreenStoryboard: 0

[Editor]
DistanceSpacing: 1.4
BeatDivisor: 4
GridSize: 4
TimelineZoom: 1

[Metadata]
Title:Stand still
TitleUnicode:Stand still
Artist:Iguchi Yuka
ArtistUnicode:井口裕香
Creator:PostScr1pt
Version:Cry RaInsane
Source:Toaru Kagaku no Railgun S
Tags:
BeatmapID:1152872
BeatmapSetID:543995

[Difficulty]
HPDrainRate:5
CircleSize:4.5
OverallDifficulty:6
ApproachRate:9
SliderMultiplier:3.59999990463257
SliderTickRate:1

[Events]
//Background and Video events
0,0,"photo-1422544834386-d121ef7c6ea8.jpg",0,0
//Break Periods
2,32031,41014
//Storyboard Layer 0 (Background)
//Storyboard Layer 1 (Fail)
//Storyboard Layer 2 (Pass)
//Storyboard Layer 3 (Foreground)
//Storyboard Sound Samples

[TimingPoints]
-125,652.173913043478,4,2,0,40,1,0
10961,-100,4,2,0,40,0,0
41614,-133.333333333333,4,2,0,40,0,0

[HitObjects]
327,314,10961,6,0,P|406:276|478:337,1,179.999995231628
398,368,11451,1,0,0:0:0:0:
340,209,11614,2,0,L|330:112,1,89.9999976158142
457,84,11940,2,0,L|447:181,1,89.9999976158142
277,251,12266,2,0,B|234:268|195:244|195:244|154:217|104:232,1,179.999995231628
145,307,12755,1,0,0:0:0:0:
243,95,12918,2,0,P|255:137|243:180,1,89.9999976158143
196,27,13244,6,0,P|281:20|326:93,1,179.999995231629
177,136,13733,1,0,0:0:0:0:
131,67,13896,2,0,P|94:47|47:51,1,89.9999976158143
0,153,14222,2,0,P|35:127|80:126,1,89.9999976158143
67,205,14548,2,0,P|31:227|11:269,1,89.9999976158143
146,345,14874,2,0,P|128:305|91:281,1,89.9999976158143
145,222,15201,6,0,B|231:194|231:260|320:222,1,179.999995231629
272,154,15690,1,0,0:0:0:0:
295,303,15853,2,0,P|379:283|401:201,1,179.999995231629
272,154,16342,1,0,0:0:0:0:
344,113,16505,2,0,P|270:70|198:115,2,179.999995231629
272,154,17320,1,0,0:0:0:0:
214,11,17483,1,0,0:0:0:0:
129,67,17646,6,0,P|89:87|35:79,1,89.9999976158143
75,10,17972,1,0,0:0:0:0:
137,154,18135,2,0,P|137:243|62:288,1,179.999995231629
36,190,18624,1,0,0:0:0:0:
193,289,18788,2,0,L|286:279,1,89.9999976158143
434,193,19114,6,0,L|341:183,1,89.9999976158143
198,115,19440,2,0,L|207:204,1,89.9999976158143
388,377,19766,2,0,L|397:287,1,89.9999976158143
327,101,20092,2,0,B|321:61|359:39|359:39|377:71|416:88|458:69,1,179.999995231629
426,0,20581,1,0,0:0:0:0:
507,165,20744,2,0,P|511:210|486:254,1,89.9999976158143
305,379,21070,2,0,P|285:339|289:295,1,89.9999976158143
402,153,21396,6,0,B|333:158|333:158|291:143|291:143|224:147,1,179.999995231629
278,222,21885,1,0,0:0:0:0:
349,86,22048,2,0,B|361:48|361:48|349:0,1,89.9999976158143
133,129,22374,2,0,B|108:205|108:205|133:301,1,179.999995231629
234,317,22864,1,0,0:0:0:0:
193,224,23027,2,0,P|107:207|41:268,1,179.999995231629
91,370,23516,1,0,0:0:0:0:
234,317,23679,6,0,P|320:300|386:361,1,179.999995231629
298,380,24168,1,0,0:0:0:0:
269,219,24331,2,0,L|267:114,1,89.9999976158143
446,97,24657,2,0,L|448:202,1,89.9999976158143
309,300,24983,2,0,B|223:328|223:262|134:300,1,179.999995231629
181,370,25472,1,0,0:0:0:0:
364,216,25635,2,0,P|428:278|509:251,2,179.999995231629
447,186,26451,1,0,0:0:0:0:
384,52,26614,6,0,L|200:40,1,179.999995231629
300,152,27103,2,0,L|116:140,1,179.999995231629
48,208,27592,2,0,P|96:264|44:352,1,179.999995231629
12,280,28081,1,0,0:0:0:0:
200,335,28244,2,0,L|300:326,1,89.9999976158143
189,174,28570,2,0,L|146:265,1,89.9999976158143
324,237,28896,2,0,L|266:154,1,89.9999976158143
392,304,29222,6,0,P|416:231|509:227,1,179.999995231629
430,374,29711,1,0,0:0:0:0:
418,137,29874,2,0,L|414:40,1,89.9999976158143
239,254,30201,2,0,L|235:351,1,89.9999976158143
319,156,30527,1,0,0:0:0:0:
76,157,30690,1,0,0:0:0:0:
319,156,30853,1,0,0:0:0:0:
164,321,31179,5,0,0:0:0:0:
199,59,31342,1,0,0:0:0:0:
164,321,31505,1,0,0:0:0:0:
199,59,31668,1,0,0:0:0:0:
239,254,31831,5,0,0:0:0:0:
242,226,41614,6,0,L|314:238,1,67.5000007867814
372,149,41940,2,0,L|300:161,1,67.5000007867814
171,262,42266,6,0,L|26:256,1,135.000001573563
122,333,42755,1,0,0:0:0:0:
173,187,42918,2,0,P|176:158|163:122,1,67.5000007867814
80,91,43244,2,0,P|77:120|90:156,1,67.5000007867814
150,49,43570,2,0,P|222:54|291:46,1,135.000001573563
396,137,44059,1,0,0:0:0:0:
396,137,44222,2,0,P|324:142|255:134,1,135.000001573563
216,190,44711,1,0,0:0:0:0:
216,190,44874,6,0,P|277:209|330:160,1,135.000001573563
184,263,45364,2,0,P|123:244|70:293,1,135.000001573563
273,285,45853,2,0,P|315:308|239:314,1,202.500002360344
385,249,46505,2,0,L|457:256,1,67.5000007867814
510,320,46831,2,0,L|438:327,1,67.5000007867814
327,167,47157,2,0,L|399:174,1,67.5000007867814
464,124,47483,6,0,P|464:36|424:4,1,135.000001573563
348,40,47972,1,0,0:0:0:0:
194,29,48135,2,0,P|228:27|260:16,1,67.5000007867814
85,26,48461,2,0,P|86:59|98:91,1,67.5000007867814
160,192,48788,2,0,L|308:180,1,135.000001573563
200,112,49277,1,0,0:0:0:0:
180,280,49440,2,0,L|172:348,1,67.5000007867814
302,248,49766,2,0,L|294:180,1,67.5000007867814
392,104,50092,5,0,0:0:0:0:
392,104,50255,2,0,P|424:128|456:132,1,67.5000007867814
512,184,50581,1,0,0:0:0:0:
512,184,50744,2,0,P|460:216|452:284,1,135.000001573563
480,352,51233,1,0,0:0:0:0:
480,352,51722,2,0,P|456:317|431:292,1,67.5000007867814
348,250,52048,2,0,P|318:246|280:250,1,67.5000007867814
190,291,52374,2,0,P|166:315|147:348,1,67.5000007867814
173,365,52701,6,0,P|233:332|301:332,1,135.000001573563
386,373,53190,1,0,0:0:0:0:
480,352,53353,2,0,P|496:312|496:276,1,67.5000007867814
441,139,53679,2,0,P|425:179|425:215,1,67.5000007867814
331,168,54005,2,0,P|254:180|190:168,1,135.000001573563
441,139,54494,1,0,0:0:0:0:
280,101,54657,2,0,P|213:59|172:9,1,135.000001573563
68,196,55309,2,0,P|30:126|20:62,1,135.000001573563
100,192,55798,1,0,0:0:0:0:
124,208,55961,2,0,P|161:277|171:341,1,135.000001573563
