osu file format v14

[General]
AudioFilename: audio.mp3
AudioLeadIn: 0
PreviewTime: 52578
Countdown: 0
SampleSet: Soft
StackLeniency: 0.5
Mode: 0
LetterboxInBreaks: 0
WidescreenStoryboard: 1

[Editor]
Bookmarks: 5402,17837,27785,37733,52655,62603,70064,80012
DistanceSpacing: 1
BeatDivisor: 2
GridSize: 4
TimelineZoom: 1.8

[Metadata]
Title:RE-ILLUSION (TV Size)
TitleUnicode:RE-ILLUSION (TV Size)
Artist:Iguchi Yuka
ArtistUnicode:井口裕香
Creator:bossandy
Version:lu^3's Easy
Source:ソード・オラトリア ダンジョンに出会いを求めるのは間違っているだろうか外伝
Tags:Opening op J-pop Jpop pop Anime Japanese DanMachi Dungeon ni Deai wo Motomeru no wa Machigatteiru Darou ka Gaiden: Sword Oratoria Is it Wrong to Try to Pick Up Girls in a Dungeon? On the Side J.C.Staff never FC on osu never_FC_on_osu Silent Rock Hey Lululu
BeatmapID:2846831
BeatmapSetID:1374845

[Difficulty]
HPDrainRate:3
CircleSize:3.3
OverallDifficulty:3
ApproachRate:4
SliderMultiplier:1
SliderTickRate:1

[Events]
//Background and Video events
Video,-224,"video.avi"
0,0,"BG.jpg",0,0
//Break Periods
2,75038,76205
//Storyboard Layer 0 (Background)
//Storyboard Layer 1 (Fail)
//Storyboard Layer 2 (Pass)
//Storyboard Layer 3 (Foreground)
//Storyboard Layer 4 (Overlay)
//Storyboard Sound Samples

[TimingPoints]
428,310.880829015544,4,2,2,60,1,0
2915,-100,4,2,2,70,0,0
3225,-100,4,2,1,70,0,0
3536,-100,4,2,2,70,0,0
5402,-100,4,2,2,75,0,0
5712,-100,4,2,1,75,0,0
5868,-100,4,2,2,75,0,0
8200,-100,4,2,3,75,0,0
8355,-100,4,2,2,75,0,0
8510,-100,4,2,4,75,0,0
8821,-100,4,2,2,75,0,0
9443,-100,4,2,3,75,0,0
9598,-100,4,2,2,75,0,0
10687,-100,4,2,1,75,0,0
10842,-100,4,2,2,75,0,0
11619,-100,4,2,4,75,0,0
11930,-100,4,2,2,75,0,0
13174,-100,4,2,1,75,0,0
13484,-100,4,2,2,75,0,0
15194,-100,4,2,2,70,0,0
17837,310.880829015544,4,2,2,65,1,0
17837,-100,4,2,2,65,0,0
18147,-100,4,2,3,65,0,0
18458,-100,4,2,2,65,0,0
18769,-100,4,2,3,65,0,0
19080,-100,4,2,2,65,0,0
20634,-100,4,2,1,65,0,0
20945,-100,4,2,2,65,0,0
21878,-100,4,2,1,65,0,0
22189,-100,4,2,2,65,0,0
26075,-100,4,2,3,65,0,0
26230,-100,4,2,2,65,0,0
27785,-100,4,2,2,70,0,0
29339,-100,4,2,1,70,0,0
29650,-100,4,2,2,70,0,0
33070,-100,4,2,1,70,0,0
33225,-100,4,2,2,70,0,0
34313,-100,4,2,1,70,0,0
34469,-100,4,2,2,70,0,0
35246,-100,4,2,2,65,0,0
36489,-100,4,2,2,70,0,0
37733,-100,4,2,2,65,0,0
40220,-100,4,2,2,70,0,0
40842,-100,4,2,1,70,0,0
41153,-100,4,2,2,70,0,0
42707,-100,4,2,2,65,0,0
45194,-100,4,2,2,70,0,0
45816,-100,4,2,1,70,0,0
46127,-100,4,2,2,70,0,0
47059,-100,4,2,2,65,0,0
47992,-100,4,2,5,65,0,0
48303,-100,4,2,2,65,0,0
49235,-100,4,2,5,65,0,0
49546,-100,4,2,2,65,0,0
50790,-100,4,2,2,70,0,0
52189,-100,4,2,2,60,0,0
52655,-100,4,2,2,80,0,1
54210,-100,4,2,3,80,0,1
54365,-100,4,2,2,80,0,1
56697,-100,4,2,1,80,0,1
56852,-100,4,2,2,80,0,1
60427,-100,4,2,3,80,0,1
60583,-100,4,2,2,80,0,1
60738,-100,4,2,4,80,0,1
61049,-100,4,2,2,80,0,1
61360,-100,4,2,2,85,0,1
62448,-100,4,2,2,85,0,0
62603,-100,4,2,2,80,0,1
64158,-100,4,2,3,80,0,1
64313,-100,4,2,2,80,0,1
66645,-100,4,2,1,80,0,1
66800,-100,4,2,2,80,0,1
69598,-100,4,2,4,80,0,1
69754,-100,4,2,2,80,0,1
70064,310.880829015544,4,2,2,85,1,1
75038,-100,4,2,2,70,0,0
77525,-100,4,2,2,40,0,0
78146,-100,4,2,7,70,0,0
78457,-100,4,2,2,70,0,0
79390,-100,4,2,2,65,0,0
80012,-100,4,2,2,75,0,0
80323,-100,4,2,1,75,0,0
80478,-100,4,2,2,75,0,0
82810,-100,4,2,1,75,0,0
83120,-100,4,2,2,75,0,0
83431,-100,4,2,1,75,0,0
83742,-100,4,2,2,75,0,0
84675,-100,4,2,6,75,0,0
84830,-100,4,2,2,65,0,0
87473,-100,4,2,2,70,0,0

[Colours]
Combo1 : 128,128,255
Combo2 : 255,255,128
Combo3 : 128,255,128
Combo4 : 255,128,255

[HitObjects]
217,121,428,6,0,B|167:109|128:76|128:76|22:91,2,200,2|2|10,0:0|3:2|1:0,0:0:0:0:
302,69,1982,1,10,1:0:0:0:
396,101,2293,2,0,P|408:148|394:196,1,100,2|10,3:2|1:0,0:0:0:0:
490,226,2915,6,0,B|377:217|407:282|280:275,1,200,10|2,0:0|3:2,0:0:0:0:
243,357,3847,1,8,1:0:0:0:
158,303,4158,2,0,P|102:308|33:336,1,100,8|8,0:0|0:0,0:0:0:0:
8,235,4780,1,0,3:0:0:0:
61,150,5091,1,8,0:0:0:0:
34,53,5402,6,0,P|98:113|180:111,1,150,6|2,3:2|0:0,0:0:0:0:
266,15,6334,2,0,B|294:43|294:43|277:109,1,100,10|0,0:0|3:0,0:0:0:0:
226,187,6956,1,8,0:0:0:0:
293,260,7267,2,0,P|344:282|401:265,1,100,2|10,0:0|0:0,0:0:0:0:
480,238,7889,6,0,B|523:274|523:274|496:326|483:371,2,150,2|2|10,3:2|0:0|0:0,0:0:0:0:
477,137,9132,2,0,B|393:141|425:187|291:197,1,150,0|2,3:0|3:2,0:0:0:0:
241,76,10065,1,8,0:0:0:0:
152,29,10376,6,0,P|79:73|98:152,1,150,6|2,3:2|0:0,0:0:0:0:
39,273,11308,2,0,B|108:259|108:259|158:276|158:276|253:264,1,200,10|8,0:0|0:0,0:0:0:0:
303,193,12241,2,0,B|339:207|339:207|356:226|356:226|428:251,1,100,2|10,0:0|0:0,0:0:0:0:
483,202,12863,6,0,B|514:143|514:143|482:9,1,200,6|2,3:2|3:2,0:0:0:0:
395,62,13795,1,8,0:0:0:0:
297,41,14106,2,0,L|171:16,1,100,10|8,0:0|0:0,0:0:0:0:
99,7,14728,2,0,L|113:84,1,50,10|10,0:0|0:0,0:0:0:0:
55,141,15194,1,4,3:2:0:0:
256,192,15350,12,8,16593,3:0:0:0:
372,206,17837,6,0,P|444:220|479:330,2,200,6|2|0,3:2|3:2|3:0,0:0:0:0:
299,274,19391,1,8,0:0:0:0:
218,214,19702,2,0,P|228:167|244:91,1,100,2|10,3:2|0:0,0:0:0:0:
165,47,20324,6,0,P|92:60|63:182,1,200,2|2,3:2|3:2,0:0:0:0:
120,246,21256,1,8,0:0:0:0:
86,339,21567,2,0,B|201:314|173:376|304:356,1,200,2|2,3:2|3:2,0:0:0:0:
376,327,22500,1,10,0:0:0:0:
463,375,22811,6,0,P|477:323|452:262,1,100,6|10,3:2|0:0,0:0:0:0:
381,223,23432,1,2,3:2:0:0:
456,157,23743,1,10,0:0:0:0:
383,88,24054,2,0,L|278:113,1,100,0|8,3:0|0:0,0:0:0:0:
187,88,24676,2,0,L|82:113,1,100,0|8,3:0|0:0,0:0:0:0:
14,177,25298,5,2,3:2:0:0:
57,320,25764,2,0,P|99:268|188:272,1,150,2|2,0:0|0:0,0:0:0:0:
266,310,26541,1,10,0:0:0:0:
355,264,26852,1,14,0:0:0:0:
226,185,27318,2,0,B|217:127|217:127|189:98|189:98|168:31,1,150,14|6,0:0|3:2,0:0:0:0:
266,11,28096,5,10,0:0:0:0:
349,66,28406,2,0,L|464:84,1,100,2|10,3:2|0:0,0:0:0:0:
489,172,29028,2,0,B|411:192|416:218|311:262,1,200,0|2,3:0|3:2,0:0:0:0:
242,188,29961,1,10,0:0:0:0:
184,270,30272,2,0,P|127:282|64:304,1,100,2|8,3:2|0:0,0:0:0:0:
21,219,30893,2,0,P|78:207|141:185,1,100,2|8,3:2|0:0,0:0:0:0:
161,104,31515,5,2,3:2:0:0:
334,5,32137,2,0,P|370:37|380:85,1,100,2|10,3:2|0:0,0:0:0:0:
455,152,32759,2,0,P|435:233|353:269,2,150,6|6|10,3:2|3:2|0:0,0:0:0:0:
355,168,34002,2,0,L|173:199,1,150,6|6,3:2|3:2,0:0:0:0:
118,313,34935,1,8,0:0:0:0:
47,242,35246,6,0,P|25:188|130:73,1,200,6|10,3:2|0:0,0:0:0:0:
293,49,36489,2,0,L|393:73,1,100,10|10,0:0|0:0,0:0:0:0:
458,145,37111,2,0,L|358:169,1,100,10|10,0:0|0:0,0:0:0:0:
342,267,37733,6,0,P|246:290|176:370,1,200,6|10,3:2|0:0,0:0:0:0:
108,293,38666,1,2,0:0:0:0:
39,220,38976,2,0,B|55:142|55:142|87:115|87:115|117:27,1,200,2|10,3:2|0:0,0:0:0:0:
312,46,40220,6,0,P|377:93|469:92,2,150,6|6|14,3:2|3:2|0:0,0:0:0:0:
136,142,41774,1,2,3:2:0:0:
205,214,42085,2,0,L|324:196,1,100,10|2,0:0|0:0,0:0:0:0:
402,180,42707,6,0,P|471:228|461:346,1,200,6|10,3:2|0:0,0:0:0:0:
376,374,43640,1,2,0:0:0:0:
280,345,43950,2,0,B|206:346|147:375|147:375|79:311,1,200,2|10,3:2|0:0,0:0:0:0:
54,137,45194,6,0,P|22:64|91:-10,2,150,6|6|14,3:2|3:2|0:0,0:0:0:0:
228,233,46748,1,2,3:2:0:0:
256,137,47059,2,0,L|374:117,1,100,10|2,0:0|0:0,0:0:0:0:
433,181,47681,6,0,B|485:234|485:234|486:310|406:355,1,200,2|2,3:2|3:2,0:0:0:0:
352,275,48614,1,2,0:0:0:0:
252,279,48925,2,0,B|166:294|163:321|43:344,1,200,2|2,3:2|3:2,0:0:0:0:
344,56,50790,6,0,P|425:108|391:199,1,200,14|10,0:0|0:0,0:0:0:0:
332,269,51723,2,0,P|305:232|309:157,2,100,2|10|10,0:0|3:2|0:0,0:0:0:0:
427,298,52655,5,6,3:2:0:0:
349,361,52966,2,0,L|248:385,1,100,10|2,0:0|3:2,0:0:0:0:
152,368,53588,1,10,0:0:0:0:
150,267,53899,2,0,P|90:312|11:305,2,150,2|2|10,3:2|3:2|0:0,0:0:0:0:
84,185,55142,5,2,3:2:0:0:
160,121,55453,2,0,L|277:153,1,100,10|2,0:0|3:2,0:0:0:0:
338,88,56075,1,10,0:0:0:0:
424,138,56386,2,0,P|413:200|420:304,1,150,2|2,3:2|3:2,0:0:0:0:
294,373,57318,1,10,0:0:0:0:
210,318,57629,5,6,3:2:0:0:
268,237,57940,2,0,P|257:188|254:138,2,100,10|2|10,0:0|3:2|0:0,0:0:0:0:
358,279,58873,1,6,3:2:0:0:
428,208,59184,2,0,P|491:230|523:279,2,100,10|10|8,0:0|1:0|0:0,0:0:0:0:
347,148,60116,6,0,B|379:108|379:108|343:-12,2,150,6|2|10,3:2|0:0|0:0,0:0:0:0:
258,194,61360,2,0,P|221:164|138:155,1,100,10|10,0:0|0:0,0:0:0:0:
103,77,61982,2,0,P|55:81|-9:134,1,100,10|10,0:0|0:0,0:0:0:0:
12,208,62603,5,6,3:2:0:0:
71,288,62914,2,0,L|174:273,1,100,10|2,0:0|3:2,0:0:0:0:
260,316,63536,1,10,0:0:0:0:
356,288,63847,2,0,P|416:333|502:321,2,150,2|2|10,3:2|3:2|0:0,0:0:0:0:
410,204,65090,5,2,3:2:0:0:
463,119,65401,2,0,B|480:81|480:81|452:8,1,100,10|2,0:0|3:2,0:0:0:0:
359,17,66023,1,10,0:0:0:0:
287,87,66334,2,0,P|221:37|137:53,1,150,2|6,3:2|3:2,0:0:0:0:
23,110,67267,2,0,P|39:153|44:211,1,100,10|6,0:0|3:2,0:0:0:0:
126,264,67888,6,0,P|95:294|21:298,2,100,8|2|10,0:0|3:2|0:0,0:0:0:0:
138,164,68821,1,2,3:2:0:0:
270,93,69287,2,0,B|299:141|299:141|271:184|266:243,1,150,2|10,3:2|0:0,0:0:0:0:
328,308,70064,6,0,P|390:315|444:270,1,100,14|10,3:2|0:0,0:0:0:0:
467,209,70685,2,0,P|405:202|351:247,1,100,10|10,0:0|0:0,0:0:0:0:
273,223,71307,2,0,L|258:120,2,100,10|10|10,0:0|0:0|0:0,0:0:0:0:
226,311,72240,1,10,0:0:0:0:
141,257,72551,6,0,B|90:264|90:264|28:229,1,100,14|2,0:0|3:2,0:0:0:0:
14,145,73172,2,0,B|65:138|65:138|127:173,1,100,2|2,3:2|3:2,0:0:0:0:
206,169,73794,1,2,3:2:0:0:
288,112,74105,1,2,3:2:0:0:
372,168,74416,2,0,L|479:194,1,100,2|4,3:2|3:0,0:0:0:0:
367,220,77525,6,0,B|294:188|294:188|282:153|282:153|243:170|243:170|-10:59,1,400,2|2,0:0|0:0,0:0:0:0:
8,272,79390,1,2,3:2:0:0:
89,329,79701,1,10,0:0:0:0:
176,279,80012,6,0,P|247:258|338:279,1,150,6|2,3:2|0:0,0:0:0:0:
443,356,80944,2,0,B|466:328|466:328|444:267,1,100,10|0,0:0|3:0,0:0:0:0:
508,191,81566,1,8,0:0:0:0:
471,97,81877,2,0,L|337:71,1,100,2|8,0:0|0:0,0:0:0:0:
278,43,82499,6,0,B|256:117|256:117|223:145|223:145|192:245,2,200,2|2|10,3:2|3:2|0:0,0:0:0:0:
354,107,84053,1,8,0:0:0:0:
449,76,84364,2,0,B|493:121|493:121|470:161|455:211,1,150,10|6,0:0|3:2,0:0:0:0:
17,107,86229,6,0,P|69:106|125:90,1,100,10|10,0:0|0:0,0:0:0:0:
199,148,86851,2,0,P|251:149|307:165,1,100,2|6,3:2|3:0,0:0:0:0:
386,115,87473,2,0,L|409:186,1,50,10|10,3:2|3:2,0:0:0:0:
