osu file format v14

[General]
AudioFilename: audio.mp3
AudioLeadIn: 0
PreviewTime: 52578
Countdown: 0
SampleSet: Soft
StackLeniency: 0.5
Mode: 0
LetterboxInBreaks: 0
WidescreenStoryboard: 1

[Editor]
Bookmarks: 5402,17837,27785,37733,52655,62603,70064,80012
DistanceSpacing: 1
BeatDivisor: 4
GridSize: 4
TimelineZoom: 1.8

[Metadata]
Title:RE-ILLUSION (TV Size)
TitleUnicode:RE-ILLUSION (TV Size)
Artist:Iguchi Yuka
ArtistUnicode:井口裕香
Creator:bossandy
Version:Tempest
Source:ソード・オラトリア ダンジョンに出会いを求めるのは間違っているだろうか外伝
Tags:Opening op J-pop Jpop pop Anime Japanese DanMachi Dungeon ni Deai wo Motomeru no wa Machigatteiru Darou ka Gaiden: Sword Oratoria Is it Wrong to Try to Pick Up Girls in a Dungeon? On the Side J.C.Staff never FC on osu never_FC_on_osu Silent Rock Hey Lululu
BeatmapID:2842056
BeatmapSetID:1374845

[Difficulty]
HPDrainRate:6
CircleSize:3.8
OverallDifficulty:7
ApproachRate:8.8
SliderMultiplier:1.6
SliderTickRate:1

[Events]
//Background and Video events
Video,-224,"video.avi"
0,0,"BG.jpg",0,0
//Break Periods
2,75038,77517
//Storyboard Layer 0 (Background)
//Storyboard Layer 1 (Fail)
//Storyboard Layer 2 (Pass)
//Storyboard Layer 3 (Foreground)
//Storyboard Layer 4 (Overlay)
//Storyboard Sound Samples

[TimingPoints]
428,310.880829015544,4,2,2,60,1,0
428,-125,4,2,2,60,0,0
2915,-100,4,2,2,70,0,0
5402,-100,4,2,2,75,0,0
6567,-100,4,2,2,5,0,0
6645,-100,4,2,2,75,0,0
11541,-100,4,2,2,5,0,0
11619,-100,4,2,2,75,0,0
15194,-111.111111111111,4,2,2,70,0,0
17759,-111.111111111111,4,2,2,5,0,0
17837,310.880829015544,4,2,2,65,1,0
17837,-125,4,2,2,65,0,0
26541,-100,4,2,2,65,0,0
27085,-100,4,2,2,5,0,0
27163,-100,4,2,2,65,0,0
27785,-111.111111111111,4,2,2,70,0,0
35246,-125,4,2,2,65,0,0
36489,-100,4,2,2,70,0,0
37733,-125,4,2,2,65,0,0
40220,-125,4,2,2,70,0,0
40298,-125,4,2,2,5,0,0
40686,-125,4,2,2,70,0,0
40764,-125,4,2,2,5,0,0
41153,-125,4,2,2,70,0,0
42707,-125,4,2,2,65,0,0
45194,-125,4,2,2,70,0,0
45272,-125,4,2,2,5,0,0
45660,-125,4,2,2,70,0,0
45738,-125,4,2,2,5,0,0
46127,-125,4,2,2,70,0,0
47059,-125,4,2,2,65,0,0
50790,-100,4,2,2,70,0,0
52189,-100,4,2,2,60,0,0
52344,-100,4,2,2,60,0,0
52655,-100,4,2,2,80,0,1
55064,-100,4,2,2,5,0,1
55142,-100,4,2,2,80,0,1
61360,-100,4,2,2,85,0,1
62448,-100,4,2,2,85,0,0
62603,-100,4,2,2,80,0,1
65013,-100,4,2,2,5,0,1
65090,-100,4,2,2,80,0,1
70064,310.880829015544,4,2,2,85,1,1
70064,-100,4,2,2,85,0,1
75038,-100,4,2,2,70,0,0
79390,-100,4,2,2,65,0,0
80012,-100,4,2,2,75,0,0
81177,-100,4,2,2,5,0,0
81255,-100,4,2,2,75,0,0
84830,-100,4,2,2,65,0,0
87473,-100,4,2,2,70,0,0

[Colours]
Combo1 : 128,128,255
Combo2 : 255,255,128
Combo3 : 128,255,128
Combo4 : 255,128,255

[HitObjects]
484,328,428,6,0,P|424:276|312:296,1,192,2|2,0:0|0:0,0:0:0:0:
256,220,1049,2,0,B|264:174|264:174|246:146|246:146|254:75,1,128,2|2,3:2|0:0,0:0:0:0:
335,124,1516,1,2,0:0:0:0:
180,196,1671,2,0,P|124:180|64:212,1,128,10|10,1:0|1:0,0:0:0:0:
132,272,2137,1,10,1:0:0:0:
0,156,2293,5,2,3:2:0:0:
3,132,2371,1,8,1:0:0:0:
7,108,2448,1,8,1:0:0:0:
10,84,2526,1,8,1:0:0:0:
14,61,2604,2,0,L|22:17,1,32,10|10,1:0|1:0,0:0:0:0:
104,64,2759,2,0,L|112:108,1,32,10|10,1:0|1:0,0:0:0:0:
180,196,2915,6,0,L|194:117,1,80,10|0,0:0|0:0,0:0:0:0:
98,282,3225,2,0,P|73:251|64:212,1,80,8|0,0:0|0:0,0:0:0:0:
204,288,3536,1,2,3:2:0:0:
400,256,3692,2,0,P|344:200|269:213,1,160,8|0,0:0|3:0,0:0:0:0:
416,360,4158,5,8,0:0:0:0:
320,288,4314,1,0,3:0:0:0:
428,156,4469,2,0,P|448:124|448:80,1,80,8|8,0:0|0:0,0:0:0:0:
496,220,4780,1,0,3:0:0:0:
348,96,4935,2,0,L|292:108,1,40,8|8,0:0|0:0,0:0:0:0:
224,112,5091,2,0,L|241:57,1,40,8|8,0:0|0:0,0:0:0:0:
272,0,5246,2,0,L|310:42,1,40,8|8,0:0|0:0,0:0:0:0:
280,184,5402,6,0,P|232:200|136:148,1,160,6|8,3:2|0:0,0:0:0:0:
247,35,5868,2,0,L|224:112,1,80,2|0,0:0|3:0,0:0:0:0:
344,244,6179,1,0,3:0:0:0:
228,328,6334,2,0,B|272:320|272:320|312:356|376:344,1,120,10|0,0:0|0:0,0:0:0:0:
344,244,6645,6,0,L|348:144,1,80,0|0,3:0|0:0,0:0:0:0:
444,216,6956,1,8,0:0:0:0:
452,44,7111,1,0,3:0:0:0:
452,44,7189,1,8,0:0:0:0:
452,44,7267,2,0,L|448:123,1,80,2|0,0:0|3:0,0:0:0:0:
352,72,7578,1,10,0:0:0:0:
444,216,7733,1,2,0:0:0:0:
260,284,7889,6,0,L|164:272,1,80,2|2,3:2|0:0,0:0:0:0:
308,368,8200,1,10,0:0:0:0:
308,200,8355,2,0,L|149:180,1,160,2|2,0:0|3:2,0:0:0:0:
244,108,8821,1,10,0:0:0:0:
352,288,8977,6,0,L|510:268,1,160,2|2,0:0|0:0,0:0:0:0:
372,108,9443,1,10,0:0:0:0:
308,200,9598,1,2,3:2:0:0:
216,39,9754,2,0,P|252:24|292:24,1,80,0|0,0:0|3:0,0:0:0:0:
208,144,10065,2,0,P|171:128|131:128,1,80,8|0,0:0|0:0,0:0:0:0:
152,216,10298,1,8,0:0:0:0:
152,216,10376,6,0,B|132:280|88:296|88:296|32:276,1,160,6|8,3:2|0:0,0:0:0:0:
131,127,10842,1,2,0:0:0:0:
224,264,10997,1,0,3:0:0:0:
72,200,11153,1,0,3:0:0:0:
228,168,11308,2,0,B|264:176|264:176|307:164|307:164|352:176,1,120,10|0,0:0|0:0,0:0:0:0:
400,236,11619,6,0,B|380:176|380:176|424:84,1,160,0|8,3:0|0:0,0:0:0:0:
464,184,12086,1,0,3:0:0:0:
313,242,12241,1,2,0:0:0:0:
254,92,12396,1,0,3:0:0:0:
404,33,12552,2,0,L|452:44,3,40,10|10|10|10,0:0|1:0|1:0|1:0,0:0:0:0:
404,116,12863,6,0,P|392:180|452:260,1,160,6|8,3:2|0:0,0:0:0:0:
484,168,13329,1,0,0:0:0:0:
332,78,13484,2,0,L|243:93,1,80,2|0,3:2|3:0,0:0:0:0:
96,132,13795,2,0,L|185:147,1,80,8|0,0:0|0:0,0:0:0:0:
68,212,14106,5,10,0:0:0:0:
136,56,14262,1,0,3:0:0:0:
176,224,14417,1,8,0:0:0:0:
48,112,14573,1,0,3:0:0:0:
216,128,14728,1,10,0:0:0:0:
112,300,14883,1,10,0:0:0:0:
96,335,15194,6,0,P|165:320|237:326,1,143.999995605469,4|0,3:2|0:0,0:0:0:0:
408,248,15661,2,0,P|338:232|266:238,1,143.999995605469,8|0,3:0|3:0,0:0:0:0:
237,326,16127,1,0,3:0:0:0:
236,152,16438,5,0,3:0:0:0:
156,104,16593,2,0,L|180:32,1,71.9999978027344,8|0,3:0|0:0,0:0:0:0:
156,196,16904,2,0,P|96:175|64:92,1,143.999995605469,0|0,3:0|0:0,0:0:0:0:
178,35,17371,1,0,3:0:0:0:
240,152,17526,2,0,B|280:128|280:128|368:148,1,107.999996704102,8|0,0:0|0:0,0:0:0:0:
392,152,17837,5,6,3:2:0:0:
304,216,17992,1,2,3:2:0:0:
376,72,18147,2,0,L|360:4,1,64,10|2,0:0|3:2,0:0:0:0:
472,128,18458,2,0,P|468:192|420:236,1,128,2|10,3:2|0:0,0:0:0:0:
391,151,18925,6,0,P|362:139|331:142,1,64,2|0,3:2|3:0,0:0:0:0:
308,276,19235,2,0,P|333:256|346:227,1,64,2|8,3:2|0:0,0:0:0:0:
168,128,19546,2,0,B|232:144|232:144|263:197,1,128,2|2,3:2|3:2,0:0:0:0:
232,56,20013,1,10,0:0:0:0:
184,216,20168,5,2,0:0:0:0:
184,216,20246,1,2,0:0:0:0:
184,216,20324,2,0,B|120:200|120:200|58:238,1,128,2|8,3:2|0:0,0:0:0:0:
168,128,20790,1,2,3:2:0:0:
168,128,20868,1,2,0:0:0:0:
168,128,20945,1,2,3:2:0:0:
140,288,21101,1,0,3:0:0:0:
52,148,21256,2,0,L|68:80,1,64,8|2,0:0|3:2,0:0:0:0:
184,216,21567,6,0,B|215:223|246:216|246:216|278:208|309:216,1,128,2|8,3:2|0:0,0:0:0:0:
216,124,22033,1,0,3:0:0:0:
216,124,22111,1,8,0:0:0:0:
216,124,22189,2,0,P|176:120|144:128,1,64,2|0,3:2|3:0,0:0:0:0:
284,296,22500,2,0,P|324:300|356:292,1,64,10|0,0:0|0:0,0:0:0:0:
428,248,22733,1,8,0:0:0:0:
428,248,22811,6,0,L|440:168,1,64,6|2,3:2|3:2,0:0:0:0:
348,72,23121,2,0,L|357:135,1,64,10|2,0:0|3:2,0:0:0:0:
256,40,23432,2,0,P|209:81|137:81,1,128,2|10,3:2|0:0,0:0:0:0:
176,240,23899,6,0,P|192:208|188:168,1,64,2|0,3:2|3:0,0:0:0:0:
96,272,24210,2,0,P|115:301|152:318,1,64,2|8,3:2|0:0,0:0:0:0:
108,186,24520,2,0,B|44:196|44:196|12:256,1,128,2|2,3:2|3:2,0:0:0:0:
192,180,24987,1,8,0:0:0:0:
139,315,25142,1,2,0:0:0:0:
48,200,25298,6,0,B|56:64,1,128,2|8,3:2|0:0,0:0:0:0:
192,180,25764,2,0,L|194:116,1,64,2|0,0:0|3:0,0:0:0:0:
256,276,26075,1,10,0:0:0:0:
320,180,26230,2,0,L|322:116,1,64,2|2,0:0|3:2,0:0:0:0:
384,276,26541,5,10,0:0:0:0:
256,352,26697,1,0,3:0:0:0:
320,180,26852,2,0,B|324:116|324:116|276:56,1,120,14|0,0:0|0:0,0:0:0:0:
289,72,27163,1,0,3:0:0:0:
184,176,27318,2,0,B|148:204|96:192|96:192|36:160,1,160,14|0,0:0|0:0,0:0:0:0:
184,268,27785,6,0,P|220:256|248:236,1,71.9999978027344,6|0,3:2|3:0,0:0:0:0:
194,104,28096,2,0,L|182:182,1,71.9999978027344,10|0,0:0|3:0,0:0:0:0:
320,296,28406,2,0,L|293:154,1,143.999995605469,2|10,3:2|0:0,0:0:0:0:
396,196,28873,6,0,P|436:196|478:182,1,71.9999978027344,2|0,3:2|3:0,0:0:0:0:
293,154,29184,2,0,P|253:154|211:168,1,71.9999978027344,2|8,3:2|0:0,0:0:0:0:
178,313,29495,2,0,P|249:314|319:295,1,143.999995605469,2|2,3:2|3:2,0:0:0:0:
293,154,29961,1,10,0:0:0:0:
178,313,30116,1,2,0:0:0:0:
36,220,30272,6,0,B|64:172|64:172|40:136|52:84,1,143.999995605469,2|8,3:2|0:0,0:0:0:0:
140,116,30738,1,2,3:2:0:0:
244,12,30893,2,0,B|216:60|216:60|240:96|228:148,1,143.999995605469,2|8,3:2|0:0,0:0:0:0:
140,116,31360,1,2,3:2:0:0:
280,220,31515,6,0,B|332:228|332:228|372:208|372:208|432:216,1,143.999995605469,2|8,3:2|0:0,0:0:0:0:
312,136,31982,1,0,3:0:0:0:
396,304,32137,2,0,L|379:378,1,71.9999978027344,2|0,3:2|3:0,0:0:0:0:
484,280,32448,1,10,0:0:0:0:
484,280,32526,1,8,0:0:0:0:
484,280,32603,1,8,0:0:0:0:
432,132,32759,6,0,L|280:104,1,143.999995605469,6|8,3:2|0:0,0:0:0:0:
220,192,33225,2,0,P|176:128|192:40,1,143.999995605469,6|0,3:2|3:0,0:0:0:0:
264,8,33691,1,10,0:0:0:0:
290,105,33847,1,2,0:0:0:0:
148,244,34002,6,0,B|180:276|220:280|220:280|296:268,1,143.999995605469,6|8,3:2|0:0,0:0:0:0:
392,312,34469,2,0,B|412:224|372:248|392:160,1,143.999995605469,6|0,3:2|3:0,0:0:0:0:
492,204,34935,1,8,0:0:0:0:
304,76,35246,6,0,B|368:60|368:60|432:76,1,128,6|0,3:2|0:0,0:0:0:0:
304,168,35712,1,2,3:2:0:0:
304,168,35868,2,0,B|240:184|240:184|176:168,1,128,10|0,0:0|3:0,0:0:0:0:
312,264,36334,1,2,0:0:0:0:
160,344,36489,6,0,L|173:246,1,80,10|0,0:0|3:0,0:0:0:0:
293,88,36800,2,0,L|306:186,1,80,10|0,0:0|3:0,0:0:0:0:
312,264,37111,1,10,0:0:0:0:
179,168,37267,1,0,3:0:0:0:
80,328,37422,2,0,P|60:292|59:250,1,80,10|2,0:0|0:0,0:0:0:0:
116,104,37733,6,0,B|264:112,1,128,6|0,3:2|0:0,0:0:0:0:
320,184,38199,1,2,3:2:0:0:
320,184,38355,2,0,B|468:176,1,128,10|2,0:0|0:0,0:0:0:0:
496,100,38821,1,2,0:0:0:0:
480,268,38976,5,2,3:2:0:0:
480,268,39132,2,0,P|424:312|360:308,1,128,2|2,3:2|3:2,0:0:0:0:
276,352,39598,2,0,P|220:308|156:312,1,128,10|0,0:0|0:0,0:0:0:0:
300,252,40220,6,0,L|304:200,1,32,6|0,3:2|0:0,0:0:0:0:
162,268,40686,2,0,L|166:320,1,32,6|0,3:2|0:0,0:0:0:0:
32,224,41153,6,0,L|41:96,1,128,14|0,0:0|0:0,0:0:0:0:
208,32,41619,1,10,0:0:0:0:
192,132,41774,2,0,P|152:148|124:148,1,64,2|2,3:2|3:2,0:0:0:0:
131,148,42007,1,0,1:0:0:0:
131,148,42085,1,10,0:0:0:0:
368,316,42707,6,0,P|305:312|256:272,1,128,6|0,3:2|0:0,0:0:0:0:
342,220,43173,1,2,3:2:0:0:
342,220,43329,2,0,P|404:223|453:263,1,128,10|2,0:0|0:0,0:0:0:0:
368,316,43795,1,2,0:0:0:0:
252,180,43950,5,2,3:2:0:0:
252,180,44106,2,0,B|256:136|232:104|232:104|240:56,1,128,2|2,3:2|3:2,0:0:0:0:
152,168,44572,2,0,B|148:212|172:244|172:244|164:292,1,128,10|0,0:0|0:0,0:0:0:0:
252,180,45039,1,8,0:0:0:0:
332,116,45194,6,0,L|372:120,1,32,6|0,3:2|0:0,0:0:0:0:
440,208,45660,2,0,L|400:212,1,32,6|0,3:2|0:0,0:0:0:0:
288,24,46127,6,0,L|415:36,1,128,14|0,0:0|0:0,0:0:0:0:
472,128,46593,1,10,0:0:0:0:
328,204,46748,2,0,P|332:244|344:272,1,64,2|2,3:2|3:2,0:0:0:0:
256,312,47059,2,0,P|234:251|230:188,1,128,10|2,0:0|0:0,0:0:0:0:
424,224,47681,5,2,3:2:0:0:
256,312,47992,2,0,L|320:280,1,64,2|2,0:0|0:0,0:0:0:0:
443,214,48303,1,2,3:2:0:0:
256,132,48614,1,2,0:0:0:0:
462,204,48925,5,2,3:2:0:0:
256,312,49235,2,0,L|320:280,1,64,2|2,0:0|0:0,0:0:0:0:
481,195,49546,2,0,L|424:224,1,64,2|2,3:2|0:0,0:0:0:0:
256,312,49857,5,2,0:0:0:0:
31,195,50168,2,0,P|128:208|196:128,1,192,2|0,0:0|0:0,0:0:0:0:
292,24,50790,6,0,B|276:140|276:140|380:216,1,240,14|0,0:0|3:0,0:0:0:0:
372,104,51412,6,0,L|384:16,1,80,10|0,0:0|0:0,0:0:0:0:
252,228,51723,2,0,L|322:282,1,80,2|0,0:0|0:0,0:0:0:0:
204,62,52033,2,0,L|121:95,1,80,10|8,3:2|0:0,0:0:0:0:
48,124,52267,1,8,0:0:0:0:
48,124,52344,2,0,L|56:176,1,40,10|8,0:0|0:0,0:0:0:0:
140,216,52500,2,0,L|146:176,1,40,8|8,0:0|0:0,0:0:0:0:
68,288,52655,6,0,P|112:312|216:280,1,160,6|10,3:2|0:0,0:0:0:0:
288,216,53121,1,2,0:0:0:0:
153,137,53277,2,0,L|140:216,1,80,2|2,3:2|3:2,0:0:0:0:
240,92,53588,2,0,P|216:64|168:40,1,80,10|2,0:0|0:0,0:0:0:0:
42,130,53899,6,0,L|68:288,1,160,2|10,3:2|0:0,0:0:0:0:
240,248,54365,2,0,B|162:260|162:260|149:180,1,160,2|0,3:2|3:0,0:0:0:0:
180,352,54831,2,0,L|306:331,1,120,10|0,0:0|0:0,0:0:0:0:
388,316,55142,6,0,L|362:158,1,160,2|10,3:2|0:0,0:0:0:0:
344,60,55609,1,2,0:0:0:0:
172,108,55764,2,0,L|92:99,1,80,2|2,3:2|3:2,0:0:0:0:
245,160,56075,2,0,P|260:123|260:84,1,80,10|2,0:0|0:0,0:0:0:0:
160,200,56386,6,0,P|208:248|308:224,1,160,2|8,3:2|0:0,0:0:0:0:
260,84,56852,2,0,B|200:120|200:120|159:100|112:120,1,160,2|0,3:2|3:0,0:0:0:0:
152,280,57318,2,0,L|160:200,1,80,10|2,0:0|0:0,0:0:0:0:
176,32,57629,5,6,3:2:0:0:
160,200,57940,1,10,0:0:0:0:
240,120,58096,1,2,0:0:0:0:
320,200,58251,2,0,P|372:168|416:168,1,80,2|0,3:2|3:0,0:0:0:0:
456,300,58562,2,0,P|402:270|380:232,1,80,10|2,0:0|0:0,0:0:0:0:
475,133,58873,5,6,3:2:0:0:
320,200,59184,1,10,0:0:0:0:
348,92,59339,1,2,3:2:0:0:
240,120,59495,2,0,L|156:140,1,80,10|0,1:0|3:0,0:0:0:0:
72,280,59805,2,0,L|96:197,1,80,8|8,0:0|1:0,0:0:0:0:
184,224,60116,5,6,3:2:0:0:
80,116,60272,1,2,0:0:0:0:
184,224,60427,1,10,0:0:0:0:
252,32,60583,2,0,B|320:72|320:72|400:56,1,160,2|2,0:0|3:2,0:0:0:0:
360,176,61049,1,10,0:0:0:0:
480,148,61204,1,2,0:0:0:0:
364,292,61360,6,0,P|316:288|272:260,1,80,10|0,0:0|3:0,0:0:0:0:
288,48,61671,2,0,P|309:92|306:144,1,80,10|0,0:0|3:0,0:0:0:0:
115,235,61982,2,0,P|142:195|189:171,1,80,10|0,0:0|3:0,0:0:0:0:
188,332,62292,1,10,0:0:0:0:
429,307,62448,1,8,0:0:0:0:
429,307,62526,1,8,0:0:0:0:
429,307,62603,6,0,P|369:263|285:275,1,160,6|10,3:2|0:0,0:0:0:0:
341,359,63070,1,2,0:0:0:0:
200,236,63225,2,0,L|220:136,1,80,2|2,3:2|3:2,0:0:0:0:
108,216,63536,2,0,P|108:256|123:294,1,80,10|2,0:0|0:0,0:0:0:0:
312,192,63847,6,0,P|308:112|240:60,1,160,2|10,3:2|0:0,0:0:0:0:
172,256,64313,2,0,B|146:181|146:181|223:154,1,160,2|2,3:2|3:2,0:0:0:0:
256,304,64780,2,0,P|195:352|124:344,1,120,10|0,0:0|0:0,0:0:0:0:
80,312,65090,6,0,P|64:240|116:164,1,160,2|10,3:2|0:0,0:0:0:0:
172,256,65557,1,2,0:0:0:0:
160,88,65712,2,0,L|80:80,1,80,2|2,3:2|3:2,0:0:0:0:
251,144,66023,2,0,P|266:106|266:67,1,80,10|2,0:0|0:0,0:0:0:0:
341,201,66334,6,0,P|371:127|372:48,1,160,2|8,3:2|0:0,0:0:0:0:
252,240,66800,2,0,B|194:221|194:221|164:228|164:228|95:204,1,160,6|0,3:2|3:0,0:0:0:0:
196,312,67267,1,10,0:0:0:0:
164,136,67422,1,2,0:0:0:0:
16,268,67577,6,0,P|52:212|44:112,1,160,6|8,3:2|0:0,0:0:0:0:
174,229,68044,2,0,P|212:241|252:240,1,80,0|2,3:0|3:2,0:0:0:0:
228,144,68355,1,2,3:2:0:0:
324,292,68510,2,0,L|336:204,1,80,10|0,0:0|0:0,0:0:0:0:
152,70,68821,6,0,L|173:228,1,160,2|8,3:2|0:0,0:0:0:0:
364,132,69287,2,0,P|320:68|232:72,1,160,2|0,3:2|3:0,0:0:0:0:
268,252,69754,2,0,P|308:244|352:216,1,80,10|0,0:0|0:0,0:0:0:0:
173,228,70064,5,14,3:2:0:0:
173,228,70374,2,0,L|185:308,1,80,10|0,0:0|3:0,0:0:0:0:
272,156,70685,1,10,0:0:0:0:
173,228,70841,1,0,3:0:0:0:
112,88,70996,1,10,0:0:0:0:
112,88,71307,6,0,P|152:88|200:72,1,80,10|0,0:0|0:0,0:0:0:0:
296,28,71618,2,0,P|336:28|384:44,1,80,10|0,0:0|3:0,0:0:0:0:
332,204,71929,2,0,L|324:108,1,80,10|0,0:0|3:0,0:0:0:0:
392,280,72240,1,10,0:0:0:0:
392,280,72317,1,8,1:0:0:0:
392,280,72395,1,8,1:0:0:0:
244,208,72551,6,0,P|203:203|162:215,1,80,14|0,0:0|0:0,0:0:0:0:
84,260,72861,1,2,3:2:0:0:
120,136,73017,1,8,0:0:0:0:
212,292,73172,2,0,L|200:372,1,80,2|0,3:2|0:0,0:0:0:0:
332,204,73483,2,0,L|320:124,1,80,2|0,3:2|0:0,0:0:0:0:
408,264,73794,5,2,3:2:0:0:
332,204,73950,1,8,3:0:0:0:
212,292,74105,1,2,3:2:0:0:
120,136,74260,1,8,1:0:0:0:
120,136,74338,1,8,1:0:0:0:
120,136,74416,2,0,L|131:56,1,80,2|8,3:2|3:0,0:0:0:0:
40,196,74727,1,4,3:0:0:0:
128,76,78146,5,6,3:1:0:0:
384,308,78768,2,0,L|440:304,3,40,2|0|0|0,0:0|0:0|0:0|0:0,0:0:0:0:
316,256,79079,2,0,L|260:252,3,40,2|0|0|0,0:0|0:0|0:0|0:0,0:0:0:0:
396,216,79390,1,2,3:2:0:0:
399,186,79468,1,8,1:0:0:0:
403,156,79545,1,8,1:0:0:0:
407,126,79623,1,8,1:0:0:0:
411,97,79701,2,0,L|419:37,1,40,10|10,0:0|0:0,0:0:0:0:
320,92,79856,2,0,L|325:131,1,40,10|10,0:0|0:0,0:0:0:0:
240,148,80012,6,0,P|164:168|88:120,1,160,6|8,3:2|0:0,0:0:0:0:
176,76,80478,1,2,0:0:0:0:
24,180,80633,2,0,P|20:220|32:260,1,80,0|0,3:0|3:0,0:0:0:0:
137,321,80944,2,0,P|179:291|246:288,1,120,10|0,0:0|0:0,0:0:0:0:
320,328,81255,6,0,B|340:268|340:268|324:240|324:240|344:168,1,160,0|8,3:0|0:0,0:0:0:0:
424,220,81722,1,0,3:0:0:0:
364,84,81877,1,2,0:0:0:0:
248,176,82032,1,0,3:0:0:0:
188,40,82188,2,0,L|144:44,3,40,8|8|8|8,0:0|1:0|1:0|1:0,0:0:0:0:
68,16,82499,6,0,P|68:76|148:128,1,160,2|8,3:2|0:0,0:0:0:0:
272,36,82965,1,0,0:0:0:0:
272,224,83120,2,0,L|257:135,1,80,2|0,3:2|3:0,0:0:0:0:
128,212,83431,2,0,L|114:290,1,80,8|0,0:0|0:0,0:0:0:0:
272,224,83742,5,10,0:0:0:0:
144,127,83898,1,0,3:0:0:0:
244,312,84053,2,0,P|284:312|348:284,1,80,8|0,0:0|0:0,0:0:0:0:
144,127,84364,1,10,0:0:0:0:
114,290,84519,1,2,3:2:0:0:
272,224,84675,1,2,3:2:0:0:
144,127,84830,1,6,3:2:0:0:
144,127,86229,5,10,0:0:0:0:
272,224,86385,1,0,3:0:0:0:
114,290,86540,1,10,0:0:0:0:
144,127,86696,1,8,0:0:0:0:
146,107,86773,1,8,0:0:0:0:
149,87,86851,1,2,3:2:0:0:
272,224,87007,5,8,3:0:0:0:
114,290,87162,1,6,3:0:0:0:
114,290,87473,5,10,3:2:0:0:
308,365,87628,1,10,3:2:0:0:
