osu file format v14

[General]
AudioFilename: audio.mp3
AudioLeadIn: 0
PreviewTime: 52452
Countdown: 0
SampleSet: Soft
StackLeniency: 0.7
Mode: 0
LetterboxInBreaks: 0
WidescreenStoryboard: 1

[Editor]
Bookmarks: 80820,87037
DistanceSpacing: 0.8
BeatDivisor: 4
GridSize: 4
TimelineZoom: 1.9

[Metadata]
Title:RE-ILLUSION (TV Size)
TitleUnicode:RE-ILLUSION (TVサイズ)
Artist:Iguchi Yuka
ArtistUnicode:井口裕香
Creator:Syph
Version:oko's Insane
Source:ソード・オラトリア ダンジョンに出会いを求めるのは間違っているだろうか外伝
Tags:Dungeon ni Deai wo Motomeru no wa Machigatteiru Darou ka Gaiden Is it Wrong to Try to Pick Up Girls in a On the Side danmachi cheesecake kibbleru nyukai okorin okoratu kalibe left
BeatmapID:1312944
BeatmapSetID:604075

[Difficulty]
HPDrainRate:6
CircleSize:4
OverallDifficulty:7
ApproachRate:9
SliderMultiplier:1.7
SliderTickRate:1

[Events]
//Background and Video events
0,0,"thereisnogoodartofthischaracter.jpg",0,0
Video,-210,"oratoria_opening.avi"
//Break Periods
//Storyboard Layer 0 (Background)
//Storyboard Layer 1 (Fail)
//Storyboard Layer 2 (Pass)
//Storyboard Layer 3 (Foreground)
//Storyboard Sound Samples

[TimingPoints]
302,310.880829015544,4,2,20,50,1,0
612,-100,4,2,20,30,0,0
923,-100,4,2,20,50,0,0
1234,-100,4,2,20,30,0,0
2789,-100,4,2,20,50,0,0
5276,-100,4,2,20,60,0,0
7763,-100,4,2,20,50,0,0
10250,-100,4,2,20,60,0,0
17711,-100,4,2,20,20,0,0
17789,-100,4,2,20,40,0,0
26415,-100,4,2,20,54,0,0
27193,-100,4,2,20,45,0,0
27659,-100,4,2,20,50,0,0
37607,-100,4,2,20,40,0,0
50664,-100,4,2,20,50,0,0
52529,-100,4,2,20,65,0,1
69939,-100,4,2,20,60,0,1
74913,-100,4,2,20,30,0,0
77089,-100,4,2,20,20,0,0
77167,-100,4,2,20,5,0,0
77400,-100,4,2,20,50,0,0
79887,-100,4,2,20,60,0,0
85172,-100,4,2,20,30,0,0
86105,-100,4,2,20,50,0,0
87037,-100,4,2,20,60,0,0
87348,-100,4,2,20,70,0,0
87970,-100,4,2,20,40,0,0
87980,-100,4,2,21,10,0,0
88125,-100,4,2,20,15,0,0
88203,-100,4,2,21,20,0,0
88281,-100,4,2,20,25,0,0
88358,-100,4,2,21,30,0,0
88436,-100,4,2,20,35,0,0
88514,-100,4,2,21,40,0,0
88592,-100,4,2,21,5,0,0

[Colours]
Combo1 : 218,218,218
Combo2 : 253,226,72
Combo3 : 64,150,255
Combo4 : 252,196,169

[HitObjects]
176,92,302,6,0,P|188:156|24:156,1,283.333333333333,2|2,0:0|0:0,0:0:0:0:
31,170,923,2,0,P|64:212|60:336,1,170,0|2,1:0|0:0,0:0:0:0:
144,352,1390,1,0,0:0:0:0:
144,352,1545,6,0,P|170:311|219:268,1,85,0|0,3:3|0:0,0:0:0:0:
164,204,1856,2,0,P|212:196|268:216,1,85,0|0,3:0|0:0,0:0:0:0:
352,312,2167,2,0,P|352:256|368:192,1,85,0|0,1:0|0:0,0:0:0:0:
456,104,2478,2,0,P|472:152|464:208,1,85,0|2,3:0|1:0,0:0:0:0:
436,212,2711,1,0,1:0:0:0:
436,212,2789,6,0,P|340:192|228:200,2,170,2|0|2,1:0|1:0|1:0,0:0:0:0:
318,38,3566,2,0,P|342:67|352:113,1,85,8|0,0:2|0:0,0:0:0:0:
313,268,3877,1,0,1:0:0:0:
195,88,4032,6,0,P|232:163|208:243,1,170,2|0,1:0|1:0,0:0:0:0:
38,37,4498,1,2,1:2:0:0:
38,37,4576,1,0,1:0:0:0:
38,37,4654,2,0,L|58:93,3,42.5,2|0|2|0,1:0|1:0|1:0|1:0,1:0:0:0:
42,109,4965,2,0,L|62:165,3,42.5,2|2|2|2,1:0|1:2|1:0|1:2,1:0:0:0:
24,188,5276,6,0,B|72:172|124:188|96:204|148:224|216:204,1,170,6|8,1:0|1:2,0:0:0:0:
132,120,5742,2,0,L|116:316,1,170,2|0,1:0|1:0,0:0:0:0:
216,132,6208,2,0,P|260:108|304:116,1,85,10|0,1:0|0:0,0:0:0:0:
220,33,6519,6,0,P|216:118|216:203,1,170,2|8,1:3|1:2,0:0:0:0:
321,45,6985,1,0,1:0:0:0:
321,45,7063,1,2,0:0:0:0:
321,45,7141,2,2,P|371:33|455:44,1,127.5,2|0,1:0|0:0,0:3:0:0:
466,61,7452,2,0,P|457:110|464:149,1,85,10|0,1:2|0:0,0:0:0:0:
360,328,7763,5,2,1:1:0:0:
372,192,7918,1,2,0:0:0:0:
239,217,8074,1,10,1:2:0:0:
227,353,8229,1,2,0:1:0:0:
96,52,8540,5,2,0:0:0:0:
188,148,8695,1,8,1:0:0:0:
64,192,8851,1,2,0:1:0:0:
64,192,9162,5,2,0:1:0:0:
180,68,9317,1,10,0:2:0:0:
188,244,9472,2,0,P|156:212|244:180,1,170,2|0,1:0|1:0,0:0:0:0:
300,264,9939,1,8,0:0:0:0:
300,264,10094,2,0,L|256:280,1,42.5,0|0,1:0|1:0,0:0:0:0:
324,172,10250,6,0,P|372:200|484:200,1,170,2|8,1:0|1:0,0:0:0:0:
384,112,10716,2,0,P|408:200|404:312,1,170,2|0,1:0|1:0,0:0:0:0:
287,82,11182,2,0,P|239:98|175:98,1,85,10|0,1:0|0:0,0:0:0:0:
106,73,11493,6,0,P|163:79|204:176,1,170,2|8,0:3|0:0,0:0:0:0:
168,272,11960,1,0,1:0:0:0:
168,272,12037,1,2,0:0:0:0:
168,272,12115,2,2,P|112:264|36:268,1,127.5,2|0,1:0|0:0,0:3:0:0:
21,287,12426,2,0,P|29:351|29:403,1,85,10|2,1:2|0:0,0:0:0:0:
156,160,12737,6,0,P|196:144|272:152,1,85,2|0,1:0|0:0,0:0:0:0:
336,56,13048,2,0,P|368:92|384:160,1,85,8|0,1:0|0:0,0:0:0:0:
236,328,13358,2,0,P|232:276|260:232,1,85,2|0,1:0|0:0,0:0:0:0:
400,296,13669,2,0,P|385:346|344:378,1,85,8|0,1:0|0:0,0:0:0:0:
340,188,13980,6,0,P|352:112|332:20,1,170,2|8,1:0|1:0,0:0:0:0:
332,21,14447,1,0,1:0:0:0:
251,123,14602,1,10,1:0:0:0:
443,35,14757,1,10,1:0:0:0:
256,288,15068,5,6,1:0:0:0:
256,192,15146,12,0,17400,1:0:0:0:
160,84,17711,6,0,P|176:152|164:268,1,170,4|0,1:1|1:0,0:0:0:0:
104,300,18177,1,0,0:0:0:0:
104,300,18333,2,0,P|88:248|44:216,2,85,4|0|0,0:3|0:0|1:0,0:0:0:0:
172,344,18799,5,0,0:0:0:0:
324,224,19110,1,0,0:0:0:0:
160,112,19421,5,2,0:0:0:0:
220,172,19576,1,2,0:0:0:0:
240,88,19732,1,2,0:0:0:0:
144,188,19887,2,0,P|160:248|160:304,1,85,2|0,1:2|0:0,0:0:0:0:
84,248,20198,6,0,L|100:60,1,170,4|0,0:3|1:0,0:0:0:0:
176,101,20664,1,0,0:0:0:0:
176,101,20820,2,0,L|160:289,1,170,4|0,0:3|1:0,0:0:0:0:
236,308,21286,1,2,0:0:0:0:
236,308,21442,2,0,L|252:120,1,170,2|0,0:0|1:0,0:0:0:0:
250,138,22063,6,0,P|300:136|362:122,1,85,2|0,1:2|0:0,0:0:0:0:
384,200,22374,2,0,P|360:244|341:304,1,85,2|0,1:2|0:0,0:0:0:0:
416,128,22685,5,4,0:1:0:0:
416,128,22840,1,0,0:0:0:0:
364,56,22996,2,0,L|272:64,1,85,0|0,1:0|0:0,0:0:0:0:
208,28,23307,2,0,L|116:36,1,85,4|0,0:3|0:0,0:0:0:0:
48,72,23618,1,0,1:0:0:0:
120,120,23773,5,0,0:0:0:0:
68,316,24084,1,0,0:0:0:0:
252,188,24395,1,0,0:0:0:0:
324,256,24550,1,2,0:0:0:0:
347,160,24706,1,2,0:0:0:0:
279,96,24862,1,2,0:0:0:0:
419,228,25017,1,2,0:0:0:0:
279,96,25172,6,0,P|219:84|95:120,1,170,2|0,1:0|1:0,0:0:0:0:
369,34,25638,2,0,P|417:22|465:30,1,85,2|0,0:1|0:0,0:0:0:0:
451,25,25949,2,0,P|457:82|469:122,2,85,2|2|0,1:0|0:2|1:0,0:0:0:0:
332,192,26415,6,0,P|316:248|312:296,1,85,2|0,1:0|0:3,0:0:0:0:
176,112,26726,2,0,P|128:144|88:192,1,85,2|0,1:0|0:0,0:0:0:0:
108,163,27037,1,0,1:0:0:0:
93,6,27193,6,2,B|84:44|98:64|98:64|88:84|83:97|83:97|120:136|106:186,1,170,2|0,0:1|0:0,0:3:0:0:
150,311,27659,6,0,P|118:287|54:287,1,85,4|0,0:1|0:0,0:0:0:0:
189,167,27970,2,0,P|237:151|305:159,1,85,8|0,1:0|0:0,0:0:0:0:
320,280,28281,2,0,P|260:272|216:228,1,85,0|0,1:0|0:0,0:0:0:0:
415,232,28592,1,8,1:0:0:0:
415,232,28747,6,0,P|403:284|407:328,1,85,2|0,0:0|1:0,0:0:0:0:
436,135,29058,2,0,P|417:90|426:33,1,85,2|8,0:0|1:0,0:0:0:0:
297,2,29369,2,0,P|315:46|307:104,1,85,2|0,0:0|1:0,0:0:0:0:
300,215,29680,1,0,1:0:0:0:
217,56,29835,1,8,1:0:0:0:
192,264,30146,6,0,P|216:200|164:108,1,170,0|8,1:0|1:0,0:0:0:0:
64,112,30612,1,2,0:0:0:0:
64,112,30768,2,0,P|140:92|156:0,1,170,0|8,1:0|1:0,0:0:0:0:
58,211,31234,1,2,0:0:0:0:
58,211,31390,2,0,P|112:267|79:354,1,170,0|8,1:0|1:0,0:0:0:0:
87,347,32011,6,0,L|-14:331,1,85,2|0,1:2|0:0,0:0:0:0:
184,268,32322,2,0,L|267:281,1,85,10|0,1:2|1:0,0:0:0:0:
64,92,32633,6,0,P|96:160|76:268,1,170,6|8,1:0|1:0,0:0:0:0:
308,28,33099,2,0,P|272:72|144:84,1,170,6|0,1:0|1:0,0:0:0:0:
165,92,33566,1,8,1:0:0:0:
208,4,33721,1,0,1:0:0:0:
248,245,33877,6,0,P|312:273|424:269,1,170,2|8,1:0|1:0,0:0:0:0:
408,72,34343,2,0,P|416:128|488:232,1,170,6|0,1:0|1:0,0:0:0:0:
260,161,34809,2,0,P|220:173|156:176,1,85,8|0,1:0|0:0,0:0:0:0:
159,9,35120,6,0,L|179:193,1,170,2|0,1:2|0:0,0:0:0:0:
189,273,35586,1,0,1:0:0:0:
270,99,35742,2,0,L|262:271,1,170,8|0,1:0|1:0,0:0:0:0:
256,364,36208,1,0,1:0:0:0:
384,192,36364,5,10,1:0:0:0:
256,20,36675,1,10,1:0:0:0:
128,192,36985,1,10,1:0:0:0:
256,364,37296,2,2,L|256:256,1,85,10|0,1:0|0:0,0:3:0:0:
208,152,37607,6,0,P|200:240|40:224,1,255,2|0,0:0|1:0,0:0:0:0:
24,172,38229,2,0,P|36:248|40:352,1,170,8|2,1:0|0:0,0:0:0:0:
40,340,38695,1,2,0:0:0:0:
128,188,38851,5,0,1:0:0:0:
128,188,39006,2,0,P|184:192|308:176,1,170,0|0,1:0|1:0,0:0:0:0:
383,70,39472,2,0,P|385:155|418:233,1,170,8|0,1:0|0:0,0:0:0:0:
116,244,40094,6,0,P|140:272|160:336,1,85,2|0,1:0|0:0,0:0:0:0:
396,244,40561,2,0,P|372:272|352:336,1,85,2|8,1:0|1:0,0:0:0:0:
256,32,41027,2,0,B|280:116|224:112|256:224,1,170,2|0,1:0|0:0,0:0:0:0:
168,101,41493,5,2,0:0:0:0:
168,101,41649,2,0,P|128:89|52:101,1,85,2|0,0:1|1:0,0:0:0:0:
32,236,41960,2,2,B|104:204|204:212|148:256|272:288|348:208,1,297.5,10|0,1:0|0:0,0:0:0:0:
344,208,42581,6,0,P|312:152|448:100,1,255,2|0,0:0|1:0,0:0:0:0:
488,180,43203,2,0,P|472:112|504:8,1,170,8|0,1:0|0:0,0:0:0:0:
497,17,43669,1,2,0:0:0:0:
395,156,43825,5,2,1:0:0:0:
395,156,43980,2,0,P|317:137|201:153,1,170,0|0,1:0|1:0,0:0:0:0:
92,93,44447,2,0,P|128:147|151:272,1,170,8|0,1:0|0:0,0:0:0:0:
394,25,45068,6,0,L|279:45,1,85,2|0,1:0|0:0,0:0:0:0:
118,359,45535,2,0,L|233:379,1,85,2|8,0:1|1:0,0:0:0:0:
416,192,46001,2,2,P|255:143|92:192,1,340,2|0,1:0|0:0,0:3:0:0:
94,190,46934,6,0,P|106:250|106:306,1,85,2|0,0:0|0:0,0:0:0:0:
188,236,47245,2,0,P|188:296|176:352,1,85,2|0,0:0|0:0,0:0:0:0:
256,376,47555,5,2,1:2:0:0:
256,8,48177,1,2,0:2:0:0:
460,336,48799,1,2,0:2:0:0:
52,336,49421,1,2,1:0:0:0:
52,336,49576,6,0,P|64:288|64:236,1,85,0|2,0:0|0:0,0:0:0:0:
48,44,50042,2,2,B|160:96|120:4|220:-8|288:68|228:148|192:136,1,297.5,2|0,0:0|0:0,0:3:0:0:
156,132,50664,5,2,1:0:0:0:
460,336,51286,1,2,1:0:0:0:
388,160,51597,5,2,0:0:0:0:
272,324,51908,2,0,P|260:344|228:368,3,42.5,2|0|0|0,1:0|1:0|1:0|1:0,1:0:0:0:
204,280,52219,2,0,P|196:256|196:220,3,42.5,2|0|0|0,1:0|1:0|1:0|1:0,1:0:0:0:
140,328,52529,6,0,P|96:352|12:320,1,127.5,2|0,1:2|0:0,0:0:0:0:
12,304,52840,2,0,P|32:240|32:196,1,85,10|0,1:2|0:0,0:0:0:0:
130,76,53151,2,0,P|134:128|154:184,1,85,2|0,1:2|0:0,0:0:0:0:
304,264,53462,1,8,1:2:0:0:
238,167,53618,1,2,0:0:0:0:
304,264,53773,6,0,P|244:276|120:272,1,170,2|8,1:0|1:0,0:0:0:0:
328,172,54239,2,0,P|388:160|512:164,1,170,2|0,1:2|1:0,0:0:0:0:
238,167,54706,1,10,1:2:0:0:
440,308,55017,5,2,1:0:0:0:
275,77,55327,1,8,1:0:0:0:
238,167,55483,1,2,0:0:0:0:
371,64,55638,1,0,1:0:0:0:
215,0,55794,1,0,0:0:0:0:
335,155,55949,2,0,P|371:181|424:189,1,85,8|2,1:0|0:0,0:0:0:0:
156,72,56260,6,0,P|156:136|136:272,1,170,2|8,1:0|1:0,0:0:0:0:
280,32,56726,2,0,P|344:12|464:56,1,170,2|0,1:2|1:0,0:0:0:0:
344,156,57193,2,0,P|328:208|320:268,1,85,10|0,1:0|0:0,0:0:0:0:
443,371,57504,6,0,P|435:295|419:231,1,127.5,2|0,1:2|0:0,0:0:0:0:
411,211,57814,1,8,1:0:0:0:
336,320,57970,1,0,0:0:0:0:
192,200,58125,1,2,1:2:0:0:
192,200,58436,2,0,P|208:252|208:300,1,85,10|0,1:0|0:0,0:0:0:0:
84,347,58747,6,0,P|92:279|100:179,1,127.5,2|0,1:2|0:0,0:0:0:0:
84,187,59058,1,8,1:0:0:0:
12,279,59213,1,2,0:0:0:0:
159,104,59369,2,0,P|207:108|263:132,1,85,2|0,1:0|0:0,0:0:0:0:
256,220,59680,2,0,P|280:280|284:324,1,85,10|0,1:2|0:0,0:0:0:0:
419,76,59991,5,0,0:0:0:0:
387,188,60146,1,2,0:0:0:0:
506,155,60301,1,10,1:2:0:0:
335,110,60456,1,2,0:1:0:0:
48,136,60768,5,2,0:0:0:0:
208,168,60923,1,8,1:0:0:0:
64,240,61079,1,2,0:0:0:0:
156,76,61234,5,2,1:0:0:0:
384,344,61545,1,10,1:0:0:0:
356,76,61856,1,2,1:0:0:0:
128,344,62167,1,10,1:0:0:0:
237,49,62478,6,0,P|297:45|357:77,1,127.5,2|0,1:2|0:0,0:0:0:0:
364,120,62789,2,0,P|340:164|336:204,1,85,10|0,1:2|0:0,0:0:0:0:
476,292,63099,2,0,P|480:232|468:200,1,85,2|0,1:2|0:0,0:0:0:0:
256,172,63410,1,8,1:0:0:0:
348,292,63566,1,2,0:0:0:0:
256,172,63721,6,0,P|164:192|88:176,1,170,2|8,1:0|1:0,0:0:0:0:
336,200,64188,2,0,P|356:264|360:376,1,170,2|0,1:2|1:0,0:0:0:0:
309,115,64654,1,10,1:2:0:0:
93,213,64965,5,2,1:0:0:0:
434,238,65276,1,8,1:0:0:0:
418,134,65431,1,2,0:0:0:0:
336,200,65586,1,0,1:0:0:0:
320,96,65742,1,0,0:0:0:0:
434,238,65897,1,8,1:0:0:0:
238,162,66053,1,2,0:0:0:0:
402,30,66208,6,0,P|400:92|356:196,1,170,2|8,1:0|1:0,0:0:0:0:
188,348,66675,2,0,P|186:286|142:182,1,170,2|0,1:0|1:0,0:0:0:0:
260,96,67141,2,0,P|264:140|256:200,1,85,10|0,1:2|0:0,0:0:0:0:
160,56,67452,6,0,L|360:48,1,170,2|8,1:0|1:0,0:0:0:0:
408,120,67918,1,0,1:0:0:0:
408,120,67996,1,2,0:0:0:0:
408,120,68074,2,0,P|396:184|396:236,1,85,0|0,1:0|0:0,0:0:0:0:
472,360,68384,2,0,P|444:304|400:268,1,85,10|0,1:0|0:0,0:0:0:0:
261,152,68695,6,0,P|277:236|285:328,1,170,2|8,1:0|1:0,0:0:0:0:
80,352,69162,2,0,B|64:284|96:232|136:260|168:192|132:108,1,255,2|8,1:0|1:0,0:0:0:0:
136,118,69939,6,0,P|84:134|32:122,1,85,10|0,1:0|0:0,0:0:0:0:
44,28,70250,2,0,P|96:12|148:24,1,85,10|0,1:0|0:0,0:0:0:0:
252,96,70561,6,0,L|236:204,1,85,10|0,1:0|0:0,0:0:0:0:
320,280,70871,2,0,L|304:388,1,85,10|0,1:0|0:0,0:0:0:0:
408,184,71182,6,0,P|404:140|372:100,1,85,10|0,1:0|0:0,0:0:0:0:
225,19,71493,2,0,P|229:63|261:103,1,85,10|0,1:0|0:0,0:0:0:0:
272,288,71804,6,0,P|232:232|128:244,1,170,10|8,1:0|1:0,0:0:0:0:
48,288,72270,1,0,1:0:0:0:
48,288,72348,1,2,0:0:0:0:
48,288,72426,6,0,P|64:324|72:380,1,85,10|0,1:2|0:0,0:0:0:0:
80,168,72737,2,0,P|64:132|56:76,1,85,10|0,1:0|1:0,0:0:0:0:
208,24,73048,6,0,L|184:120,1,85,10|0,1:0|0:0,0:0:0:0:
364,96,73358,2,0,L|312:184,1,85,2|0,1:0|0:0,0:0:0:0:
236,352,73669,6,0,P|216:296|240:240,1,85,10|0,1:0|0:0,0:0:0:0:
432,240,73980,2,0,P|452:296|428:352,1,85,2|0,1:0|0:0,0:0:0:0:
296,48,74291,5,2,1:0:0:0:
348,344,74602,1,0,1:0:0:0:
322,196,74913,5,2,0:0:0:0:
322,196,75535,1,2,0:0:0:0:
322,196,76156,1,2,0:0:0:0:
322,196,76778,6,0,P|264:168|116:200,1,212.5,2|0,0:0|0:0,0:0:0:0:
256,192,77400,12,0,78954,0:0:0:0:
324,124,79265,6,0,L|332:176,3,42.5,2|0|2|0,1:0|1:0|1:0|1:0,1:0:0:0:
372,176,79576,2,0,L|380:228,3,42.5,2|2|2|2,1:0|1:2|1:0|1:2,1:0:0:0:
352,256,79887,6,0,P|296:232|168:252,1,170,6|8,1:0|1:0,0:0:0:0:
236,144,80353,2,0,B|268:224|204:224|252:340,1,170,2|0,1:0|1:0,0:0:0:0:
148,148,80820,2,0,P|100:128|44:148,1,85,10|0,1:0|0:0,0:0:0:0:
75,335,81131,6,0,P|159:311|247:311,1,170,2|8,0:3|1:0,0:0:0:0:
376,352,81597,1,0,1:0:0:0:
376,352,81675,1,2,0:0:0:0:
376,352,81752,2,2,P|348:304|360:212,1,127.5,2|0,1:0|0:0,0:3:0:0:
384,204,82063,2,0,L|460:212,3,42.5,8|0|2|2,1:0|0:1|0:1|0:0,0:0:0:0:
438,173,82374,6,0,P|436:116|394:66,1,85,0|0,1:2|0:0,0:0:0:0:
236,76,82685,2,0,L|220:192,1,85,8|0,1:0|0:0,0:0:0:0:
72,340,82996,2,0,P|68:296|100:244,1,85,2|0,1:0|0:0,0:0:0:0:
296,296,83307,2,0,P|300:340|268:392,1,85,8|0,1:0|0:0,0:0:0:0:
236,76,83618,5,2,1:0:0:0:
200,320,83928,1,8,1:0:0:0:
400,168,84239,1,2,1:2:0:0:
256,184,84395,1,2,0:0:0:0:
339,293,84550,1,2,0:2:0:0:
315,80,84706,1,2,1:0:0:0:
60,356,85172,5,2,0:0:0:0:
84,220,85483,1,2,0:0:0:0:
108,84,85794,1,2,0:0:0:0:
452,356,86105,5,2,1:2:0:0:
404,84,86415,1,2,1:2:0:0:
364,231,86571,1,0,1:0:0:0:
364,231,86649,1,0,1:0:0:0:
364,231,86726,2,0,P|300:243|260:227,1,85,2|0,0:2|0:0,0:0:0:0:
220,76,87037,2,0,P|244:132|252:184,1,85,2|0,1:0|0:0,0:0:0:0:
120,24,87348,5,2,1:0:0:0:
354,136,87504,1,2,1:0:0:0:
354,136,87970,6,2,B|362:140|362:140|350:144|350:144|362:148|362:148|350:152|350:152|362:156|362:156|350:160|350:160|362:164|362:164|350:168|350:168|362:172|362:172|350:176|350:176|362:180|362:180|350:184|350:184|362:188|362:188|350:192|350:192|362:196|362:196|350:200|350:200|362:204|362:204|350:208|350:208|362:212|362:212|350:220|350:220|366:252|366:252|350:268|350:268|366:316,1,340,2|0,0:0|0:0,0:3:0:0:
