osu file format v14

[General]
AudioFilename: audio.mp3
AudioLeadIn: 0
PreviewTime: 52452
Countdown: 0
SampleSet: Soft
StackLeniency: 0.7
Mode: 0
LetterboxInBreaks: 0
WidescreenStoryboard: 1

[Editor]
Bookmarks: 80820,87037
DistanceSpacing: 1.1
BeatDivisor: 4
GridSize: 4
TimelineZoom: 1

[Metadata]
Title:RE-ILLUSION (TV Size)
TitleUnicode:RE-ILLUSION (TVサイズ)
Artist:Iguchi Yuka
ArtistUnicode:井口裕香
Creator:Syph
Version:Nyukai's Hard
Source:ソード・オラトリア ダンジョンに出会いを求めるのは間違っているだろうか外伝
Tags:Dungeon ni Deai wo Motomeru no wa Machigatteiru Darou ka Gaiden Is it Wrong to Try to Pick Up Girls in a On the Side danmachi cheesecake kibbleru nyukai okorin okoratu kalibe left
BeatmapID:1309875
BeatmapSetID:604075

[Difficulty]
HPDrainRate:5
CircleSize:4
OverallDifficulty:6
ApproachRate:8
SliderMultiplier:1.6
SliderTickRate:1

[Events]
//Background and Video events
0,0,"thereisnogoodartofthischaracter.jpg",0,0
Video,-210,"oratoria_opening.avi"
//Break Periods
//Storyboard Layer 0 (Background)
//Storyboard Layer 1 (Fail)
//Storyboard Layer 2 (Pass)
//Storyboard Layer 3 (Foreground)
//Storyboard Sound Samples

[TimingPoints]
302,310.880829015544,4,2,7,50,1,0
302,-166.666666666667,4,2,7,50,0,0
2789,-100,4,2,7,65,0,0
5276,-100,4,2,7,75,0,0
15068,-200,4,2,7,55,0,0
17711,-100,4,2,7,65,0,0
27504,-100,4,2,7,5,0,0
27659,-100,4,2,7,65,0,0
32633,-100,4,2,7,65,0,0
33099,-100,4,2,7,65,0,0
33877,-100,4,2,7,65,0,0
34343,-100,4,2,7,65,0,0
35120,-142.857142857143,4,2,7,65,0,0
36364,-100,4,2,7,65,0,0
37141,-83.3333333333333,4,2,7,65,0,0
37296,-100,4,2,7,65,0,0
37607,-133.333333333333,4,2,7,60,0,0
40094,-133.333333333333,4,2,7,65,0,0
42581,-133.333333333333,4,2,7,60,0,0
45068,-133.333333333333,4,2,7,65,0,0
46934,-133.333333333333,4,2,7,65,0,0
47555,-133.333333333333,4,2,7,50,0,0
48099,-133.333333333333,4,2,7,5,0,0
48177,-133.333333333333,4,2,7,55,0,0
48721,-133.333333333333,4,2,7,5,0,0
48799,-133.333333333333,4,2,7,60,0,0
49343,-133.333333333333,4,2,7,5,0,0
49421,-133.333333333333,4,2,7,65,0,0
50042,-133.333333333333,4,2,7,5,0,0
50198,-133.333333333333,4,2,7,45,0,0
50664,-100,4,2,7,75,0,0
52529,-100,4,2,7,80,0,1
61234,-100,4,2,98,85,0,1
61467,-100,4,2,98,5,0,1
61545,-100,4,2,98,85,0,1
61778,-100,4,2,98,5,0,1
61856,-100,4,2,98,85,0,1
62089,-100,4,2,98,5,0,1
62167,-100,4,2,98,85,0,1
62478,-100,4,2,7,80,0,1
69939,-100,4,2,7,87,0,1
74602,-100,4,2,98,87,0,1
74913,-153.846153846154,4,2,7,30,0,0
77400,-200,4,2,7,30,0,0
77944,-200,4,2,7,5,0,0
78022,-200,4,2,8,55,0,0
78566,-200,4,2,8,5,0,0
78643,-200,4,2,7,55,0,0
79887,-100,4,2,7,75,0,0
84706,-133.333333333333,4,2,7,75,0,0
86105,-100,4,2,7,75,0,0

[Colours]
Combo1 : 218,218,218
Combo2 : 253,226,72
Combo3 : 64,150,255
Combo4 : 252,196,169

[HitObjects]
320,128,2789,6,0,B|292:144|256:176|256:176|220:144|192:128,1,160,14|8,0:0|0:0,0:0:0:0:
256,68,3255,1,0,0:0:0:0:
320,128,3410,2,0,B|304:164|304:164|328:200,1,80,2|8,1:2|0:0,0:0:0:0:
185,197,3721,2,0,B|208:164|208:164|192:128,1,80
112,164,4032,6,0,B|88:216|152:264|112:324,1,160,14|8,0:0|0:0,0:0:0:0:
288,348,4654,2,0,L|332:328,3,40,2|0|0|0,0:0|0:0|0:0|0:0,0:0:0:0:
312,288,4965,2,0,L|356:268,3,40,10|8|8|8,0:0|0:0|0:0|0:0,0:0:0:0:
332,232,5276,6,0,P|300:164|336:92,1,160,4|8,1:0|0:0,0:0:0:0:
256,52,5742,2,0,L|128:188,1,160,2|0,0:0|1:0,0:0:0:0:
76,224,6208,1,10,0:0:0:0:
248,192,6519,6,0,P|316:160|388:196,1,160,0|8,1:0|0:0,0:0:0:0:
316,244,6985,1,2,1:2:0:0:
248,192,7141,2,0,L|196:128,1,80,0|2,0:0|1:2,0:0:0:0:
132,192,7452,2,0,L|182:254,1,80,10|0,0:0|0:0,0:0:0:0:
256,304,7763,5,2,1:2:0:0:
316,244,7918,1,0,0:0:0:0:
256,180,8074,1,8,0:0:0:0:
256,180,8229,2,0,B|256:124|256:124|284:88|284:88|284:24,1,160,2|0,0:0|1:0,0:0:0:0:
368,52,8695,1,10,0:0:0:0:
448,88,8851,6,0,B|448:152|400:152|400:240,1,160,0|0,0:0|0:0,0:0:0:0:
360,316,9317,1,8,0:0:0:0:
360,316,9472,2,0,P|332:328|276:320,1,80,2|0,1:2|0:0,0:0:0:0:
216,268,9783,1,0,1:0:0:0:
144,216,9939,2,0,P|116:204|60:220,1,80,8|0,0:0|0:0,0:0:0:0:
48,300,10250,6,0,L|32:120,1,160,6|8,1:2|0:0,0:0:0:0:
32,52,10716,1,2,0:0:0:0:
184,144,11027,1,0,1:0:0:0:
144,216,11182,2,0,P|128:252|144:288,1,80,10|0,0:0|0:0,0:0:0:0:
212,344,11493,5,0,1:0:0:0:
300,344,11649,1,0,0:0:0:0:
368,287,11804,2,0,P|383:251|368:216,1,80,8|2,0:0|1:2,0:0:0:0:
320,140,12115,2,0,B|256:92|256:92|192:140,1,160,0|10,0:0|0:0,0:0:0:0:
256,200,12581,1,0,0:0:0:0:
192,260,12737,6,0,B|256:308|256:308|320:260,1,160,2|8,1:2|0:0,0:0:0:0:
376,192,13203,1,0,0:0:0:0:
376,192,13358,2,0,P|416:184|468:200,1,80,2|0,1:2|1:0,0:0:0:0:
488,272,13669,2,0,P|448:280|396:264,1,80,8|0,0:0|0:0,0:0:0:0:
319,259,13980,6,0,P|291:187|318:113,1,160,10|8,0:0|0:0,0:0:0:0:
344,28,14447,1,0,1:0:0:0:
256,40,14602,1,10,0:0:0:0:
168,28,14757,1,10,0:0:0:0:
256,192,15068,5,6,0:0:0:0:
256,192,15146,12,0,17400,0:0:0:0:
256,116,17711,6,0,P|296:128|336:116,1,80,6|0,1:2|0:0,0:0:0:0:
388,48,18022,2,0,L|356:220,1,160,10|2,0:0|0:0,0:0:0:0:
256,348,18643,1,8,0:0:0:0:
188,292,18799,2,0,B|168:256|168:256|168:216,2,80,2|0|2,0:0|1:0|0:0,0:0:0:0:
256,348,19265,1,8,0:0:0:0:
324,292,19421,2,0,B|344:256|344:256|344:216,2,80,2|0|0,0:0|1:0|1:0,0:0:0:0:
256,236,19887,1,10,0:0:0:0:
84,192,20198,6,0,B|112:144|112:144|156:128|156:128|192:72,1,160,2|8,1:2|0:0,0:0:0:0:
256,24,20664,1,0,0:0:0:0:
324,79,20820,2,0,B|356:128|356:128|400:144|400:144|428:192,1,160,2|8,1:2|0:0,0:0:0:0:
412,280,21286,1,0,0:0:0:0:
340,332,21441,2,0,B|308:356|276:356|276:356|176:356,1,160,2|8,1:2|0:0,0:0:0:0:
140,280,21908,1,0,0:0:0:0:
104,200,22063,2,0,P|60:136|104:72,1,160,2|10,1:2|0:0,0:0:0:0:
180,36,22529,1,0,0:0:0:0:
256,80,22685,6,0,L|344:80,1,80,2|0,1:2|0:0,0:0:0:0:
404,24,22996,2,0,P|373:95|405:166,2,160,10|2|8,0:0|1:2|0:0,0:0:0:0:
452,96,23773,2,0,L|288:112,1,160,2|2,0:0|0:0,0:0:0:0:
220,164,24239,1,8,0:0:0:0:
168,236,24395,2,0,P|158:274|170:312,1,80,2|0,0:0|1:0,0:0:0:0:
256,336,24706,1,0,1:0:0:0:
341,312,24861,2,0,P|353:274|344:236,1,80,10|0,0:0|0:0,0:0:0:0:
272,184,25172,6,0,P|342:152|414:182,1,160,2|8,1:2|0:0,0:0:0:0:
472,248,25638,2,0,P|440:177|470:105,1,160,2|14,0:0|0:0,0:0:0:0:
470,105,26105,1,0,0:0:0:0:
327,207,26415,2,0,P|256:238|184:208,2,160,10|10|0,0:0|0:0|1:0,0:0:0:0:
256,152,27193,2,0,L|256:328,1,160,14|0,0:0|0:0,0:0:0:0:
344,332,27659,6,0,B|428:332|428:332|484:264,2,160,4|10|2,1:0|0:0|1:2,0:0:0:0:
168,332,28592,1,10,0:0:0:0:
168,332,28747,2,0,B|84:332|84:332|28:264,1,160,0|2,0:0|0:0,0:0:0:0:
72,192,29213,1,8,0:0:0:0:
35,110,29369,2,0,B|84:52|84:52|168:52,1,160,2|0,0:0|1:0,0:0:0:0:
168,52,29835,1,10,0:0:0:0:
272,192,30146,6,0,B|332:192|332:192|376:216|376:216|436:216,1,160,2|8,1:2|0:0,0:0:0:0:
480,148,30612,1,0,0:0:0:0:
425,216,30768,2,0,P|394:287|426:358,2,160,2|8|2,1:2|0:0|1:2,0:0:0:0:
440,40,31700,2,0,B|392:40|392:40|368:64,1,80,8|0,0:0|0:0,0:0:0:0:
328,140,32011,2,0,P|256:170|185:138,1,160,2|10,1:2|0:0,0:0:0:0:
142,62,32478,1,4,0:3:0:0:
56,76,32633,6,0,L|152:220,1,160,6|8,1:2|0:0,0:0:0:0:
212,264,33099,2,0,B|136:264|136:264|112:288|52:288,1,160,2|0,1:2|1:0,0:0:0:0:
57,287,33566,1,10,0:0:0:0:
100,116,33877,2,0,B|176:116|176:116|200:140|260:140,1,160,6|8,1:2|0:0,0:0:0:0:
312,72,34343,2,0,L|272:236,1,160,2|0,1:2|1:0,0:0:0:0:
256,312,34809,1,8,0:0:0:0:
432,196,35120,6,0,B|400:128|484:104|436:24,2,167.999994873047,2|0|0,1:2|1:0|1:0,0:0:0:0:
320,336,36364,6,0,P|282:348|243:339,1,80,10|0,0:0|1:0,0:0:0:0:
112,270,36675,2,0,P|149:258|188:268,1,80,10|0,0:0|1:0,0:0:0:0:
276,260,36985,2,0,L|316:96,1,160,10|10,0:0|0:0,0:0:0:0:
368,36,37452,1,0,0:0:0:0:
256,36,37607,6,0,B|224:56|224:56|132:56,1,120.000004577637,4|0,1:0|0:0,0:0:0:0:
80,124,38074,1,0,1:0:0:0:
144,188,38229,2,0,L|200:236,1,60.0000022888184,10|0,0:0|0:0,0:0:0:0:
256,292,38540,1,2,0:0:0:0:
256,292,38851,2,0,P|336:292|372:256,1,120.000004577637,2|0,1:2|0:0,0:0:0:0:
412,192,39317,1,0,0:0:0:0:
328,148,39472,2,0,L|272:116,1,60.0000022888184,10|0,0:0|0:0,0:0:0:0:
200,80,39783,1,2,0:0:0:0:
60,192,40094,6,0,P|60:236|136:192,1,180.000006866455,6|2,1:2|1:2,0:0:0:0:
137,195,41027,2,0,P|178:132|214:198,1,180.000006866455,10|8,0:0|0:0,0:0:0:0:
256,280,41649,1,2,0:0:0:0:
412,192,41960,1,10,0:0:0:0:
256,104,42270,1,0,0:0:0:0:
100,192,42581,6,0,B|176:192|176:248|272:248,1,180.000006866455,6|0,1:2|1:0,0:0:0:0:
340,192,43203,1,10,0:0:0:0:
340,192,43514,2,0,L|340:108,1,60.0000022888184,0|0,0:0|0:0,0:0:0:0:
340,40,43825,2,0,P|296:64|212:64,1,120.000004577637,2|0,1:2|0:0,0:0:0:0:
140,48,44291,1,0,1:0:0:0:
140,48,44447,2,0,L|232:152,1,120.000004577637,10|0,0:0|0:0,0:0:0:0:
292,192,44913,1,8,0:0:0:0:
304,280,45068,6,0,B|272:296|256:356|256:356|240:296|212:282,2,180.000006866455,6|2|2,1:2|1:2|1:2,0:0:0:0:
304,280,46467,2,0,L|336:224,1,60.0000022888184,0|8,1:0|0:0,0:0:0:0:
256,184,46778,1,0,0:0:0:0:
178,227,46934,2,0,L|208:280,2,60.0000022888184,2|0|2,1:2|0:0|0:0,0:0:0:0:
100,184,47400,1,0,0:0:0:0:
100,184,47478,1,0,0:0:0:0:
100,184,47555,6,0,B|100:136|100:136|100:92|132:64,1,120.000004577637,4|0,1:2|0:0,0:0:0:0:
212,44,48022,2,0,L|284:44,1,60.0000022888184,0|4,0:0|1:2,0:0:0:0:
376,192,48488,2,0,L|304:192,1,60.0000022888184
244,138,48799,2,0,P|223:192|247:246,1,120.000004577637,4|0,1:2|0:0,0:0:0:0:
320,296,49265,1,0,0:0:0:0:
320,296,49421,2,0,L|176:312,1,120.000004577637,4|0,1:2|0:0,0:0:0:0:
256,192,50042,12,0,52219,0:0:0:0:
400,292,52529,5,0,0:0:0:0:
400,292,52840,2,0,L|320:332,1,80,10|0,0:0|0:0,0:0:0:0:
256,276,53151,2,0,L|256:184,2,80,0|2|10,1:0|1:2|0:0,0:0:0:0:
183,327,53618,1,0,0:0:0:0:
183,327,53773,2,0,P|136:328|144:224,1,160,2|8,1:2|0:0,0:0:0:0:
123,148,54239,2,0,P|112:75|183:56,1,160,2|0,1:2|1:0,0:0:0:0:
256,108,54706,2,0,B|344:108|344:108|404:52,1,160,10|8,0:0|1:0,0:0:0:0:
396,58,55327,6,0,L|468:112,1,80,10|0,0:0|0:0,0:0:0:0:
460,216,55638,2,0,L|396:168,1,80,0|2,1:0|1:2,0:0:0:0:
392,272,55949,2,0,L|464:326,2,80,10|0|2,0:0|0:0|1:2,0:0:0:0:
304,112,56571,1,8,0:0:0:0:
304,112,56726,2,0,P|256:165|208:112,1,160,2|0,1:2|1:0,0:0:0:0:
192,24,57193,2,0,L|152:192,1,160,10|8,0:0|1:0,0:0:0:0:
256,324,57814,6,0,L|336:324,1,80,10|0,0:0|0:0,0:0:0:0:
424,324,58125,2,0,P|464:288|464:180,1,160,2|10,1:2|0:0,0:0:0:0:
336,68,58747,2,0,P|268:68|200:140,1,160,8|10,1:0|0:0,0:0:0:0:
140,192,59213,1,0,0:0:0:0:
203,255,59369,2,0,P|257:312|336:316,1,160,2|8,1:2|0:0,0:0:0:0:
460,192,59991,6,0,P|452:152|460:112,2,80,2|0|10,1:2|0:0|0:0,0:0:0:0:
482,281,60457,2,0,P|434:313|326:313,1,160,2|0,0:0|1:0,0:0:0:0:
256,276,60923,2,0,L|256:184,1,80,10|0,0:0|0:0,0:0:0:0:
256,108,61234,2,0,B|312:76|312:76|344:76|344:76|400:108,2,160,10|10|10,0:0|0:0|0:0,0:0:0:0:
100,192,62167,1,10,0:0:0:0:
256,276,62478,6,0,B|312:308|312:308|344:308|344:308|400:276,1,160,4|10,1:0|0:0,0:0:0:0:
328,224,62944,1,0,0:0:0:0:
256,176,63099,2,0,L|176:132,1,80,0|2,1:0|1:2,0:0:0:0:
116,192,63410,2,0,L|186:230,1,80,10|0,0:0|0:0,0:0:0:0:
256,288,63721,1,2,1:2:0:0:
404,192,64032,1,8,0:0:0:0:
404,192,64188,2,0,P|404:144|332:56,1,160,2|0,1:2|1:0,0:0:0:0:
256,88,64654,2,0,B|196:120|196:120|104:120,1,160,10|8,0:0|1:0,0:0:0:0:
104,120,65276,6,0,P|96:159|104:198,1,80,10|0,0:0|0:0,0:0:0:0:
192,216,65586,2,0,P|199:254|192:294,1,80,0|2,1:0|1:2,0:0:0:0:
256,356,65897,2,0,L|348:356,1,80,10|0,0:0|0:0,0:0:0:0:
392,288,66208,2,0,B|360:232|360:232|360:128,1,160,2|8,1:2|0:0,0:0:0:0:
396,56,66675,2,0,P|348:109|300:56,1,160,2|0,1:2|1:0,0:0:0:0:
212,56,67141,2,0,P|163:108|116:56,2,160,10|4|8,0:0|1:2|0:0,0:0:0:0:
388,36,68074,6,0,P|432:36|464:60,1,80,2|0,1:2|1:0,0:0:0:0:
476,144,68384,2,0,L|432:216,1,80,10|0,0:0|0:0,0:0:0:0:
376,276,68695,2,0,B|336:240|336:240|336:192|336:192|288:132,1,160,2|8,1:2|0:0,0:0:0:0:
212,146,69162,2,0,B|176:192|176:192|176:240|176:240|136:276,1,160,2|0,0:0|1:0,0:0:0:0:
136,275,69628,1,8,0:0:0:0:
300,336,69939,6,0,P|372:336|432:252,1,160,14|10,0:0|0:0,0:0:0:0:
376,104,70561,2,0,L|304:56,1,80,10|0,0:0|0:0,0:0:0:0:
224,40,70871,2,0,B|152:40|152:40|120:64|120:64|64:64,1,160,10|10,0:0|0:0,0:0:0:0:
20,232,71493,2,0,L|88:284,1,80,10|0,0:0|1:0,0:0:0:0:
152,336,71804,2,0,P|192:304|192:196,1,160,10|8,0:0|0:0,0:0:0:0:
132,140,72270,1,4,0:3:0:0:
132,140,72426,6,0,L|304:184,1,160,6|10,1:2|0:0,0:0:0:0:
412,304,73048,2,0,L|240:260,1,160,2|2,1:2|1:2,0:0:0:0:
96,192,73669,1,2,1:2:0:0:
256,119,73980,2,0,L|412:80,2,160,2|10|10,1:2|0:0|0:0,0:0:0:0:
96,192,74913,6,0,P|77:239|97:286,1,103.999995239258,0|0,0:0|0:0,0:0:0:0:
232,340,75535,2,0,P|250:292|230:245,1,103.999995239258,2|0,0:0|0:0,0:0:0:0:
160,116,76156,2,0,B|256:72|256:72|352:116,1,207.999990478516,2|2,0:0|0:0,0:0:0:0:
349,114,77400,6,0,B|381:162|429:146|429:146|445:210|445:210|429:274|429:274|381:258|349:306,1,320,2|2,0:0|0:0,0:0:0:0:
348,306,79265,2,0,L|312:300,3,20,2|4|4|0,1:2|0:3|0:3|0:0,0:0:0:0:
304,316,79576,2,0,L|268:310,3,20,2|8|8|8,0:0|0:3|0:0|0:0,0:0:0:0:
256,332,79887,6,0,P|168:332|140:272,1,160,4|8,1:0|0:0,0:0:0:0:
192,204,80353,2,0,B|240:160|240:160|272:160|272:160|320:204,1,160,2|0,0:0|1:0,0:0:0:0:
372,276,80820,2,0,P|407:207|375:136,2,160,10|0|8,0:0|1:0|0:0,0:0:0:0:
256,144,81752,1,0,0:0:0:0:
140,276,82063,1,10,0:0:0:0:
140,276,82374,6,0,P|104:207|136:136,1,160,2|8,1:2|0:0,0:0:0:0:
204,80,82840,1,0,0:0:0:0:
280,40,82996,2,0,P|352:40|424:96,1,160,2|8,1:2|0:0,0:0:0:0:
444,176,83462,2,0,L|400:248,1,80,0|10,0:0|0:0,0:0:0:0:
256,340,83928,1,8,0:0:0:0:
109,244,84239,2,0,B|88:208|88:208|88:168,1,80,10|0,0:0|0:0,0:0:0:0:
160,120,84550,1,2,1:2:0:0:
160,120,84706,6,0,B|208:104|160:56|160:56|208:24|208:24|256:72|256:72|304:24|304:24|352:56|352:56|304:104|352:120,1,420.000016021729,4|0,1:0|0:0,0:0:0:0:
352,120,86105,6,0,P|384:168|384:276,1,160,2|2,1:2|1:2,0:0:0:0:
320,324,86571,2,0,L|352:360,2,40,0|8|10,0:0|0:0|0:0,0:0:0:0:
256,264,86882,1,8,0:3:0:0:
192,324,87037,1,4,0:3:0:0:
256,160,87348,5,8,0:0:0:0:
256,72,87504,1,8,0:0:0:0:
