osu file format v14

[General]
AudioFilename: audio.mp3
AudioLeadIn: 0
PreviewTime: 52452
Countdown: 0
SampleSet: Soft
StackLeniency: 0.6
Mode: 0
LetterboxInBreaks: 0
WidescreenStoryboard: 1

[Editor]
Bookmarks: 80820
DistanceSpacing: 0.53
BeatDivisor: 4
GridSize: 4
TimelineZoom: 1

[Metadata]
Title:RE-ILLUSION (TV Size)
TitleUnicode:RE-ILLUSION (TVサイズ)
Artist:Iguchi Yuka
ArtistUnicode:井口裕香
Creator:Syph
Version:Left's Insane
Source:ソード・オラトリア ダンジョンに出会いを求めるのは間違っているだろうか外伝
Tags:Dungeon ni Deai wo Motomeru no wa Machigatteiru Darou ka Gaiden Is it Wrong to Try to Pick Up Girls in a On the Side danmachi cheesecake kibbleru nyukai okorin okoratu kalibe left
BeatmapID:1277250
BeatmapSetID:604075

[Difficulty]
HPDrainRate:6
CircleSize:3.8
OverallDifficulty:7.8
ApproachRate:9
SliderMultiplier:1.6
SliderTickRate:1

[Events]
//Background and Video events
0,0,"thereisnogoodartofthischaracter.jpg",0,0
Video,-210,"oratoria_opening.avi"
//Break Periods
//Storyboard Layer 0 (Background)
//Storyboard Layer 1 (Fail)
//Storyboard Layer 2 (Pass)
//Storyboard Layer 3 (Foreground)
//Storyboard Sound Samples

[TimingPoints]
302,310.880829015544,4,2,7,50,1,0
302,-166.666666666667,4,2,7,50,0,0
2789,-90.9090909090909,4,2,7,65,0,0
4032,-90.9090909090909,4,2,7,65,0,0
5276,-90.9090909090909,4,2,7,75,0,0
15068,-200,4,2,7,55,0,0
17711,-100,4,2,7,65,0,0
27193,-200,4,2,7,65,0,0
27504,-200,4,2,7,5,0,0
27659,-100,4,2,7,65,0,0
32633,-100,4,2,7,65,0,0
33099,-100,4,2,7,65,0,0
33877,-100,4,2,7,65,0,0
34343,-100,4,2,7,65,0,0
35120,-200,4,2,7,65,0,0
36364,-100,4,2,7,65,0,0
37141,-83.3333333333333,4,2,7,65,0,0
37296,-100,4,2,7,65,0,0
37607,-133.333333333333,4,2,7,60,0,0
40094,-133.333333333333,4,2,7,65,0,0
42581,-133.333333333333,4,2,7,60,0,0
45068,-133.333333333333,4,2,7,65,0,0
46934,-133.333333333333,4,2,7,65,0,0
47555,-133.333333333333,4,2,7,50,0,0
48099,-133.333333333333,4,2,7,5,0,0
48177,-133.333333333333,4,2,7,55,0,0
48721,-133.333333333333,4,2,7,5,0,0
48799,-133.333333333333,4,2,7,60,0,0
49343,-133.333333333333,4,2,7,5,0,0
49421,-133.333333333333,4,2,7,65,0,0
50042,-133.333333333333,4,2,7,5,0,0
50198,-133.333333333333,4,2,7,45,0,0
50664,-100,4,2,7,75,0,0
52219,-66.6666666666667,4,2,7,75,0,0
52529,-86.9565217391304,4,2,7,80,0,1
61234,-74.0740740740741,4,2,98,85,0,1
61467,-74.0740740740741,4,2,98,5,0,1
61545,-74.0740740740741,4,2,98,85,0,1
61778,-74.0740740740741,4,2,98,5,0,1
61856,-74.0740740740741,4,2,98,85,0,1
62089,-74.0740740740741,4,2,98,5,0,1
62167,-74.0740740740741,4,2,98,85,0,1
62478,-86.9565217391304,4,2,7,80,0,1
69939,-74.0740740740741,4,2,7,87,0,1
74602,-74.0740740740741,4,2,98,87,0,1
74913,-153.846153846154,4,2,7,30,0,0
77400,-200,4,2,7,30,0,0
77944,-200,4,2,7,5,0,0
78022,-100,4,2,8,55,0,0
78566,-100,4,2,8,5,0,0
78643,-100,4,2,7,55,0,0
79887,-90.9090909090909,4,2,7,75,0,0
84706,-133.333333333333,4,2,7,75,0,0
86105,-90.9090909090909,4,2,7,75,0,0

[Colours]
Combo1 : 218,218,218
Combo2 : 253,226,72
Combo3 : 64,150,255
Combo4 : 252,196,169

[HitObjects]
350,31,302,5,2,0:0:0:0:
350,31,768,1,2,0:0:0:0:
432,81,923,2,0,L|419:187,1,95.9999970703126,0|0,1:0|0:0,0:0:0:0:
420,176,1390,1,0,0:0:0:0:
279,205,1545,1,2,0:0:0:0:
279,205,2011,1,2,0:0:0:0:
361,255,2167,2,0,L|348:361,1,95.9999970703126,0|0,1:0|0:0,0:0:0:0:
139,298,2633,5,0,0:0:0:0:
144,319,2711,1,0,0:0:0:0:
154,337,2789,2,0,P|182:333|251:308,1,88.000002685547,14|0,0:0|0:0,0:0:0:0:
361,255,3099,2,0,P|333:251|264:226,1,88.000002685547,8|0,0:0|0:0,0:0:0:0:
206,179,3410,1,2,1:2:0:0:
378,79,3566,2,0,L|358:276,1,176.000005371094,8|0,0:0|0:0,0:0:0:0:
154,330,4032,6,0,P|230:312|267:326,1,88.000002685547,14|0,0:0|1:0,0:0:0:0:
101,242,4343,1,8,0:0:0:0:
237,313,4498,1,4,0:3:0:0:
101,242,4654,5,2,0:0:0:0:
102,222,4731,1,0,0:0:0:0:
105,204,4809,1,0,0:0:0:0:
107,186,4887,1,0,0:0:0:0:
131,161,4965,5,10,0:0:0:0:
128,132,5042,1,8,0:0:0:0:
125,104,5120,1,8,0:0:0:0:
121,77,5198,1,8,0:0:0:0:
93,50,5276,6,0,P|179:102|254:55,1,176.000005371094,4|8,1:0|0:0,0:0:0:0:
337,199,5742,2,0,P|292:180|250:186,1,88.000002685547,2|0,0:0|1:0,0:0:0:0:
179,222,6053,1,0,1:0:0:0:
314,343,6208,2,0,P|307:294|281:261,1,88.000002685547,10|0,0:0|0:0,0:0:0:0:
122,305,6519,6,0,B|112:326|93:339|93:339|243:328,1,176.000005371094,0|8,1:0|0:0,0:0:0:0:
389,212,6985,1,2,1:2:0:0:
385,233,7062,1,0,0:0:0:0:
381,255,7140,1,0,0:0:0:0:
359,344,7296,1,2,1:2:0:0:
307,169,7452,1,10,0:0:0:0:
472,246,7607,1,0,0:0:0:0:
404,40,7763,6,0,P|380:105|385:150,1,88.000002685547,2|0,1:2|0:0,0:0:0:0:
468,109,8074,1,8,0:0:0:0:
305,57,8229,2,0,B|271:42|242:49|242:49|205:78|205:78|169:88|121:55,1,176.000005371094,2|0,0:0|1:0,0:0:0:0:
195,167,8695,2,0,P|238:158|283:126,1,88.000002685547,10|0,0:0|0:0,0:0:0:0:
101,303,9006,6,0,B|83:179|83:179|98:197|143:225,1,176.000005371094,2|8,1:2|0:0,0:0:0:0:
195,255,9472,2,0,P|236:268|291:263,1,88.000002685547,2|0,1:2|0:0,0:0:0:0:
244,183,9783,1,0,1:0:0:0:
358,327,9939,2,0,P|321:350|278:359,1,88.000002685547,8|0,0:0|0:0,0:0:0:0:
263,357,10173,1,0,0:0:0:0:
248,355,10250,6,0,B|240:291|240:291|254:251|254:251|242:170,1,176.000005371094,6|8,1:2|0:0,0:0:0:0:
394,54,10716,2,0,L|381:166,1,88.000002685547,2|0,0:0|1:0,0:0:0:0:
307,85,11027,1,0,1:0:0:0:
446,203,11182,2,0,P|408:224|365:223,1,88.000002685547,10|0,0:0|0:0,0:0:0:0:
226,104,11493,6,0,P|269:81|329:97,1,88.000002685547,0|0,1:0|0:0,0:0:0:0:
163,174,11804,1,8,0:0:0:0:
306,84,11960,2,0,B|276:115|225:104|225:104|183:67|107:88,1,176.000005371094,2|0,1:2|1:0,0:0:0:0:
85,223,12426,1,10,0:0:0:0:
91,244,12504,1,0,0:0:0:0:
95,265,12581,1,0,0:0:0:0:
99,287,12659,1,0,0:0:0:0:
102,310,12737,6,0,L|224:294,1,88.000002685547,2|0,1:2|0:0,0:0:0:0:
370,292,13048,2,0,P|359:362|331:397,1,88.000002685547,8|0,0:0|0:0,0:0:0:0:
350,375,13281,1,8,0:0:0:0:
350,375,13358,1,2,1:2:0:0:
189,298,13514,1,0,1:0:0:0:
256,232,13669,2,0,P|281:298|274:342,1,88.000002685547,8|0,0:0|0:0,0:0:0:0:
123,361,13980,5,10,0:0:0:0:
102,274,14136,1,0,1:0:0:0:
145,126,14291,5,8,0:0:0:0:
169,213,14447,1,0,1:0:0:0:
114,351,14602,5,10,0:0:0:0:
156,137,14757,1,10,0:0:0:0:
114,351,15068,6,0,P|146:152|82:344,1,600,6|8,0:0|0:0,0:0:0:0:
78,342,17711,6,0,P|82:301|99:240,1,80,6|0,1:2|0:0,0:0:0:0:
156,193,18022,2,0,P|149:151|128:88,1,80,10|0,0:0|0:0,0:0:0:0:
138,115,18255,1,0,0:0:0:0:
138,115,18333,2,0,B|202:122|202:122|239:104|239:104|321:110,1,160,2|8,0:0|0:0,0:0:0:0:
366,213,18799,6,0,P|405:206|442:191,1,80,2|0,0:0|1:0,0:0:0:0:
383,124,19110,1,2,0:0:0:0:
379,303,19265,2,0,P|339:296|302:281,1,80,8|2,0:0|0:0,0:0:0:0:
302,281,19498,1,0,0:0:0:0:
302,281,19576,5,0,1:0:0:0:
217,298,19732,1,0,1:0:0:0:
132,313,19887,1,10,0:0:0:0:
69,61,20198,6,0,B|96:50|110:36|110:36|93:156,1,160,2|8,1:2|0:0,0:0:0:0:
164,215,20664,1,0,0:0:0:0:
164,215,20742,1,0,0:0:0:0:
164,215,20820,2,0,P|231:233|292:143,1,160,2|8,1:2|0:0,0:0:0:0:
241,96,21286,1,0,0:0:0:0:
390,167,21441,6,0,P|370:217|373:255,1,80,2|0,1:2|0:0,0:0:0:0:
307,345,21752,2,0,P|304:305|287:269,1,80,8|0,0:0|0:0,0:0:0:0:
287,269,21985,1,0,0:0:0:0:
287,269,22063,2,0,L|174:280,1,80,2|0,1:2|1:0,0:0:0:0:
390,167,22374,2,0,L|310:159,1,80,10|0,0:0|0:0,0:0:0:0:
155,142,22607,1,0,0:0:0:0:
143,128,22685,6,0,P|129:80|124:39,1,80,2|0,1:2|0:0,0:0:0:0:
225,199,22996,2,0,P|211:247|206:288,1,80,10|0,0:0|0:0,0:0:0:0:
206,276,23229,1,0,0:0:0:0:
206,276,23307,2,0,B|149:268|149:268|108:286|108:286|37:277,1,160,2|8,1:2|0:0,0:0:0:0:
286,322,23773,6,0,P|300:275|279:226,1,80,2|0,0:0|1:0,0:0:0:0:
206,276,24084,1,2,0:0:0:0:
244,114,24239,2,0,L|354:130,1,80,8|2,0:0|0:0,0:0:0:0:
323,125,24472,1,0,0:0:0:0:
323,125,24550,1,0,1:0:0:0:
293,39,24706,1,0,1:0:0:0:
209,34,24861,1,10,0:0:0:0:
157,104,25017,1,0,0:0:0:0:
230,252,25172,6,0,B|195:238|169:241|169:241|138:260|138:260|105:268|75:251,1,160,2|8,1:2|0:0,0:0:0:0:
216,339,25638,2,0,P|270:331|305:308,1,80,2|0,0:0|1:0,0:0:0:0:
432,168,25949,2,0,P|357:153|278:103,1,160,14|0,0:0|0:0,0:0:0:0:
286,110,26415,6,0,L|303:204,1,80,10|0,0:0|0:0,0:0:0:0:
137,314,26726,2,0,L|120:220,1,80,10|0,0:0|0:0,0:0:0:0:
205,176,27037,5,0,1:0:0:0:
205,176,27193,2,0,L|221:269,1,80,14|0,0:0|0:0,0:0:0:0:
72,122,27659,6,0,P|136:102|166:89,1,80,4|0,1:0|0:0,0:0:0:0:
294,229,27970,2,0,P|230:249|200:262,1,80,10|0,0:0|0:0,0:0:0:0:
360,295,28281,2,0,P|328:223|312:117,1,160,2|10,1:2|0:0,0:0:0:0:
424,80,28747,5,0,0:0:0:0:
405,173,28903,1,0,1:0:0:0:
312,143,29058,2,0,P|249:157|215:174,1,80,2|8,0:0|0:0,0:0:0:0:
98,296,29369,1,2,0:0:0:0:
189,334,29524,1,0,1:0:0:0:
189,334,29680,1,0,1:0:0:0:
163,222,29835,1,10,0:0:0:0:
251,259,29991,1,0,0:0:0:0:
98,296,30146,6,0,L|75:134,1,160,2|8,1:2|0:0,0:0:0:0:
233,72,30612,1,0,0:0:0:0:
176,261,30768,2,0,L|153:99,1,160,2|8,1:2|0:0,0:0:0:0:
313,37,31234,1,0,0:0:0:0:
255,230,31390,2,0,L|232:68,1,160,2|8,1:2|0:0,0:0:0:0:
232,71,32011,6,0,P|286:83|320:85,1,80,2|0,1:2|1:0,0:0:0:0:
412,38,32322,1,10,0:0:0:0:
406,63,32400,1,8,0:3:0:0:
405,90,32477,1,4,0:3:0:0:
453,180,32633,6,0,B|403:187|403:187|352:171|352:171|297:180,1,160,6|8,1:2|0:0,0:0:0:0:
261,315,33099,2,0,P|348:262|413:310,1,160,2|0,1:2|1:0,0:0:0:0:
268,335,33566,2,0,P|215:336|174:297,1,80,10|0,0:0|0:0,0:0:0:0:
89,184,33877,6,0,B|72:66|72:66|89:85|120:103,1,160,6|8,1:2|0:0,0:0:0:0:
177,159,34343,2,0,P|254:170|308:112,1,160,2|0,1:2|1:0,0:0:0:0:
319,24,34809,1,8,0:0:0:0:
185,256,35120,6,0,P|192:305|207:350,1,80,2|0,1:2|0:0,0:0:0:0:
200,334,35586,1,0,1:0:0:0:
327,256,35742,2,0,P|320:305|305:350,1,80,10|0,0:0|1:0,0:0:0:0:
312,334,36208,1,0,0:0:0:0:
170,177,36364,6,0,P|174:216|184:255,1,80,10|0,0:0|1:0,0:0:0:0:
341,177,36675,2,0,P|336:216|326:255,1,80,10|0,0:0|1:0,0:0:0:0:
155,98,36985,6,0,P|159:137|169:176,1,80,10|0,0:0|1:0,0:0:0:0:
355,98,37296,2,0,P|350:137|340:176,1,80,10|0,0:0|0:0,0:0:0:0:
222,299,37607,6,0,P|169:262|105:282,1,120.000004577637,4|0,1:0|0:0,0:0:0:0:
117,272,38074,1,0,1:0:0:0:
91,170,38229,1,10,0:0:0:0:
91,170,38540,2,0,L|169:159,1,60.0000022888184,2|0,0:0|0:0,0:0:0:0:
201,88,38851,1,2,1:2:0:0:
201,88,39006,2,0,P|259:123|322:95,1,120.000004577637,0|0,1:0|0:0,0:0:0:0:
368,46,39472,2,0,P|425:34|473:68,1,120.000004577637,10|0,0:0|0:0,0:0:0:0:
405,125,39939,1,8,0:0:0:0:
443,296,40094,5,6,1:2:0:0:
443,296,40561,1,2,1:2:0:0:
267,283,40716,1,8,0:0:0:0:
443,296,41027,2,0,B|379:299|379:299|330:278|330:278|252:285,1,180.000006866455,10|8,0:0|0:0,0:0:0:0:
186,320,41649,2,0,P|184:357|200:390,1,60.0000022888184,2|0,0:0|1:0,0:0:0:0:
223,193,41960,2,0,P|156:227|94:207,1,120.000004577637,10|0,0:0|0:0,0:0:0:0:
114,219,42581,6,0,P|196:205|244:288,1,180.000006866455,6|0,1:2|1:0,0:0:0:0:
255,363,43203,2,0,L|377:345,1,120.000004577637,10|0,0:0|0:0,0:0:0:0:
373,345,43669,1,0,0:0:0:0:
374,207,43825,1,2,1:2:0:0:
374,207,43980,2,0,L|248:190,1,120.000004577637,0|0,1:0|1:0,0:0:0:0:
185,131,44447,2,0,P|174:85|218:29,1,120.000004577637,10|0,0:0|0:0,0:0:0:0:
269,106,44913,1,8,0:0:0:0:
71,50,45068,5,6,1:2:0:0:
71,50,45535,1,2,1:2:0:0:
58,225,45690,1,8,0:0:0:0:
71,50,46001,2,0,B|74:114|74:114|53:163|53:163|60:241,1,180.000006866455,2|0,1:2|1:0,0:0:0:0:
131,330,46623,1,8,0:0:0:0:
213,314,46778,1,0,0:0:0:0:
295,298,46934,2,0,L|282:214,1,60.0000022888184,2|0,1:2|0:0,0:0:0:0:
213,314,47245,2,0,L|200:230,1,60.0000022888184,2|0,0:0|0:0,0:0:0:0:
131,330,47555,6,0,L|97:106,1,210.000008010865,4|0,1:2|0:0,0:0:0:0:
111,103,48177,2,0,P|170:71|280:168,1,210.000008010865,4|0,1:2|0:0,0:0:0:0:
271,161,48799,2,0,P|354:195|440:112,1,210.000008010865,4|0,1:2|0:0,0:0:0:0:
446,106,49421,2,0,B|476:84|486:60|486:60|464:261,1,240.000009155274,4|0,1:2|0:0,0:0:0:0:
396,302,50198,5,0,0:0:0:0:
388,283,50276,1,0,0:0:0:0:
378,265,50353,2,0,L|326:281,3,30.0000011444092
369,247,50664,6,0,P|281:274|183:159,1,240,4|0,1:0|1:0,0:0:0:0:
402,145,51286,2,0,P|329:56|217:77,1,240,4|0,1:0|0:0,0:0:0:0:
43,135,51908,5,8,0:0:0:0:
71,125,51985,1,4,0:3:0:0:
100,126,52063,1,0,1:0:0:0:
128,138,52141,1,4,0:3:0:0:
152,155,52219,1,8,0:3:0:0:
177,172,52296,1,8,0:3:0:0:
205,181,52374,1,8,0:0:0:0:
235,180,52452,1,8,0:0:0:0:
263,170,52529,6,0,L|250:277,1,92.0000017547608,12|0,1:0|0:0,0:0:0:0:
184,333,52840,1,10,0:0:0:0:
152,144,52996,1,0,0:0:0:0:
251,261,53151,1,0,1:0:0:0:
101,285,53307,1,2,1:2:0:0:
251,261,53462,2,0,P|306:275|353:301,1,92.0000017547608,10|0,0:0|0:0,0:0:0:0:
385,142,53773,6,0,B|417:125|426:105|426:105|404:273,1,184.000003509522,2|8,1:2|0:0,0:0:0:0:
337,290,54239,2,0,P|282:276|235:250,1,92.0000017547608,2|0,1:2|0:0,0:0:0:0:
322,204,54550,1,0,1:0:0:0:
181,321,54706,2,0,P|165:266|164:212,1,92.0000017547608,10|0,0:0|0:0,0:0:0:0:
304,114,55017,6,0,P|319:168|320:222,1,92.0000017547608,8|0,1:0|0:0,0:0:0:0:
230,175,55327,1,10,0:0:0:0:
396,145,55483,1,0,0:0:0:0:
343,294,55638,1,0,1:0:0:0:
321,203,55794,1,2,1:2:0:0:
304,114,55949,2,0,L|317:16,1,92.0000017547608,10|0,0:0|0:0,0:0:0:0:
255,271,56260,6,0,B|214:279|190:278|190:278|142:253|142:253|103:251|65:264,1,184.000003509522,2|8,1:2|0:0,0:0:0:0:
293,350,56726,2,0,P|348:272|295:194,1,184.000003509522,2|0,1:2|1:0,0:0:0:0:
108,48,57193,1,10,0:0:0:0:
158,124,57348,1,0,0:0:0:0:
236,81,57504,6,0,P|281:73|340:72,1,92.0000017547608,8|0,1:0|0:0,0:0:0:0:
131,207,57814,2,0,P|85:205|39:197,1,92.0000017547608,10|0,0:0|0:0,0:0:0:0:
277,365,58125,2,0,L|257:272,1,92.0000017547608,2|0,1:2|0:0,0:0:0:0:
141,363,58436,1,10,0:0:0:0:
162,270,58592,1,0,0:0:0:0:
73,246,58747,6,0,B|51:275|34:284|34:284|172:270,1,184.000003509522,8|10,1:0|0:0,0:0:0:0:
329,307,59213,1,0,0:0:0:0:
261,172,59369,2,0,B|265:239|265:239|244:282|244:282|250:373,1,184.000003509522,2|8,1:2|0:0,0:0:0:0:
248,350,59835,1,0,0:0:0:0:
382,248,59991,5,2,1:2:0:0:
355,119,60146,1,0,0:0:0:0:
382,248,60301,1,10,0:0:0:0:
257,195,60457,2,0,L|257:327,1,92.0000017547608,2|0,0:0|1:0,0:0:0:0:
157,119,60768,1,0,1:0:0:0:
130,248,60923,1,10,0:0:0:0:
157,119,61079,1,0,0:0:0:0:
215,273,61234,6,0,P|165:332|88:323,1,162.000000617981,10|0,0:0|0:0,0:0:0:0:
227,253,61545,6,0,P|285:303|276:380,1,162.000000617981,10|0,0:0|0:0,0:0:0:0:
216,238,61856,6,0,P|266:179|343:188,1,162.000000617981,10|0,0:0|0:0,0:0:0:0:
199,256,62167,6,0,P|140:205|149:128,1,162.000000617981,10|8,0:0|0:0,0:0:0:0:
165,133,62478,6,0,P|173:78|144:30,1,92.0000017547608,4|0,1:0|0:0,0:0:0:0:
259,82,62789,1,10,0:0:0:0:
80,98,62944,1,0,0:0:0:0:
248,91,63099,1,0,1:0:0:0:
211,249,63255,1,2,1:2:0:0:
165,159,63410,1,10,0:0:0:0:
301,208,63566,1,0,0:0:0:0:
177,329,63721,6,0,B|241:320|241:320|284:342|284:342|382:323,1,184.000003509522,2|8,1:2|0:0,0:0:0:0:
417,257,64188,2,0,P|364:242|305:241,1,92.0000017547608,2|0,1:2|0:0,0:0:0:0:
353,328,64498,1,0,1:0:0:0:
341,146,64654,2,0,P|287:159|236:188,1,92.0000017547608,10|0,0:0|0:0,0:0:0:0:
147,333,64965,6,0,P|93:319|42:290,1,92.0000017547608,8|0,1:0|0:0,0:0:0:0:
133,239,65276,1,10,0:0:0:0:
147,333,65431,1,0,0:0:0:0:
235,211,65586,1,0,1:0:0:0:
229,343,65742,1,2,1:2:0:0:
337,180,65897,1,10,0:0:0:0:
313,356,66053,1,0,0:0:0:0:
274,116,66208,6,0,P|331:89|428:188,1,184.000003509522,2|8,1:2|0:0,0:0:0:0:
362,268,66675,2,0,B|340:287|327:309|327:309|339:143,1,184.000003509522,2|0,1:2|1:0,0:0:0:0:
183,50,67141,2,0,L|191:158,1,92.0000017547608,10|0,0:0|0:0,0:0:0:0:
0,274,67452,6,0,P|70:212|172:263,1,184.000003509522,4|8,1:2|0:0,0:0:0:0:
87,302,67918,1,0,0:0:0:0:
224,281,68074,2,0,P|238:232|235:173,1,92.0000017547608,2|0,1:2|1:0,0:0:0:0:
94,32,68384,2,0,P|80:81|83:140,1,92.0000017547608,10|0,0:0|0:0,0:0:0:0:
80,122,68695,6,0,L|274:104,1,184.000003509522,2|8,1:2|0:0,0:0:0:0:
380,298,69162,2,0,L|266:282,1,92.0000017547608,2|0,0:0|1:0,0:0:0:0:
346,207,69472,1,0,1:0:0:0:
202,263,69628,2,0,P|204:308|223:350,1,92.0000017547608,8|0,0:0|0:0,0:0:0:0:
256,71,69939,6,0,P|304:94|358:104,1,108.000000411987,14|0,0:0|0:0,0:0:0:0:
256,71,70250,2,0,P|208:94|155:104,1,108.000000411987,10|0,0:0|0:0,0:0:0:0:
308,200,70561,2,0,P|362:196|413:178,1,108.000000411987,10|0,0:0|0:0,0:0:0:0:
203,200,70871,2,0,P|149:196|99:178,1,108.000000411987,10|0,0:0|0:0,0:0:0:0:
393,314,71182,2,0,P|438:284|473:243,1,108.000000411987,10|0,0:0|0:0,0:0:0:0:
118,314,71493,2,0,P|73:284|39:243,1,108.000000411987,10|0,0:0|1:0,0:0:0:0:
256,51,71804,6,0,L|258:209,1,108.000000411987,10|0,0:0|1:0,0:0:0:0:
259,351,72115,1,8,0:0:0:0:
258,324,72193,1,8,0:3:0:0:
257,298,72270,1,4,0:3:0:0:
52,147,72426,6,0,B|98:125|151:155|151:155|217:196|273:146,1,216.000000823975,6|10,1:2|0:0,0:0:0:0:
207,77,72892,1,8,0:0:0:0:
94,233,73048,2,0,P|150:269|215:251,1,108.000000411987,2|0,1:2|0:0,0:0:0:0:
351,190,73358,2,0,P|295:154|230:172,1,108.000000411987,2|0,1:2|0:0,0:0:0:0:
108,339,73669,6,0,L|94:233,1,108.000000411987,2|0,1:2|0:0,0:0:0:0:
336,83,73980,2,0,L|354:213,1,108.000000411987,2|0,1:2|0:0,0:0:0:0:
350,189,74213,1,0,0:0:0:0:
350,189,74291,2,0,P|409:196|461:150,1,108.000000411987,10|0,0:0|0:0,0:0:0:0:
313,263,74602,6,0,P|419:276|510:222,1,216.000000823975,10|0,0:0|0:0,0:0:0:0:
418,154,75535,5,2,0:0:0:0:
326,137,76156,1,2,0:0:0:0:
244,188,76778,2,0,P|200:197|124:193,1,103.999995239258,2|0,0:0|0:0,0:0:0:0:
141,196,77400,6,0,P|200:196|276:228,1,140,2|0,0:0|0:0,0:0:0:0:
288,242,78022,6,0,P|255:160|367:215,1,280,4|0,0:0|0:0,0:0:0:0:
363,276,78643,6,0,L|375:335,3,40,2|0|0|0,0:0|0:0|0:0|0:0,0:0:0:0:
447,283,78954,2,0,L|440:244,3,40,2|0|0|0,0:0|0:0|0:0|0:0,0:0:0:0:
373,195,79265,5,2,1:2:0:0:
351,192,79343,1,4,0:3:0:0:
330,190,79421,1,4,0:3:0:0:
309,187,79498,1,0,0:0:0:0:
288,210,79576,5,2,0:0:0:0:
260,214,79653,1,8,0:3:0:0:
233,217,79731,1,8,0:0:0:0:
205,220,79809,1,8,0:0:0:0:
173,196,79887,6,0,P|203:280|123:332,1,176.000005371094,4|8,1:0|0:0,0:0:0:0:
109,130,80353,2,0,P|171:106|222:115,1,88.000002685547,2|0,0:0|1:0,0:0:0:0:
173,196,80664,1,0,1:0:0:0:
258,42,80820,2,0,P|196:18|145:27,1,88.000002685547,10|0,0:0|0:0,0:0:0:0:
87,223,81131,6,0,L|282:204,1,176.000005371094,0|8,1:0|0:0,0:0:0:0:
328,267,81597,2,0,P|333:319|301:358,1,88.000002685547,2|0,1:2|0:0,0:0:0:0:
242,291,81908,1,0,1:0:0:0:
348,179,82063,1,10,0:0:0:0:
357,157,82140,1,0,0:0:0:0:
356,133,82219,1,0,0:0:0:0:
348,110,82296,1,0,0:0:0:0:
330,93,82374,6,0,L|147:106,1,176.000005371094,2|8,1:2|0:0,0:0:0:0:
58,33,82840,1,0,0:0:0:0:
61,54,82917,1,0,0:0:0:0:
65,76,82996,1,2,1:2:0:0:
154,105,83151,1,0,1:0:0:0:
28,222,83307,1,8,0:0:0:0:
117,245,83462,1,0,0:0:0:0:
56,314,83618,5,10,0:0:0:0:
89,161,83773,1,0,0:0:0:0:
56,314,83928,2,0,P|92:292|166:276,1,88.000002685547,8|0,0:0|0:0,0:0:0:0:
423,161,84239,1,10,0:0:0:0:
456,314,84394,1,0,0:0:0:0:
423,161,84550,1,2,1:2:0:0:
456,314,84706,6,0,P|322:264|38:323,1,420.000016021729,4|0,1:0|0:0,0:0:0:0:
55,311,86105,6,0,L|72:184,1,88.000002685547,2|0,1:2|0:0,0:0:0:0:
139,160,86415,2,0,L|122:33,1,88.000002685547,2|0,1:2|0:0,0:0:0:0:
127,72,86649,1,8,0:0:0:0:
127,72,86726,1,10,0:0:0:0:
216,85,86882,1,8,0:3:0:0:
304,102,87037,1,4,0:3:0:0:
392,122,87348,5,8,0:0:0:0:
127,72,87504,1,8,0:0:0:0:
