osu file format v14

[General]
AudioFilename: audio.mp3
AudioLeadIn: 0
PreviewTime: 52563
Countdown: 0
SampleSet: Soft
StackLeniency: 0.7
Mode: 3
LetterboxInBreaks: 0
SpecialStyle: 0
WidescreenStoryboard: 1

[Editor]
DistanceSpacing: 1.4
BeatDivisor: 2
GridSize: 4
TimelineZoom: 1.5

[Metadata]
Title:RE-ILLUSION (TV Size)
TitleUnicode:RE-ILLUSION (TV Size)
Artist:Iguchi Yuka
ArtistUnicode:井口裕香
Creator:FerdiXIA-
Version:Yui's Hard
Source:ソード・オラトリア ダンジョンに出会いを求めるのは間違っているだろうか外伝
Tags:DanMachi op ダンまち opening clearly pop jpop j-pop Sword Oratoria: Is it Wrong to Try to Pick Up Girls in a Dungeon? On the Side ni Deai wo Motomeru no wa Machigatteiru Darou ka Gaiden アニメ anime japanese yuiazu- onii_ue llenn- takodachi-
BeatmapID:2791092
BeatmapSetID:1167872

[Difficulty]
HPDrainRate:8
CircleSize:4
OverallDifficulty:8
ApproachRate:5
SliderMultiplier:1.4
SliderTickRate:1

[Events]
//Background and Video events
0,0,"bg.jpg",0,0
Video,0,"op.mp4"
//Break Periods
//Storyboard Layer 0 (Background)
//Storyboard Layer 1 (Fail)
//Storyboard Layer 2 (Pass)
//Storyboard Layer 3 (Foreground)
//Storyboard Layer 4 (Overlay)
//Storyboard Sound Samples

[TimingPoints]
336,310.880829015544,4,2,1,35,1,0
2823,-100,4,2,1,40,0,0
17745,-100,4,2,1,35,0,0
27693,-100,4,2,1,40,0,0
37641,-100,4,2,1,35,0,0
50698,-100,4,2,1,40,0,0
52563,-100,4,2,1,45,0,1
74947,-100,4,2,1,30,0,0
79921,-100,4,2,1,35,0,0

[HitObjects]
64,192,336,5,0,0:0:0:0:
448,192,491,1,0,0:0:0:0:
192,192,802,1,0,0:0:0:0:
320,192,957,1,2,0:0:0:0:
448,192,957,1,0,0:0:0:0:
64,192,1268,1,0,0:0:0:0:
192,192,1424,1,0,0:0:0:0:
448,192,1579,1,0,0:0:0:0:
320,192,1657,1,0,0:0:0:0:
192,192,1734,1,0,0:0:0:0:
448,192,1812,1,0,0:0:0:0:
64,192,1890,1,0,0:0:0:0:
192,192,1968,1,0,0:0:0:0:
320,192,2045,1,0,0:0:0:0:
64,192,2123,1,0,0:0:0:0:
448,192,2201,1,2,0:0:0:0:
320,192,2279,1,0,0:0:0:0:
192,192,2356,1,0,0:0:0:0:
448,192,2434,1,0,0:0:0:0:
64,192,2512,1,0,0:0:0:0:
192,192,2589,1,0,0:0:0:0:
448,192,2667,1,8,0:0:0:0:
320,192,2745,1,8,0:0:0:0:
64,192,2823,1,8,0:0:0:0:
192,192,2823,1,4,0:0:0:0:
64,192,3133,1,8,0:0:0:0:
448,192,3133,1,0,0:0:0:0:
192,192,3444,1,2,0:0:0:0:
320,192,3444,1,0,0:0:0:0:
192,192,3600,1,8,0:0:0:0:
448,192,3600,1,0,0:0:0:0:
64,192,3755,1,0,0:0:0:0:
320,192,3911,1,2,0:0:0:0:
448,192,3911,1,0,0:0:0:0:
64,192,4066,1,8,0:0:0:0:
320,192,4066,1,0,0:0:0:0:
192,192,4222,1,2,0:0:0:0:
448,192,4222,1,0,0:0:0:0:
320,192,4377,1,2,0:0:0:0:
64,192,4532,1,8,0:0:0:0:
192,192,4532,1,0,0:0:0:0:
320,192,4688,1,2,0:0:0:0:
448,192,4688,1,0,0:0:0:0:
192,192,4843,1,8,0:0:0:0:
320,192,4921,1,8,0:0:0:0:
64,192,4999,1,8,0:0:0:0:
448,192,4999,1,0,0:0:0:0:
192,192,5076,1,8,0:0:0:0:
448,192,5154,1,8,0:0:0:0:
320,192,5232,1,8,0:0:0:0:
64,192,5310,128,2,5620:0:0:0:0:
192,192,5310,1,4,0:0:0:0:
320,192,5620,1,8,0:0:0:0:
448,192,5620,1,0,0:0:0:0:
192,192,5776,128,0,5931:0:0:0:0:
64,192,5931,1,2,0:0:0:0:
320,192,5931,1,0,0:0:0:0:
192,192,6087,1,2,0:0:0:0:
448,192,6087,1,0,0:0:0:0:
320,192,6242,128,8,6864:0:0:0:0:
448,192,6242,1,0,0:0:0:0:
64,192,6553,1,2,0:0:0:0:
192,192,6864,1,8,0:0:0:0:
448,192,6864,1,0,0:0:0:0:
64,192,7019,1,2,0:0:0:0:
320,192,7019,1,0,0:0:0:0:
192,192,7175,1,0,0:0:0:0:
320,192,7330,128,2,7486:0:0:0:0:
448,192,7330,1,0,0:0:0:0:
64,192,7486,128,8,7641:0:0:0:0:
192,192,7486,1,0,0:0:0:0:
448,192,7641,128,0,7797:0:0:0:0:
64,192,7797,1,2,0:0:0:0:
192,192,7797,128,0,7952:0:0:0:0:
320,192,7952,128,0,8108:0:0:0:0:
192,192,8108,1,8,0:0:0:0:
448,192,8108,128,0,8263:0:0:0:0:
64,192,8263,128,0,8574:0:0:0:0:
192,192,8418,1,2,0:0:0:0:
320,192,8574,1,2,0:0:0:0:
448,192,8574,128,0,8729:0:0:0:0:
64,192,8729,1,8,0:0:0:0:
192,192,8729,128,0,8885:0:0:0:0:
320,192,8885,128,0,9196:0:0:0:0:
448,192,9040,1,2,0:0:0:0:
64,192,9196,128,0,9351:0:0:0:0:
320,192,9351,1,8,0:0:0:0:
448,192,9351,128,0,9506:0:0:0:0:
64,192,9506,1,2,0:0:0:0:
192,192,9506,128,0,9973:0:0:0:0:
320,192,9817,1,2,0:0:0:0:
64,192,9973,1,8,0:0:0:0:
448,192,9973,1,0,0:0:0:0:
320,192,10128,1,0,0:0:0:0:
192,192,10206,1,8,0:0:0:0:
64,192,10284,1,2,0:0:0:0:
448,192,10284,128,4,10595:0:0:0:0:
64,192,10595,1,8,0:0:0:0:
192,192,10595,1,0,0:0:0:0:
320,192,10750,128,0,10905:0:0:0:0:
64,192,10905,1,2,0:0:0:0:
448,192,10905,1,0,0:0:0:0:
192,192,11061,1,2,0:0:0:0:
320,192,11061,1,0,0:0:0:0:
192,192,11216,128,8,11838:0:0:0:0:
448,192,11216,1,0,0:0:0:0:
320,192,11527,1,2,0:0:0:0:
64,192,11838,1,8,0:0:0:0:
448,192,11838,1,0,0:0:0:0:
192,192,11994,1,2,0:0:0:0:
320,192,11994,1,0,0:0:0:0:
64,192,12149,1,0,0:0:0:0:
320,192,12304,1,2,0:0:0:0:
448,192,12304,1,0,0:0:0:0:
64,192,12460,1,8,0:0:0:0:
192,192,12460,1,0,0:0:0:0:
448,192,12538,1,0,0:0:0:0:
320,192,12615,1,0,0:0:0:0:
192,192,12693,1,0,0:0:0:0:
64,192,12771,1,2,0:0:0:0:
448,192,12771,128,4,13392:0:0:0:0:
64,192,13082,1,8,0:0:0:0:
320,192,13082,1,0,0:0:0:0:
192,192,13237,1,0,0:0:0:0:
64,192,13392,128,2,14014:0:0:0:0:
320,192,13392,1,0,0:0:0:0:
448,192,13548,1,2,0:0:0:0:
192,192,13703,1,8,0:0:0:0:
320,192,13703,1,0,0:0:0:0:
192,192,14014,1,8,0:0:0:0:
448,192,14014,1,4,0:0:0:0:
320,192,14170,1,2,0:0:0:0:
448,192,14170,1,0,0:0:0:0:
64,192,14325,1,8,0:0:0:0:
192,192,14325,1,0,0:0:0:0:
64,192,14481,1,2,0:0:0:0:
320,192,14481,1,0,0:0:0:0:
320,192,14636,1,8,0:0:0:0:
448,192,14636,1,0,0:0:0:0:
64,192,14791,1,8,0:0:0:0:
192,192,14791,1,0,0:0:0:0:
64,192,15102,1,2,0:0:0:0:
448,192,15102,128,4,17434:0:0:0:0:
192,192,15569,1,8,0:0:0:0:
320,192,15569,1,0,0:0:0:70:tom01.wav
64,192,15880,1,2,0:0:0:0:
320,192,16035,1,0,0:0:0:70:tom01.wav
192,192,16346,1,2,0:0:0:0:
320,192,16501,1,0,0:0:0:70:tom02.wav
64,192,16812,1,2,0:0:0:0:
192,192,16968,1,0,0:0:0:70:tom03.wav
320,192,17279,1,2,0:0:0:0:
64,192,17434,1,8,0:0:0:0:
192,192,17434,1,0,0:0:0:0:
192,192,17745,1,2,0:0:0:0:
448,192,17745,1,4,0:0:0:0:
192,192,17900,1,0,0:0:0:0:
64,192,18056,1,8,0:0:0:0:
448,192,18056,1,0,0:0:0:0:
320,192,18211,1,0,0:0:0:0:
64,192,18367,1,2,0:0:0:0:
192,192,18367,1,0,0:0:0:0:
320,192,18522,1,0,0:0:0:0:
192,192,18677,1,8,0:0:0:0:
448,192,18677,1,0,0:0:0:0:
64,192,18833,1,0,0:0:0:0:
320,192,18988,1,2,0:0:0:0:
448,192,18988,1,0,0:0:0:0:
192,192,19144,1,0,0:0:0:0:
64,192,19299,1,8,0:0:0:0:
320,192,19299,1,0,0:0:0:0:
448,192,19455,128,0,19610:0:0:0:0:
64,192,19610,1,2,0:0:0:0:
192,192,19610,128,0,19766:0:0:0:0:
320,192,19766,128,2,19921:0:0:0:0:
448,192,19766,1,0,0:0:0:0:
64,192,19921,128,8,20076:0:0:0:0:
192,192,19921,1,0,0:0:0:0:
448,192,20076,128,0,20232:0:0:0:0:
64,192,20232,1,2,0:0:0:0:
192,192,20232,1,0,0:0:0:0:
320,192,20387,1,0,0:0:0:0:
64,192,20543,1,8,0:0:0:0:
448,192,20543,1,0,0:0:0:0:
192,192,20698,1,0,0:0:0:0:
320,192,20854,1,2,0:0:0:0:
448,192,20854,1,0,0:0:0:0:
64,192,21009,1,2,0:0:0:0:
192,192,21009,1,0,0:0:0:0:
64,192,21165,1,8,0:0:0:0:
448,192,21165,1,0,0:0:0:0:
192,192,21320,1,0,0:0:0:0:
320,192,21475,1,2,0:0:0:0:
448,192,21475,1,0,0:0:0:0:
192,192,21631,1,0,0:0:0:0:
64,192,21786,1,8,0:0:0:0:
320,192,21786,1,0,0:0:0:0:
448,192,21942,1,0,0:0:0:0:
64,192,22097,1,2,0:0:0:0:
192,192,22097,1,0,0:0:0:0:
320,192,22253,1,2,0:0:0:0:
448,192,22253,1,0,0:0:0:0:
192,192,22408,1,8,0:0:0:0:
448,192,22408,1,0,0:0:0:0:
64,192,22563,1,0,0:0:0:0:
320,192,22719,1,2,0:0:0:0:
448,192,22719,1,4,0:0:0:0:
320,192,22874,1,0,0:0:0:0:
64,192,23030,1,8,0:0:0:0:
448,192,23030,1,0,0:0:0:0:
192,192,23185,1,0,0:0:0:0:
320,192,23341,1,2,0:0:0:0:
448,192,23341,1,0,0:0:0:0:
192,192,23496,1,0,0:0:0:0:
64,192,23652,1,8,0:0:0:0:
320,192,23652,1,0,0:0:0:0:
448,192,23807,1,0,0:0:0:0:
192,192,23962,1,2,0:0:0:0:
320,192,23962,1,0,0:0:0:0:
64,192,24118,1,0,0:0:0:0:
192,192,24273,1,8,0:0:0:0:
448,192,24273,1,0,0:0:0:0:
320,192,24429,1,0,0:0:0:0:
64,192,24584,128,2,24740:0:0:0:0:
192,192,24584,1,0,0:0:0:0:
320,192,24740,128,2,24895:0:0:0:0:
448,192,24740,1,0,0:0:0:0:
64,192,24895,1,8,0:0:0:0:
192,192,24895,128,0,25051:0:0:0:0:
448,192,25051,128,0,25206:0:0:0:0:
64,192,25206,128,2,25361:0:0:0:0:
192,192,25206,1,0,0:0:0:0:
320,192,25361,1,0,0:0:0:0:
64,192,25517,1,8,0:0:0:0:
192,192,25517,1,0,0:0:0:0:
320,192,25672,128,0,25828:0:0:0:0:
448,192,25672,1,0,0:0:0:0:
64,192,25828,1,2,0:0:0:0:
192,192,25828,1,0,0:0:0:0:
320,192,25983,1,8,0:0:0:0:
448,192,25983,1,0,0:0:0:0:
64,192,26139,1,0,0:0:0:0:
320,192,26294,1,2,0:0:0:0:
448,192,26294,1,0,0:0:0:0:
64,192,26449,128,8,26605:0:0:0:0:
192,192,26449,128,0,26605:0:0:0:0:
320,192,26605,1,2,0:0:0:0:
448,192,26605,1,0,0:0:0:0:
64,192,26760,128,8,26916:0:0:0:0:
192,192,26760,128,0,26916:0:0:0:0:
192,192,27071,1,2,0:0:0:0:
320,192,27071,1,0,0:0:0:0:
64,192,27227,128,8,27693:0:0:0:0:
448,192,27227,128,4,27693:0:0:0:0:
192,192,27693,1,2,0:0:0:0:
320,192,27693,1,4,0:0:0:0:
64,192,27848,1,0,0:0:0:0:
192,192,28004,1,8,0:0:0:0:
448,192,28004,1,0,0:0:0:0:
320,192,28159,1,0,0:0:0:0:
64,192,28315,1,2,0:0:0:0:
192,192,28315,1,0,0:0:0:0:
320,192,28470,1,0,0:0:0:0:
64,192,28626,1,8,0:0:0:0:
448,192,28626,1,0,0:0:0:0:
192,192,28781,1,0,0:0:0:0:
320,192,28937,1,2,0:0:0:0:
448,192,28937,1,0,0:0:0:0:
64,192,29092,1,0,0:0:0:0:
192,192,29247,1,8,0:0:0:0:
320,192,29247,1,0,0:0:0:0:
448,192,29403,1,0,0:0:0:0:
64,192,29558,1,2,0:0:0:0:
192,192,29558,1,0,0:0:0:0:
320,192,29714,1,2,0:0:0:0:
448,192,29714,1,0,0:0:0:0:
64,192,29869,1,8,0:0:0:0:
448,192,29869,1,0,0:0:0:0:
320,192,30025,1,0,0:0:0:0:
64,192,30180,1,2,0:0:0:0:
192,192,30180,1,0,0:0:0:0:
320,192,30335,1,0,0:0:0:0:
192,192,30491,1,8,0:0:0:0:
448,192,30491,1,0,0:0:0:0:
64,192,30646,1,0,0:0:0:0:
320,192,30802,1,2,0:0:0:0:
448,192,30802,1,0,0:0:0:0:
64,192,30957,1,2,0:0:0:0:
192,192,30957,1,0,0:0:0:0:
64,192,31113,1,8,0:0:0:0:
448,192,31113,1,0,0:0:0:0:
192,192,31268,1,0,0:0:0:0:
320,192,31424,1,2,0:0:0:0:
448,192,31424,1,0,0:0:0:0:
192,192,31579,1,0,0:0:0:0:
64,192,31734,1,8,0:0:0:0:
448,192,31734,1,0,0:0:0:0:
320,192,31890,1,0,0:0:0:0:
64,192,32045,1,2,0:0:0:0:
192,192,32045,1,0,0:0:0:0:
320,192,32201,1,2,0:0:0:0:
64,192,32356,1,8,0:0:0:0:
448,192,32356,1,0,0:0:0:0:
192,192,32434,1,8,0:0:0:0:
320,192,32512,1,8,0:0:0:0:
320,192,32667,128,4,32900:0:0:0:0:
448,192,32667,128,2,32900:0:0:0:0:
320,192,32978,1,8,0:0:0:0:
448,192,32978,1,0,0:0:0:0:
64,192,33133,128,2,33367:0:0:0:0:
192,192,33133,128,4,33367:0:0:0:0:
64,192,33444,1,2,0:0:0:0:
192,192,33444,1,0,0:0:0:0:
320,192,33600,1,8,0:0:0:0:
448,192,33600,1,0,0:0:0:0:
192,192,33755,1,0,0:0:0:0:
64,192,33911,128,2,34144:0:0:0:0:
448,192,33911,128,0,34144:0:0:0:0:
64,192,34222,1,8,0:0:0:0:
448,192,34222,1,0,0:0:0:0:
192,192,34377,128,2,34610:0:0:0:0:
320,192,34377,128,4,34610:0:0:0:0:
192,192,34688,1,2,0:0:0:0:
320,192,34688,1,0,0:0:0:0:
64,192,34843,1,8,0:0:0:0:
448,192,34843,1,0,0:0:0:0:
192,192,35154,1,2,0:0:0:0:
320,192,35154,128,0,35620:0:0:0:0:
64,192,35620,1,2,0:0:0:0:
448,192,35620,1,0,0:0:0:0:
192,192,35776,128,8,36087:0:0:0:0:
320,192,35776,1,4,0:0:0:0:
64,192,36087,1,2,0:0:0:0:
448,192,36087,1,0,0:0:0:0:
64,192,36398,1,8,0:0:0:0:
192,192,36398,1,0,0:0:0:0:
320,192,36553,1,2,0:0:0:0:
448,192,36553,1,0,0:0:0:0:
192,192,36709,1,8,0:0:0:0:
448,192,36709,1,0,0:0:0:0:
64,192,36864,1,2,0:0:0:0:
320,192,36864,1,0,0:0:0:0:
64,192,37019,1,8,0:0:0:0:
448,192,37019,1,0,0:0:0:0:
192,192,37175,1,2,0:0:0:0:
320,192,37175,1,0,0:0:0:0:
64,192,37330,1,8,0:0:0:0:
320,192,37330,1,0,0:0:0:0:
192,192,37486,1,0,0:0:0:0:
320,192,37641,1,2,0:0:0:0:
448,192,37641,128,0,38263:0:0:0:0:
192,192,38108,1,2,0:0:0:0:
64,192,38263,128,8,38885:0:0:0:0:
320,192,38263,1,0,0:0:0:0:
448,192,38574,1,0,0:0:0:0:
192,192,38729,1,8,0:0:0:0:
320,192,38885,128,2,39506:0:0:0:0:
448,192,38885,1,0,0:0:0:0:
64,192,39040,1,2,0:0:0:0:
448,192,39351,1,2,0:0:0:0:
64,192,39506,1,8,0:0:0:0:
192,192,39506,128,0,40128:0:0:0:0:
320,192,39973,1,8,0:0:0:0:
64,192,40128,1,2,0:0:0:0:
448,192,40128,1,4,0:0:0:0:
64,192,40595,1,2,0:0:0:0:
320,192,40595,1,0,0:0:0:0:
192,192,40750,1,8,0:0:0:0:
448,192,40750,1,0,0:0:0:0:
64,192,41061,1,4,0:0:0:0:
448,192,41061,128,2,41527:0:0:0:0:
64,192,41527,1,8,0:0:0:0:
192,192,41527,1,0,0:0:0:0:
320,192,41683,1,0,0:0:0:0:
64,192,41838,1,2,0:0:0:0:
448,192,41838,1,0,0:0:0:0:
192,192,41994,1,8,0:0:0:0:
320,192,41994,1,0,0:0:0:0:
448,192,42304,128,0,42615:0:0:0:0:
64,192,42615,128,2,43082:0:0:0:0:
192,192,42615,1,0,0:0:0:0:
320,192,43082,1,2,0:0:0:0:
448,192,43082,1,0,0:0:0:0:
64,192,43237,1,8,0:0:0:0:
192,192,43237,1,0,0:0:0:0:
64,192,43548,1,0,0:0:0:0:
320,192,43703,1,8,0:0:0:0:
448,192,43703,1,0,0:0:0:0:
64,192,43859,1,2,0:0:0:0:
192,192,43859,128,0,44325:0:0:0:0:
320,192,44014,1,2,0:0:0:0:
64,192,44325,1,2,0:0:0:0:
448,192,44325,1,0,0:0:0:0:
192,192,44481,1,8,0:0:0:0:
320,192,44481,1,0,0:0:0:0:
448,192,44636,1,0,0:0:0:0:
64,192,44791,1,0,0:0:0:0:
320,192,44947,1,8,0:0:0:0:
448,192,44947,1,0,0:0:0:0:
64,192,45102,1,2,0:0:0:0:
192,192,45102,1,4,0:0:0:0:
192,192,45569,1,2,0:0:0:0:
448,192,45569,1,0,0:0:0:0:
64,192,45724,1,8,0:0:0:0:
320,192,45724,1,0,0:0:0:0:
64,192,46035,1,2,0:0:0:0:
448,192,46035,128,4,46501:0:0:0:0:
64,192,46501,1,2,0:0:0:0:
320,192,46501,1,0,0:0:0:0:
192,192,46657,1,0,0:0:0:70:tom01.wav
448,192,46812,1,0,0:0:0:70:tom02.wav
64,192,46968,1,2,0:0:0:0:
192,192,46968,128,0,47279:0:0:0:0:
320,192,47279,128,0,47589:0:0:0:0:
64,192,47589,128,2,48211:0:0:0:0:
448,192,47589,1,0,0:0:0:0:
192,192,47900,1,0,0:0:0:0:
448,192,48056,1,0,0:0:0:0:
192,192,48211,1,4,0:0:0:0:
320,192,48211,128,2,48833:0:0:0:0:
192,192,48833,128,2,49455:0:0:0:0:
448,192,48833,1,0,0:0:0:0:
64,192,49144,1,0,0:0:0:0:
320,192,49299,1,0,0:0:0:0:
64,192,49455,1,4,0:0:0:0:
448,192,49455,128,2,50076:0:0:0:0:
192,192,49610,1,0,0:0:0:0:
320,192,49766,128,0,50076:0:0:0:0:
64,192,50076,128,0,50698:0:0:0:0:
192,192,50698,1,4,0:0:0:0:
320,192,50698,128,2,51320:0:0:0:0:
448,192,51165,1,2,0:0:0:0:
64,192,51320,1,8,0:0:0:0:
192,192,51320,128,4,51942:0:0:0:0:
320,192,51631,128,0,51942:0:0:0:0:
64,192,51942,1,2,0:0:0:0:
448,192,51942,1,8,0:0:0:0:
192,192,52097,1,8,0:0:0:0:
320,192,52175,1,8,0:0:0:0:
64,192,52253,1,8,0:0:0:0:
448,192,52253,1,0,0:0:0:0:
192,192,52330,1,8,0:0:0:0:
320,192,52408,1,8,0:0:0:0:
192,192,52486,1,8,0:0:0:0:
64,192,52563,1,4,0:0:0:0:
448,192,52563,1,2,0:0:0:0:
192,192,52719,1,0,0:0:0:0:
320,192,52874,1,8,0:0:0:0:
448,192,52874,1,0,0:0:0:0:
320,192,53030,1,0,0:0:0:0:
192,192,53108,1,8,0:0:0:0:
64,192,53185,1,2,0:0:0:0:
448,192,53185,1,0,0:0:0:0:
192,192,53341,1,2,0:0:0:0:
448,192,53341,1,0,0:0:0:0:
64,192,53496,1,8,0:0:0:0:
320,192,53496,1,0,0:0:0:0:
192,192,53652,1,0,0:0:0:0:
320,192,53807,128,2,54118:0:0:0:0:
448,192,53807,1,0,0:0:0:0:
192,192,54118,1,8,0:0:0:0:
448,192,54118,1,0,0:0:0:0:
64,192,54273,128,2,54584:0:0:0:0:
320,192,54273,1,0,0:0:0:0:
192,192,54584,1,2,0:0:0:0:
448,192,54584,1,0,0:0:0:0:
64,192,54740,1,8,0:0:0:0:
448,192,54740,128,0,55051:0:0:0:0:
320,192,54895,128,0,55051:0:0:0:0:
64,192,55051,1,2,0:0:0:0:
192,192,55051,1,0,0:0:0:0:
64,192,55361,1,8,0:0:0:0:
448,192,55361,1,0,0:0:0:0:
448,192,55517,1,0,0:0:0:0:
320,192,55595,1,8,0:0:0:0:
64,192,55672,1,2,0:0:0:0:
192,192,55672,1,0,0:0:0:0:
192,192,55828,1,2,0:0:0:0:
448,192,55828,1,0,0:0:0:0:
64,192,55983,1,8,0:0:0:0:
320,192,55983,1,0,0:0:0:0:
192,192,56139,1,0,0:0:0:0:
64,192,56294,128,2,56605:0:0:0:0:
448,192,56294,1,0,0:0:0:0:
192,192,56605,1,8,0:0:0:0:
320,192,56605,1,0,0:0:0:0:
64,192,56760,1,2,0:0:0:0:
448,192,56760,128,0,57071:0:0:0:0:
192,192,57071,1,2,0:0:0:0:
320,192,57071,1,0,0:0:0:0:
64,192,57227,1,8,0:0:0:0:
192,192,57227,128,0,57382:0:0:0:0:
320,192,57382,128,0,57538:0:0:0:0:
64,192,57538,128,2,57848:0:0:0:0:
448,192,57538,1,0,0:0:0:0:
320,192,57848,1,8,0:0:0:0:
448,192,57848,1,0,0:0:0:0:
320,192,58004,1,0,0:0:0:0:
64,192,58159,1,2,0:0:0:0:
192,192,58159,1,0,0:0:0:0:
320,192,58315,1,2,0:0:0:0:
448,192,58315,1,0,0:0:0:0:
64,192,58470,128,8,58626:0:0:0:0:
448,192,58470,1,0,0:0:0:0:
320,192,58626,128,0,58781:0:0:0:0:
192,192,58781,128,2,59092:0:0:0:0:
448,192,58781,1,0,0:0:0:0:
64,192,59092,1,8,0:0:0:0:
448,192,59092,1,0,0:0:0:0:
64,192,59247,1,0,0:0:0:0:
320,192,59403,1,2,0:0:0:0:
448,192,59403,1,0,0:0:0:0:
64,192,59558,1,2,0:0:0:0:
192,192,59558,1,0,0:0:0:0:
192,192,59714,1,8,0:0:0:0:
448,192,59714,1,0,0:0:0:0:
64,192,59869,1,0,0:0:0:0:
320,192,60025,1,2,0:0:0:0:
448,192,60025,1,0,0:0:0:0:
320,192,60180,1,0,0:0:0:0:
64,192,60335,1,8,0:0:0:0:
192,192,60335,1,0,0:0:0:0:
192,192,60491,1,0,0:0:0:0:
64,192,60646,1,2,0:0:0:0:
448,192,60646,1,0,0:0:0:0:
192,192,60802,1,2,0:0:0:0:
320,192,60802,1,0,0:0:0:0:
320,192,60957,1,8,0:0:0:0:
448,192,60957,1,0,0:0:0:0:
192,192,61113,1,0,0:0:0:0:
64,192,61268,1,8,0:0:0:0:
448,192,61268,1,0,0:0:0:0:
64,192,61424,1,2,0:0:0:0:
192,192,61579,1,8,0:0:0:0:
448,192,61579,1,0,0:0:0:0:
192,192,61734,1,2,0:0:0:0:
64,192,61890,1,8,0:0:0:0:
320,192,61890,1,0,0:0:0:0:
320,192,62045,1,2,0:0:0:0:
192,192,62201,1,8,0:0:0:0:
448,192,62201,1,0,0:0:0:0:
448,192,62356,1,8,0:0:0:0:
320,192,62434,1,8,0:0:0:0:
64,192,62512,1,2,0:0:0:0:
192,192,62512,1,4,0:0:0:0:
448,192,62667,1,0,0:0:0:0:
64,192,62823,1,8,0:0:0:0:
320,192,62823,1,0,0:0:0:0:
320,192,62978,1,0,0:0:0:0:
192,192,63056,1,8,0:0:0:0:
64,192,63133,1,2,0:0:0:0:
448,192,63133,1,0,0:0:0:0:
64,192,63289,1,2,0:0:0:0:
320,192,63289,1,0,0:0:0:0:
192,192,63444,1,8,0:0:0:0:
448,192,63444,1,0,0:0:0:0:
320,192,63600,1,0,0:0:0:0:
64,192,63755,1,2,0:0:0:0:
192,192,63755,128,0,64066:0:0:0:0:
64,192,64066,1,8,0:0:0:0:
448,192,64066,1,0,0:0:0:0:
192,192,64222,1,2,0:0:0:0:
320,192,64222,128,0,64532:0:0:0:0:
64,192,64532,1,2,0:0:0:0:
448,192,64532,1,0,0:0:0:0:
192,192,64688,1,8,0:0:0:0:
448,192,64688,128,0,64999:0:0:0:0:
320,192,64843,128,0,64999:0:0:0:0:
64,192,64999,1,2,0:0:0:0:
192,192,64999,1,0,0:0:0:0:
64,192,65310,1,8,0:0:0:0:
448,192,65310,1,0,0:0:0:0:
64,192,65465,1,0,0:0:0:0:
192,192,65543,1,8,0:0:0:0:
320,192,65620,1,2,0:0:0:0:
448,192,65620,1,0,0:0:0:0:
64,192,65776,1,2,0:0:0:0:
320,192,65776,1,0,0:0:0:0:
192,192,65931,1,8,0:0:0:0:
448,192,65931,1,0,0:0:0:0:
320,192,66087,1,0,0:0:0:0:
64,192,66242,128,2,66553:0:0:0:0:
192,192,66242,1,0,0:0:0:0:
320,192,66553,1,8,0:0:0:0:
448,192,66553,1,0,0:0:0:0:
64,192,66709,1,2,0:0:0:0:
192,192,66709,128,0,67019:0:0:0:0:
64,192,67019,1,2,0:0:0:0:
320,192,67019,1,0,0:0:0:0:
320,192,67175,128,8,67486:0:0:0:0:
448,192,67175,1,0,0:0:0:0:
192,192,67330,128,0,67486:0:0:0:0:
64,192,67486,1,2,0:0:0:0:
448,192,67486,1,4,0:0:0:0:
192,192,67641,1,0,0:0:0:0:
320,192,67797,1,8,0:0:0:0:
448,192,67797,1,0,0:0:0:0:
192,192,67952,1,0,0:0:0:0:
320,192,68030,1,8,0:0:0:0:
64,192,68108,1,2,0:0:0:0:
448,192,68108,1,0,0:0:0:0:
192,192,68263,1,2,0:0:0:0:
320,192,68263,1,0,0:0:0:0:
64,192,68418,1,8,0:0:0:0:
192,192,68418,1,0,0:0:0:0:
448,192,68574,1,0,0:0:0:0:
192,192,68729,1,2,0:0:0:0:
320,192,68729,128,0,69040:0:0:0:0:
64,192,69040,1,8,0:0:0:0:
448,192,69040,1,0,0:0:0:0:
192,192,69196,128,0,69506:0:0:0:0:
320,192,69351,1,2,0:0:0:0:
64,192,69506,1,2,0:0:0:0:
448,192,69506,1,0,0:0:0:0:
64,192,69662,1,8,0:0:0:0:
320,192,69662,1,0,0:0:0:0:
192,192,69817,1,0,0:0:0:0:
320,192,69973,1,2,0:0:0:0:
448,192,69973,1,0,0:0:0:0:
448,192,70128,1,0,0:0:0:0:
64,192,70284,1,8,0:0:0:0:
192,192,70284,1,0,0:0:0:0:
192,192,70439,1,2,0:0:0:0:
320,192,70595,1,8,0:0:0:0:
448,192,70595,1,0,0:0:0:0:
320,192,70750,1,2,0:0:0:0:
64,192,70905,1,8,0:0:0:0:
192,192,70905,1,0,0:0:0:0:
64,192,71061,1,0,0:0:0:0:
192,192,71216,1,2,0:0:0:0:
448,192,71216,1,0,0:0:0:0:
448,192,71372,1,0,0:0:0:0:
64,192,71527,1,8,0:0:0:0:
320,192,71527,1,0,0:0:0:0:
64,192,71683,1,2,0:0:0:0:
192,192,71838,1,8,0:0:0:0:
320,192,71838,1,0,0:0:0:0:
320,192,71994,1,2,0:0:0:0:
192,192,72149,1,8,0:0:0:0:
448,192,72149,1,0,0:0:0:0:
64,192,72227,1,8,0:0:0:0:
320,192,72304,1,8,0:0:0:0:
64,192,72460,128,4,72771:0:0:0:0:
192,192,72460,1,2,0:0:0:0:
448,192,72460,1,0,0:0:0:0:
320,192,72771,1,8,0:0:0:0:
448,192,72771,1,2,0:0:0:0:
64,192,72926,1,8,0:0:0:0:
192,192,72926,1,0,0:0:0:0:
64,192,73082,1,4,0:0:0:0:
320,192,73082,128,2,73392:0:0:0:0:
448,192,73082,1,0,0:0:0:0:
192,192,73392,1,2,0:0:0:0:
64,192,73703,1,4,0:0:0:0:
192,192,73703,1,2,0:0:0:0:
448,192,73703,128,0,74014:0:0:0:0:
320,192,73859,1,0,0:0:0:70:tom01.wav
64,192,74014,1,2,0:0:0:0:
320,192,74170,1,8,0:0:0:0:
192,192,74247,1,8,0:0:0:0:
64,192,74325,1,2,0:0:0:0:
320,192,74325,128,4,74636:0:0:0:0:
448,192,74325,1,0,0:0:0:0:
192,192,74481,1,0,0:0:0:70:tom01.wav
448,192,74636,1,2,0:0:0:0:
320,192,74791,1,0,0:0:0:0:
64,192,74947,128,0,75102:0:0:0:0:
320,192,75102,128,0,75258:0:0:0:0:
192,192,75258,128,0,75569:0:0:0:0:
64,192,75258,1,0,0:0:0:0:
448,192,75569,128,0,75724:0:0:0:0:
192,192,75724,128,0,75880:0:0:0:0:
448,192,75880,1,0,0:0:0:0:
320,192,75880,128,0,76190:0:0:0:0:
64,192,76190,128,0,76346:0:0:0:0:
448,192,76346,128,0,76501:0:0:0:0:
192,192,76501,128,0,76812:0:0:0:0:
64,192,76501,1,0,0:0:0:0:
320,192,76812,128,0,77123:0:0:0:0:
448,192,76812,1,0,0:0:0:0:
192,192,77434,128,0,78677:0:0:0:0:
64,192,78056,1,2,0:0:0:0:
448,192,78056,1,0,0:0:0:0:
320,192,78677,128,0,78833:0:0:0:0:
64,192,78833,128,0,78988:0:0:0:0:
448,192,78988,128,0,79144:0:0:0:0:
192,192,79144,128,0,79299:0:0:0:0:
64,192,79299,1,2,0:0:0:0:
448,192,79299,1,0,0:0:0:0:
320,192,79377,1,8,0:0:0:0:
192,192,79455,1,8,0:0:0:0:
320,192,79532,1,8,0:0:0:0:
64,192,79610,1,8,0:0:0:0:
448,192,79610,1,0,0:0:0:0:
192,192,79688,1,8,0:0:0:0:
320,192,79766,1,8,0:0:0:0:
192,192,79843,1,8,0:0:0:0:
64,192,79921,128,2,80232:0:0:0:0:
448,192,79921,1,4,0:0:0:0:
320,192,80232,1,8,0:0:0:0:
448,192,80232,1,0,0:0:0:0:
192,192,80387,128,0,80543:0:0:0:0:
64,192,80543,1,2,0:0:0:0:
320,192,80543,1,0,0:0:0:0:
192,192,80698,1,2,0:0:0:0:
448,192,80698,1,0,0:0:0:0:
64,192,80854,1,8,0:0:0:0:
448,192,80854,128,0,81475:0:0:0:0:
320,192,81165,1,2,0:0:0:0:
64,192,81475,1,8,0:0:0:0:
192,192,81475,1,0,0:0:0:0:
320,192,81631,1,2,0:0:0:0:
448,192,81631,1,0,0:0:0:0:
192,192,81786,128,0,82097:0:0:0:0:
320,192,81942,1,2,0:0:0:0:
64,192,82097,1,8,0:0:0:0:
448,192,82097,1,0,0:0:0:0:
320,192,82175,1,0,0:0:0:0:
192,192,82253,1,0,0:0:0:0:
64,192,82330,1,0,0:0:0:0:
320,192,82408,128,4,83030:0:0:0:0:
448,192,82408,1,2,0:0:0:0:
64,192,82719,1,8,0:0:0:0:
192,192,82719,1,0,0:0:0:0:
448,192,82874,1,0,0:0:0:0:
64,192,83030,128,2,83652:0:0:0:0:
192,192,83030,1,0,0:0:0:0:
448,192,83185,1,2,0:0:0:0:
192,192,83341,1,8,0:0:0:0:
320,192,83341,1,0,0:0:0:0:
320,192,83652,1,8,0:0:0:0:
448,192,83652,1,0,0:0:0:0:
64,192,83807,1,2,0:0:0:0:
192,192,83807,1,0,0:0:0:0:
192,192,83962,1,8,0:0:0:0:
448,192,83962,1,0,0:0:0:0:
320,192,84118,1,0,0:0:0:0:
64,192,84273,1,8,0:0:0:0:
448,192,84273,128,2,84429:0:0:0:0:
192,192,84429,128,0,84584:0:0:0:70:tom01.wav
320,192,84429,1,0,0:0:0:0:
64,192,84584,128,0,84740:0:0:0:70:tom03.wav
448,192,84584,1,0,0:0:0:0:
192,192,84740,1,2,0:0:0:0:
320,192,84740,128,4,86139:0:0:0:0:
192,192,85206,1,0,0:0:0:0:
64,192,85517,1,0,0:0:0:0:
448,192,85828,1,0,0:0:0:0:
64,192,86139,1,8,0:0:0:0:
192,192,86139,1,0,0:0:0:0:
320,192,86294,1,2,0:0:0:0:
448,192,86294,1,0,0:0:0:0:
64,192,86449,1,8,0:0:0:0:
448,192,86449,1,0,0:0:0:0:
320,192,86605,1,8,0:0:0:0:
192,192,86683,1,8,0:0:0:0:
64,192,86760,1,2,0:0:0:0:
448,192,86760,1,0,0:0:0:70:tom01.wav
320,192,86916,1,0,0:0:0:70:tom02.wav
64,192,87071,1,2,0:0:0:0:
192,192,87071,1,0,0:0:0:70:tom03.wav
64,192,87382,1,8,0:0:0:0:
320,192,87382,1,2,0:0:0:0:
448,192,87382,1,0,0:0:0:0:
64,192,87538,1,8,0:0:0:0:
320,192,87538,1,2,0:0:0:0:
448,192,87538,1,0,0:0:0:0:
192,192,88004,128,0,88626:0:0:0:0:
320,192,88315,128,0,88626:0:0:0:0:
