osu file format v14

[General]
AudioFilename: audio.mp3
AudioLeadIn: 0
PreviewTime: 52563
Countdown: 0
SampleSet: Soft
StackLeniency: 0.7
Mode: 3
LetterboxInBreaks: 0
SpecialStyle: 0
WidescreenStoryboard: 1

[Editor]
DistanceSpacing: 1.4
BeatDivisor: 4
GridSize: 4
TimelineZoom: 2.299999

[Metadata]
Title:RE-ILLUSION (TV Size)
TitleUnicode:RE-ILLUSION (TV Size)
Artist:Iguchi Yuka
ArtistUnicode:井口裕香
Creator:FerdiXIA-
Version:Normal
Source:ソード・オラトリア ダンジョンに出会いを求めるのは間違っているだろうか外伝
Tags:DanMachi op ダンまち opening clearly pop jpop j-pop Sword Oratoria: Is it Wrong to Try to Pick Up Girls in a Dungeon? On the Side ni Deai wo Motomeru no wa Machigatteiru Darou ka Gaiden アニメ anime japanese yuiazu- onii_ue llenn- takodachi-
BeatmapID:2791090
BeatmapSetID:1167872

[Difficulty]
HPDrainRate:7.5
CircleSize:4
OverallDifficulty:7.5
ApproachRate:5
SliderMultiplier:1.4
SliderTickRate:1

[Events]
//Background and Video events
Video,0,"op.mp4"
0,0,"bg.jpg",0,0
//Break Periods
//Storyboard Layer 0 (Background)
//Storyboard Layer 1 (Fail)
//Storyboard Layer 2 (Pass)
//Storyboard Layer 3 (Foreground)
//Storyboard Layer 4 (Overlay)
//Storyboard Sound Samples

[TimingPoints]
336,310.880829015544,4,2,1,35,1,0
2823,-100,4,2,1,40,0,0
17745,-100,4,2,1,35,0,0
27693,-100,4,2,1,40,0,0
37641,-100,4,2,1,35,0,0
50698,-100,4,2,1,40,0,0
52563,-100,4,2,1,45,0,1
74947,-100,4,2,1,30,0,0
79921,-100,4,2,1,35,0,0

[HitObjects]
64,192,336,128,0,957:0:0:0:0:
192,192,957,1,2,0:0:0:0:
448,192,1268,1,0,0:0:0:0:
64,192,1424,1,0,0:0:0:0:
320,192,1579,128,0,1890:0:0:0:0:
192,192,1890,128,0,2045:0:0:0:0:
64,192,2045,128,0,2201:0:0:0:0:
448,192,2201,128,2,2356:0:0:0:0:
320,192,2356,128,0,2512:0:0:0:0:
64,192,2512,128,0,2667:0:0:0:0:
192,192,2667,128,8,2823:0:0:0:0:
320,192,2823,1,8,0:0:0:0:
448,192,2823,1,4,0:0:0:0:
192,192,3133,1,8,0:0:0:0:
320,192,3133,1,0,0:0:0:0:
64,192,3444,1,2,0:0:0:0:
192,192,3600,1,8,0:0:0:0:
320,192,3600,1,0,0:0:0:0:
448,192,3755,1,0,0:0:0:0:
64,192,3911,1,2,0:0:0:0:
192,192,4066,1,8,0:0:0:0:
448,192,4066,1,0,0:0:0:0:
320,192,4222,1,2,0:0:0:0:
192,192,4377,1,2,0:0:0:0:
320,192,4532,1,8,0:0:0:0:
448,192,4532,1,0,0:0:0:0:
64,192,4688,128,2,4843:0:0:0:0:
192,192,4843,128,8,4999:0:0:0:0:
448,192,4999,128,8,5154:0:0:0:0:
320,192,5154,128,8,5310:0:0:0:0:
64,192,5310,1,2,0:0:0:0:
192,192,5310,1,4,0:0:0:0:
320,192,5620,1,8,0:0:0:0:
448,192,5620,1,0,0:0:0:0:
64,192,5931,1,2,0:0:0:0:
192,192,6087,1,2,0:0:0:0:
320,192,6242,128,8,6864:0:0:0:0:
448,192,6242,1,0,0:0:0:0:
64,192,6553,1,2,0:0:0:0:
192,192,6864,1,8,0:0:0:0:
448,192,6864,1,0,0:0:0:0:
64,192,7019,1,2,0:0:0:0:
320,192,7330,1,2,0:0:0:0:
64,192,7486,1,8,0:0:0:0:
192,192,7486,1,0,0:0:0:0:
320,192,7797,1,2,0:0:0:0:
448,192,7797,1,0,0:0:0:0:
64,192,8108,1,8,0:0:0:0:
448,192,8108,1,0,0:0:0:0:
192,192,8418,1,2,0:0:0:0:
64,192,8574,1,2,0:0:0:0:
320,192,8729,1,8,0:0:0:0:
448,192,8729,1,0,0:0:0:0:
192,192,9040,1,2,0:0:0:0:
64,192,9351,1,8,0:0:0:0:
448,192,9351,1,0,0:0:0:0:
320,192,9506,1,2,0:0:0:0:
192,192,9817,1,2,0:0:0:0:
64,192,9973,1,8,0:0:0:0:
320,192,9973,1,0,0:0:0:0:
448,192,10206,1,8,0:0:0:0:
192,192,10284,1,2,0:0:0:0:
320,192,10284,1,4,0:0:0:0:
64,192,10595,1,8,0:0:0:0:
192,192,10595,1,0,0:0:0:0:
320,192,10905,1,2,0:0:0:0:
448,192,11061,1,2,0:0:0:0:
64,192,11216,128,8,11838:0:0:0:0:
192,192,11216,1,0,0:0:0:0:
320,192,11527,1,2,0:0:0:0:
192,192,11838,1,8,0:0:0:0:
448,192,11838,1,0,0:0:0:0:
320,192,11994,1,2,0:0:0:0:
64,192,12304,1,2,0:0:0:0:
192,192,12460,1,8,0:0:0:0:
448,192,12460,128,0,12771:0:0:0:0:
64,192,12771,1,2,0:0:0:0:
320,192,12771,128,4,13392:0:0:0:0:
192,192,13082,1,8,0:0:0:0:
64,192,13392,128,2,14014:0:0:0:0:
448,192,13392,1,0,0:0:0:0:
320,192,13548,1,2,0:0:0:0:
192,192,13703,1,8,0:0:0:0:
320,192,14014,1,8,0:0:0:0:
448,192,14014,1,4,0:0:0:0:
320,192,14325,1,8,0:0:0:0:
448,192,14325,1,0,0:0:0:0:
64,192,14636,1,8,0:0:0:0:
192,192,14636,1,0,0:0:0:0:
320,192,14791,1,8,0:0:0:0:
448,192,14791,1,0,0:0:0:0:
64,192,15102,128,2,17434:0:0:0:0:
192,192,15102,1,4,0:0:0:0:
448,192,15569,1,8,0:0:0:0:
320,192,15880,1,2,0:0:0:0:
192,192,16035,1,0,0:0:0:70:tom01.wav
192,192,16346,1,2,0:0:0:0:
448,192,16501,1,0,0:0:0:70:tom02.wav
320,192,16812,1,2,0:0:0:0:
192,192,16968,1,0,0:0:0:70:tom03.wav
192,192,17279,1,2,0:0:0:0:
320,192,17434,1,8,0:0:0:0:
448,192,17434,1,0,0:0:0:0:
192,192,17745,1,2,0:0:0:0:
320,192,17745,1,4,0:0:0:0:
64,192,18056,1,8,0:0:0:0:
448,192,18056,1,0,0:0:0:0:
192,192,18367,1,2,0:0:0:0:
320,192,18677,1,8,0:0:0:0:
448,192,18677,1,0,0:0:0:0:
64,192,18988,1,2,0:0:0:0:
192,192,19299,1,8,0:0:0:0:
320,192,19299,1,0,0:0:0:0:
448,192,19610,1,2,0:0:0:0:
320,192,19766,1,2,0:0:0:0:
64,192,19921,1,8,0:0:0:0:
192,192,19921,1,0,0:0:0:0:
320,192,20232,1,2,0:0:0:0:
192,192,20543,1,8,0:0:0:0:
448,192,20543,1,0,0:0:0:0:
64,192,20854,1,2,0:0:0:0:
192,192,21009,1,2,0:0:0:0:
320,192,21165,1,8,0:0:0:0:
448,192,21165,1,0,0:0:0:0:
192,192,21475,1,2,0:0:0:0:
64,192,21786,1,8,0:0:0:0:
320,192,21786,1,0,0:0:0:0:
192,192,22097,1,2,0:0:0:0:
320,192,22253,1,2,0:0:0:0:
64,192,22408,1,8,0:0:0:0:
448,192,22408,1,0,0:0:0:0:
192,192,22719,1,2,0:0:0:0:
320,192,22719,1,4,0:0:0:0:
64,192,23030,1,8,0:0:0:0:
448,192,23030,1,0,0:0:0:0:
192,192,23341,1,2,0:0:0:0:
64,192,23652,1,8,0:0:0:0:
320,192,23652,1,0,0:0:0:0:
448,192,23962,1,2,0:0:0:0:
192,192,24273,1,8,0:0:0:0:
320,192,24273,1,0,0:0:0:0:
64,192,24584,1,2,0:0:0:0:
192,192,24740,1,2,0:0:0:0:
320,192,24895,1,8,0:0:0:0:
448,192,24895,1,0,0:0:0:0:
64,192,25206,1,2,0:0:0:0:
192,192,25206,1,0,0:0:0:0:
320,192,25517,1,8,0:0:0:0:
448,192,25517,1,0,0:0:0:0:
192,192,25672,1,0,0:0:0:0:
64,192,25672,1,0,0:0:0:0:
320,192,25828,1,2,0:0:0:0:
64,192,25983,1,8,0:0:0:0:
448,192,25983,1,0,0:0:0:0:
320,192,26294,1,2,0:0:0:0:
448,192,26294,1,0,0:0:0:0:
64,192,26449,1,8,0:0:0:0:
192,192,26449,1,0,0:0:0:0:
64,192,26760,1,8,0:0:0:0:
192,192,26760,1,0,0:0:0:0:
448,192,27071,1,2,0:0:0:0:
192,192,27227,1,8,0:0:0:0:
320,192,27227,128,4,27693:0:0:0:0:
64,192,27693,1,2,0:0:0:0:
448,192,27693,1,4,0:0:0:0:
64,192,28004,1,8,0:0:0:0:
192,192,28004,1,0,0:0:0:0:
320,192,28315,1,2,0:0:0:0:
64,192,28626,1,8,0:0:0:0:
448,192,28626,1,0,0:0:0:0:
192,192,28937,1,2,0:0:0:0:
64,192,29247,1,8,0:0:0:0:
320,192,29247,1,0,0:0:0:0:
448,192,29558,1,2,0:0:0:0:
320,192,29714,1,2,0:0:0:0:
64,192,29869,1,8,0:0:0:0:
192,192,29869,1,0,0:0:0:0:
320,192,30180,1,2,0:0:0:0:
192,192,30491,1,8,0:0:0:0:
448,192,30491,1,0,0:0:0:0:
64,192,30802,1,2,0:0:0:0:
192,192,30957,1,2,0:0:0:0:
320,192,31113,1,8,0:0:0:0:
448,192,31113,1,0,0:0:0:0:
192,192,31424,1,2,0:0:0:0:
64,192,31734,1,8,0:0:0:0:
320,192,31734,1,0,0:0:0:0:
448,192,32045,1,2,0:0:0:0:
320,192,32201,1,2,0:0:0:0:
192,192,32356,128,8,32667:0:0:0:0:
64,192,32356,1,0,0:0:0:0:
320,192,32667,1,4,0:0:0:0:
448,192,32667,1,2,0:0:0:0:
192,192,32978,1,8,0:0:0:0:
64,192,33133,1,2,0:0:0:0:
448,192,33133,1,4,0:0:0:0:
320,192,33444,1,2,0:0:0:0:
64,192,33600,1,8,0:0:0:0:
192,192,33600,1,0,0:0:0:0:
320,192,33911,1,2,0:0:0:0:
448,192,33911,1,0,0:0:0:0:
64,192,34222,1,8,0:0:0:0:
192,192,34377,1,2,0:0:0:0:
320,192,34377,1,4,0:0:0:0:
448,192,34688,1,2,0:0:0:0:
64,192,34843,1,8,0:0:0:0:
192,192,34843,1,0,0:0:0:0:
64,192,35154,128,2,35776:0:0:0:0:
320,192,35154,1,0,0:0:0:0:
192,192,35620,1,2,0:0:0:0:
320,192,35776,1,8,0:0:0:0:
448,192,35776,1,4,0:0:0:0:
320,192,36087,1,2,0:0:0:0:
64,192,36398,1,8,0:0:0:0:
192,192,36398,1,0,0:0:0:0:
64,192,36709,1,8,0:0:0:0:
192,192,36709,1,0,0:0:0:0:
320,192,37019,1,8,0:0:0:0:
448,192,37019,1,0,0:0:0:0:
320,192,37330,1,8,0:0:0:0:
448,192,37330,1,0,0:0:0:0:
64,192,37641,128,2,38263:0:0:0:0:
192,192,37641,1,0,0:0:0:0:
320,192,38108,1,2,0:0:0:0:
192,192,38263,1,8,0:0:0:0:
448,192,38263,1,0,0:0:0:0:
320,192,38574,1,0,0:0:0:0:
64,192,38729,1,8,0:0:0:0:
320,192,38885,128,2,39506:0:0:0:0:
448,192,38885,1,0,0:0:0:0:
192,192,39040,1,2,0:0:0:0:
64,192,39351,1,2,0:0:0:0:
192,192,39506,1,8,0:0:0:0:
448,192,39506,1,0,0:0:0:0:
192,192,39973,1,8,0:0:0:0:
64,192,40128,1,2,0:0:0:0:
448,192,40128,1,4,0:0:0:0:
320,192,40595,1,2,0:0:0:0:
448,192,40595,1,0,0:0:0:0:
192,192,40750,1,8,0:0:0:0:
320,192,41061,128,4,41527:0:0:0:0:
448,192,41061,1,2,0:0:0:0:
64,192,41527,1,8,0:0:0:0:
192,192,41527,1,0,0:0:0:0:
448,192,41683,1,0,0:0:0:0:
320,192,41838,1,2,0:0:0:0:
64,192,41994,128,8,42615:0:0:0:0:
192,192,41994,1,0,0:0:0:0:
192,192,42615,128,2,43237:0:0:0:0:
448,192,42615,1,0,0:0:0:0:
320,192,43082,1,2,0:0:0:0:
64,192,43237,1,8,0:0:0:0:
448,192,43237,1,0,0:0:0:0:
320,192,43548,1,0,0:0:0:0:
192,192,43703,1,8,0:0:0:0:
64,192,43859,1,2,0:0:0:0:
448,192,43859,128,0,44481:0:0:0:0:
320,192,44014,1,2,0:0:0:0:
64,192,44325,1,2,0:0:0:0:
192,192,44481,1,8,0:0:0:0:
320,192,44481,1,0,0:0:0:0:
192,192,44947,1,8,0:0:0:0:
64,192,45102,1,2,0:0:0:0:
448,192,45102,1,4,0:0:0:0:
64,192,45569,1,2,0:0:0:0:
192,192,45569,1,0,0:0:0:0:
320,192,45724,1,8,0:0:0:0:
64,192,46035,128,2,46501:0:0:0:0:
448,192,46035,1,4,0:0:0:0:
192,192,46501,1,2,0:0:0:0:
320,192,46657,1,0,0:0:0:70:tom01.wav
448,192,46812,1,0,0:0:0:70:tom02.wav
192,192,46968,128,2,47279:0:0:0:0:
320,192,47279,128,0,47589:0:0:0:0:
64,192,47589,1,2,0:0:0:0:
448,192,47589,128,0,48211:0:0:0:0:
64,192,48211,128,4,48833:0:0:0:0:
320,192,48211,1,2,0:0:0:0:
192,192,48833,128,2,49455:0:0:0:0:
448,192,48833,1,0,0:0:0:0:
64,192,49455,1,4,0:0:0:0:
320,192,49455,128,2,50076:0:0:0:0:
448,192,50076,128,0,50698:0:0:0:0:
64,192,50698,1,4,0:0:0:0:
192,192,50698,1,2,0:0:0:0:
64,192,51165,1,2,0:0:0:0:
192,192,51320,128,8,51631:0:0:0:0:
320,192,51320,1,4,0:0:0:0:
64,192,51631,128,0,51942:0:0:0:0:
320,192,51942,1,2,0:0:0:0:
448,192,51942,128,8,52563:0:0:0:0:
192,192,52097,1,8,0:0:0:0:
64,192,52253,1,8,0:0:0:0:
320,192,52408,1,8,0:0:0:0:
64,192,52563,1,4,0:0:0:0:
192,192,52563,1,2,0:0:0:0:
64,192,52874,1,8,0:0:0:0:
448,192,52874,1,0,0:0:0:0:
320,192,53030,1,0,0:0:0:0:
64,192,53185,1,2,0:0:0:0:
192,192,53341,1,2,0:0:0:0:
320,192,53496,1,8,0:0:0:0:
448,192,53496,1,0,0:0:0:0:
192,192,53652,1,0,0:0:0:0:
64,192,53807,128,2,54273:0:0:0:0:
448,192,53807,1,0,0:0:0:0:
320,192,54118,1,8,0:0:0:0:
192,192,54273,1,2,0:0:0:0:
448,192,54273,128,0,54740:0:0:0:0:
64,192,54584,1,2,0:0:0:0:
192,192,54740,1,8,0:0:0:0:
320,192,54740,128,0,55051:0:0:0:0:
64,192,55051,1,2,0:0:0:0:
448,192,55051,1,0,0:0:0:0:
192,192,55361,1,8,0:0:0:0:
448,192,55361,1,0,0:0:0:0:
64,192,55517,1,0,0:0:0:0:
320,192,55672,1,2,0:0:0:0:
192,192,55828,1,2,0:0:0:0:
320,192,55983,1,8,0:0:0:0:
448,192,55983,1,0,0:0:0:0:
64,192,56139,1,0,0:0:0:0:
192,192,56294,128,2,56760:0:0:0:0:
320,192,56294,1,0,0:0:0:0:
448,192,56605,1,8,0:0:0:0:
64,192,56760,1,2,0:0:0:0:
320,192,56760,128,0,57227:0:0:0:0:
192,192,57071,1,2,0:0:0:0:
64,192,57227,1,8,0:0:0:0:
448,192,57227,1,0,0:0:0:0:
320,192,57538,1,2,0:0:0:0:
448,192,57538,1,0,0:0:0:0:
64,192,57848,1,8,0:0:0:0:
192,192,57848,1,0,0:0:0:0:
320,192,58004,1,0,0:0:0:0:
448,192,58159,1,2,0:0:0:0:
320,192,58315,1,2,0:0:0:0:
64,192,58470,1,8,0:0:0:0:
192,192,58470,1,0,0:0:0:0:
320,192,58781,1,2,0:0:0:0:
448,192,58781,128,0,59403:0:0:0:0:
64,192,59092,1,8,0:0:0:0:
192,192,59247,1,0,0:0:0:0:
64,192,59403,128,2,60025:0:0:0:0:
320,192,59403,1,0,0:0:0:0:
448,192,59558,1,2,0:0:0:0:
192,192,59714,1,8,0:0:0:0:
448,192,60025,1,2,0:0:0:0:
320,192,60180,1,0,0:0:0:0:
192,192,60335,1,8,0:0:0:0:
448,192,60335,1,0,0:0:0:0:
64,192,60491,1,0,0:0:0:0:
192,192,60646,1,2,0:0:0:0:
448,192,60802,1,2,0:0:0:0:
64,192,60957,1,8,0:0:0:0:
320,192,60957,1,0,0:0:0:0:
192,192,61113,1,0,0:0:0:0:
320,192,61268,1,8,0:0:0:0:
448,192,61268,1,0,0:0:0:0:
320,192,61579,1,8,0:0:0:0:
448,192,61579,1,0,0:0:0:0:
64,192,61890,1,8,0:0:0:0:
192,192,61890,1,0,0:0:0:0:
64,192,62201,1,8,0:0:0:0:
192,192,62201,1,0,0:0:0:0:
192,192,62434,1,8,0:0:0:0:
320,192,62512,1,2,0:0:0:0:
448,192,62512,1,4,0:0:0:0:
192,192,62823,1,8,0:0:0:0:
320,192,62823,1,0,0:0:0:0:
64,192,62978,1,0,0:0:0:0:
448,192,63133,1,2,0:0:0:0:
320,192,63289,1,2,0:0:0:0:
64,192,63444,1,8,0:0:0:0:
192,192,63444,1,0,0:0:0:0:
320,192,63600,1,0,0:0:0:0:
192,192,63755,128,2,64222:0:0:0:0:
448,192,63755,1,0,0:0:0:0:
64,192,64066,1,8,0:0:0:0:
320,192,64222,128,2,64688:0:0:0:0:
448,192,64222,1,0,0:0:0:0:
192,192,64532,1,2,0:0:0:0:
64,192,64688,128,8,64999:0:0:0:0:
448,192,64688,1,0,0:0:0:0:
192,192,64999,1,2,0:0:0:0:
320,192,64999,1,0,0:0:0:0:
64,192,65310,1,8,0:0:0:0:
448,192,65310,1,0,0:0:0:0:
320,192,65465,1,0,0:0:0:0:
192,192,65620,1,2,0:0:0:0:
448,192,65776,1,2,0:0:0:0:
64,192,65931,1,8,0:0:0:0:
192,192,65931,1,0,0:0:0:0:
320,192,66087,1,0,0:0:0:0:
64,192,66242,1,2,0:0:0:0:
448,192,66242,128,0,66709:0:0:0:0:
192,192,66553,1,8,0:0:0:0:
64,192,66709,128,2,67175:0:0:0:0:
320,192,66709,1,0,0:0:0:0:
448,192,67019,1,2,0:0:0:0:
192,192,67175,128,8,67486:0:0:0:0:
320,192,67175,1,0,0:0:0:0:
64,192,67486,1,2,0:0:0:0:
448,192,67486,128,4,68418:0:0:0:0:
320,192,67797,1,8,0:0:0:0:
192,192,68108,1,2,0:0:0:0:
64,192,68263,1,2,0:0:0:0:
192,192,68418,128,8,68729:0:0:0:0:
320,192,68418,1,0,0:0:0:0:
64,192,68729,1,2,0:0:0:0:
320,192,68729,128,0,69040:0:0:0:0:
192,192,69040,1,8,0:0:0:0:
448,192,69040,1,0,0:0:0:0:
64,192,69196,128,0,69662:0:0:0:0:
320,192,69351,1,2,0:0:0:0:
448,192,69506,1,2,0:0:0:0:
192,192,69662,1,8,0:0:0:0:
320,192,69662,1,0,0:0:0:0:
192,192,69973,1,2,0:0:0:0:
448,192,69973,1,0,0:0:0:0:
64,192,70284,1,8,0:0:0:0:
320,192,70284,1,0,0:0:0:0:
64,192,70595,1,8,0:0:0:0:
448,192,70595,1,0,0:0:0:0:
192,192,70905,1,8,0:0:0:0:
320,192,70905,1,0,0:0:0:0:
64,192,71216,1,2,0:0:0:0:
448,192,71216,1,0,0:0:0:0:
64,192,71527,1,8,0:0:0:0:
192,192,71527,1,0,0:0:0:0:
320,192,71838,1,8,0:0:0:0:
448,192,71838,1,0,0:0:0:0:
64,192,72149,1,8,0:0:0:0:
192,192,72149,1,0,0:0:0:0:
320,192,72304,1,8,0:0:0:0:
448,192,72304,1,0,0:0:0:0:
64,192,72460,128,4,73082:0:0:0:0:
192,192,72460,1,2,0:0:0:0:
448,192,72771,1,10,0:0:0:0:
320,192,72926,1,8,0:0:0:0:
192,192,73082,128,4,73703:0:0:0:0:
448,192,73082,1,2,0:0:0:0:
64,192,73392,1,2,0:0:0:0:
320,192,73703,1,4,0:0:0:0:
448,192,73703,128,2,74325:0:0:0:0:
192,192,74014,1,2,0:0:0:0:
64,192,74325,1,2,0:0:0:0:
320,192,74325,128,4,74947:0:0:0:0:
192,192,74636,1,2,0:0:0:0:
448,192,74947,1,0,0:0:0:0:
192,192,75102,1,0,0:0:0:0:
64,192,75258,128,0,75569:0:0:0:0:
192,192,75569,1,0,0:0:0:0:
320,192,75724,1,0,0:0:0:0:
448,192,75880,128,0,76190:0:0:0:0:
320,192,76190,1,0,0:0:0:0:
192,192,76346,1,0,0:0:0:0:
64,192,76501,128,0,76812:0:0:0:0:
320,192,76812,128,0,77123:0:0:0:0:
192,192,77434,128,0,78056:0:0:0:0:
320,192,78056,1,2,0:0:0:0:
448,192,78056,1,0,0:0:0:0:
448,192,78677,1,0,0:0:0:0:
320,192,78833,1,0,0:0:0:0:
192,192,78988,1,0,0:0:0:0:
64,192,79144,1,0,0:0:0:0:
320,192,79299,128,2,79455:0:0:0:0:
448,192,79455,128,8,79610:0:0:0:0:
64,192,79610,128,8,79766:0:0:0:0:
192,192,79766,128,8,79921:0:0:0:0:
320,192,79921,1,2,0:0:0:0:
448,192,79921,1,4,0:0:0:0:
64,192,80232,1,8,0:0:0:0:
320,192,80232,1,0,0:0:0:0:
448,192,80543,1,2,0:0:0:0:
320,192,80698,1,2,0:0:0:0:
64,192,80854,128,8,81475:0:0:0:0:
192,192,80854,1,0,0:0:0:0:
320,192,81165,1,2,0:0:0:0:
192,192,81475,1,8,0:0:0:0:
448,192,81475,1,0,0:0:0:0:
320,192,81631,1,2,0:0:0:0:
64,192,81942,1,2,0:0:0:0:
320,192,82097,128,8,82408:0:0:0:0:
448,192,82097,1,0,0:0:0:0:
64,192,82408,128,4,83030:0:0:0:0:
192,192,82408,1,2,0:0:0:0:
320,192,82719,1,8,0:0:0:0:
192,192,83030,1,2,0:0:0:0:
448,192,83030,128,0,83652:0:0:0:0:
320,192,83185,1,2,0:0:0:0:
64,192,83341,1,8,0:0:0:0:
192,192,83652,1,8,0:0:0:0:
320,192,83652,1,0,0:0:0:0:
192,192,83962,1,8,0:0:0:0:
320,192,83962,1,0,0:0:0:0:
320,192,84273,128,10,84429:0:0:0:0:
192,192,84429,128,0,84584:0:0:0:70:tom01.wav
64,192,84584,128,0,84740:0:0:0:70:tom03.wav
320,192,84740,1,2,0:0:0:0:
448,192,84740,128,4,86139:0:0:0:0:
64,192,86139,1,8,0:0:0:0:
320,192,86139,1,0,0:0:0:0:
192,192,86294,1,2,0:0:0:0:
64,192,86449,1,8,0:0:0:0:
448,192,86449,1,0,0:0:0:0:
320,192,86605,1,8,0:0:0:0:
192,192,86683,1,8,0:0:0:0:
448,192,86760,1,2,0:0:0:0:
320,192,86916,1,0,0:0:0:70:tom02.wav
64,192,87071,1,2,0:0:0:0:
320,192,87382,1,8,0:0:0:0:
448,192,87382,1,2,0:0:0:0:
320,192,87538,1,8,0:0:0:0:
448,192,87538,1,2,0:0:0:0:
192,192,88004,128,0,88626:0:0:0:0:
